<?xml version="1.0" standalone="no"?>
<!DOCTYPE svg PUBLIC "-//W3C//DTD SVG 1.1//EN" "http://www.w3.org/Graphics/SVG/1.1/DTD/svg11.dtd" >
<svg xmlns="http://www.w3.org/2000/svg" xmlns:xlink="http://www.w3.org/1999/xlink" version="1.1">
<metadata></metadata>
<defs>
<font id="rawlineextralight_italic" horiz-adv-x="0" >
<font-face units-per-em="2048" ascent="1638" descent="-410" />
<missing-glyph horiz-adv-x="518" />
<glyph unicode="fi" horiz-adv-x="913" d="M279 1004h-144l12 61h146l8 39q11 56 33 111.5t59 110.5t83 96.5t109.5 67.5t133.5 26q63 0 119 -17.5t81.5 -33.5t34.5 -27l-51 -47q-18 25 -72 42t-124 17q-67 0 -126.5 -31t-100.5 -82.5t-68.5 -110.5t-40.5 -122l-9 -39h486l-225 -1065h-70l213 1004h-418l-213 -1004 h-69z" />
<glyph unicode="fl" horiz-adv-x="1056" d="M643 121q0 33 6 53l225 1057q7 28 7 53q0 73 -47 119.5t-146 46.5q-83 0 -151.5 -52.5t-108.5 -129t-57 -166.5l-9 -37h234l-14 -61h-234l-213 -1004h-69l213 1004h-144l12 61h146l8 41q24 118 75 208t135 146t191 56q121 0 185.5 -58t64.5 -153q0 -35 -8 -66l-223 -1057 q-4 -20 -4 -30q0 -41 23 -70t67 -29q14 0 32 2t33 5.5t28 6.5t22 5l8 2l6 -62q-1 -2 -24 -7.5t-61.5 -10t-72.5 -4.5q-65 0 -100 36.5t-35 94.5z" />
<glyph unicode="&#xd;" />
<glyph unicode=" "  horiz-adv-x="518" />
<glyph unicode="&#x09;" horiz-adv-x="518" />
<glyph unicode="&#xa0;" horiz-adv-x="518" />
<glyph unicode="!" horiz-adv-x="473" d="M162 426l219 1042h72l-222 -1042h-69zM70 0l41 188h77l-47 -188h-71z" />
<glyph unicode="&#x22;" horiz-adv-x="479" d="M252 1139l67 319h66l-70 -319h-63zM377 1139l67 319h66l-70 -319h-63z" />
<glyph unicode="#" horiz-adv-x="1292" d="M1290 971h-235l-205 -465h262l-12 -62h-279l-194 -444h-66l199 444h-436l-195 -444h-66l199 444h-219l12 62h236l203 465h-261l15 59h274l189 424h63l-190 -424h436l186 424h66l-191 -424h222zM786 506l205 465h-434l-205 -465h434z" />
<glyph unicode="$" horiz-adv-x="1208" d="M817 1464q255 -3 373 -172l-49 -53q-54 85 -134.5 121.5t-203.5 38.5l-137 -639q82 -19 140.5 -37t113.5 -45t88.5 -60t53 -79t19.5 -105q0 -209 -158 -326.5t-419 -117.5l-39 -187h-51l41 189q-286 12 -449 219l53 53q135 -196 410 -211l139 647q-98 21 -163 43.5 t-118 56.5t-77.5 82t-24.5 113q0 207 150.5 332.5t390.5 136.5l45 205h51zM301 1016q0 -102 74 -153.5t248 -94.5l133 631q-230 -9 -342.5 -113.5t-112.5 -269.5zM1004 416q0 109 -83.5 169t-269.5 105l-135 -639h2q225 0 355.5 94.5t130.5 270.5z" />
<glyph unicode="%" horiz-adv-x="1345" d="M209 1137q0 133 106 235.5t238 102.5q97 0 159 -68t62 -168q0 -133 -106 -234.5t-238 -101.5q-97 0 -159 67t-62 167zM-14 33l671 688l713 737l35 -35l-1385 -1427zM715 1231q0 81 -50 135.5t-124 54.5q-103 0 -187 -85t-84 -189q0 -83 48 -138t124 -55q103 0 188 86 t85 191zM618 215q0 133 107 234.5t238 101.5q97 0 158 -67t61 -167q0 -135 -105 -236t-237 -101q-97 0 -159.5 67t-62.5 168zM1122 305q0 82 -49.5 138.5t-122.5 56.5q-103 0 -187.5 -86t-84.5 -193q0 -80 48 -134t124 -54q103 0 187.5 84t84.5 188z" />
<glyph unicode="&#x26;" horiz-adv-x="1370" d="M1329 791h-201q-65 -283 -221 -494l209 -297h-94l-162 236q-104 -122 -227 -189t-250 -67q-152 0 -248 94t-96 245q0 148 99.5 271t312.5 246q-67 101 -95 167t-28 123q0 138 123 242.5t284 104.5q110 0 196.5 -57.5t129.5 -158.5l-47 -43q-39 93 -115.5 147t-173.5 54 q-129 0 -229.5 -85.5t-100.5 -194.5q0 -103 127 -285l348 -500q151 220 203 502h268zM395 43q114 0 224 64.5t204 181.5l-317 463q-13 20 -23 32q-190 -110 -280 -220t-90 -238q0 -126 78.5 -204.5t203.5 -78.5z" />
<glyph unicode="'" horiz-adv-x="352" d="M252 1137l67 321h66l-70 -321h-63z" />
<glyph unicode="(" horiz-adv-x="487" d="M551 1495l47 -33q-76 -88 -146.5 -190.5t-137.5 -225t-107.5 -255t-40.5 -248.5q0 -134 30 -289t85 -281l-60 -32q-59 134 -91 289t-32 296q0 89 15.5 175t48 169.5t69 156.5t94 158.5t106 151.5t120.5 158z" />
<glyph unicode=")" horiz-adv-x="487" d="M-20 -59l-46 32q426 491 426 895q0 149 -32 317.5t-78 276.5l61 33q119 -325 119 -608q0 -234 -113.5 -460.5t-336.5 -485.5z" />
<glyph unicode="*" horiz-adv-x="612" d="M289 1145l106 119l-121 45l25 49l123 -47l29 145h53l-33 -145l145 47v-49l-139 -45l58 -119l-50 -31l-55 121l-106 -121z" />
<glyph unicode="+" horiz-adv-x="841" d="M752 758v-62h-277v-299h-67v299h-277v62h277v299h67v-299h277z" />
<glyph unicode="," horiz-adv-x="423" d="M49 -166l57 154h-26l35 164h75l-36 -164l-64 -154h-41z" />
<glyph unicode="-" horiz-adv-x="827" d="M117 522l12 68h557l-14 -68h-555z" />
<glyph unicode="." horiz-adv-x="342" d="M12 0l33 152h64l-33 -152h-64z" />
<glyph unicode="/" horiz-adv-x="1128" d="M1235 1454l-1206 -1454h-82l1206 1454h82z" />
<glyph unicode="0" horiz-adv-x="1325" d="M106 559q0 121 37.5 249.5t107 242.5t159 205t202.5 144.5t228 53.5q87 0 158.5 -34.5t119 -92t80.5 -133.5t47.5 -157t14.5 -165q0 -122 -37.5 -250t-106.5 -241.5t-158.5 -204t-202.5 -143.5t-229 -53q-85 0 -156.5 34t-119.5 90.5t-81 132t-48 157t-15 165.5z M1188 864q0 100 -22.5 191.5t-66 166.5t-114 119.5t-158.5 44.5q-109 0 -212 -54.5t-179.5 -143.5t-135 -199.5t-88.5 -227t-30 -220.5q0 -100 21 -186.5t63 -156.5t112.5 -110.5t162.5 -40.5q108 0 210.5 53t180 139.5t136.5 193t89.5 219t30.5 212.5z" />
<glyph unicode="1" horiz-adv-x="724" d="M10 66h258l279 1314q-47 -53 -157.5 -114.5t-182.5 -61.5l14 68q38 0 87 20.5t91.5 49t81.5 59t61 50.5t25 24h72l-299 -1409h246l-15 -66h-575z" />
<glyph unicode="2" horiz-adv-x="1105" d="M500 657q31 12 88 33t92.5 34.5t87 37.5t84.5 46t70 56t58 71t35.5 88t14.5 110q0 117 -71.5 194.5t-213.5 77.5q-80 0 -155 -23t-133 -62t-96.5 -72.5t-71.5 -71.5l-41 41q9 11 29 33t70.5 63.5t107.5 75t141 59t170 25.5q167 0 253.5 -94.5t86.5 -235.5 q0 -53 -10 -100.5t-26.5 -85t-43 -72.5t-53 -60.5t-64.5 -50.5t-69.5 -42t-75.5 -36.5t-74.5 -31.5t-75 -29t-69.5 -27q-104 -41 -185.5 -96t-130.5 -108.5t-84.5 -117t-51 -113.5t-25.5 -107h817l-15 -66h-897q17 110 53 202.5t83 161t110.5 125t131 95.5t149.5 73z" />
<glyph unicode="3" horiz-adv-x="1138" d="M41 348l59 23q0 -152 97.5 -237t253.5 -85q120 0 226 49t171 136t65 190q0 131 -106.5 207t-294.5 76h-68l13 63h69q235 0 366.5 93t131.5 255q0 132 -86 210.5t-229 78.5q-128 0 -242 -62.5t-174 -164.5l-47 39q73 116 204 185t275 69q168 0 270.5 -95.5t102.5 -249.5 q0 -143 -93 -244.5t-264 -144.5q114 -24 180 -107.5t66 -197.5q0 -126 -79 -231t-205 -163t-265 -58q-178 0 -287.5 96.5t-109.5 269.5z" />
<glyph unicode="4" horiz-adv-x="1091" d="M649 0l88 420h-725l15 61l952 973h49l-207 -969h172l-14 -65h-172l-88 -420h-70zM756 485l180 852l-825 -852h645z" />
<glyph unicode="5" horiz-adv-x="1093" d="M20 272l62 21q30 -112 118.5 -180t209.5 -68q93 0 182.5 37.5t157.5 101.5t109.5 155t41.5 191q0 141 -86.5 230.5t-222.5 89.5q-104 0 -208.5 -50t-182.5 -141h-72l322 795h659l-14 -68h-604l-250 -622q79 73 175 112t193 39q160 0 261.5 -104t101.5 -268 q0 -119 -50 -225.5t-131.5 -179.5t-185.5 -115.5t-211 -42.5q-144 0 -244 79.5t-131 212.5z" />
<glyph unicode="6" horiz-adv-x="1193" d="M1085 565q0 173 -105.5 290.5t-272.5 117.5q-146 0 -284.5 -89t-213.5 -231q75 350 234 548t352 198q120 0 200.5 -71.5t94.5 -188.5l59 32q-17 135 -109 214t-231 79q-154 0 -288 -88t-225.5 -233.5t-143.5 -334t-52 -388.5q0 -203 105 -321.5t280 -118.5 q113 0 222.5 47.5t192.5 126.5t134 187.5t51 223.5zM170 401q0 98 44.5 192t116 163t165.5 111t188 42q144 0 237 -103.5t93 -254.5q0 -131 -74.5 -249t-193 -187.5t-244.5 -69.5q-145 0 -238.5 102.5t-93.5 253.5z" />
<glyph unicode="7" horiz-adv-x="970" d="M1008 1386h-803l14 68h916l-1016 -1454h-78z" />
<glyph unicode="8" horiz-adv-x="1148" d="M434 -14q-177 0 -280 99t-103 245q0 84 35.5 160.5t94 132.5t126.5 96t139 61q-86 36 -140 106t-54 163t46 171.5t119.5 128.5t161.5 77.5t175 27.5q92 0 170.5 -33.5t129 -102.5t50.5 -159q0 -132 -96.5 -230t-237.5 -149q104 -36 169 -122.5t65 -200.5q0 -136 -84 -246 t-213.5 -167.5t-272.5 -57.5zM614 809q67 0 139.5 23.5t135 65t103 107.5t40.5 142q0 110 -86 176t-211 66q-101 0 -194.5 -40t-156 -119t-62.5 -177q0 -111 88.5 -177.5t203.5 -66.5zM600 748q-80 0 -164.5 -30.5t-154 -82.5t-114 -130t-44.5 -165q0 -89 49.5 -157.5 t124 -102t158.5 -33.5q81 0 165 29.5t154 81t115 129.5t45 166q0 89 -50 158t-125 103t-159 34z" />
<glyph unicode="9" horiz-adv-x="1191" d="M532 471q146 0 284.5 89t213.5 231q-76 -350 -234 -548t-352 -198q-120 0 -202 71.5t-95 188.5l-59 -33q19 -135 111.5 -213.5t232.5 -78.5q153 0 287 88.5t225 234t143 334t52 387.5q0 203 -104.5 321.5t-280.5 118.5q-112 0 -222 -47.5t-193 -126.5t-134 -187.5 t-51 -223.5q0 -173 105.5 -290.5t272.5 -117.5zM1069 1042q0 -130 -75 -248.5t-194.5 -188.5t-244.5 -70q-144 0 -237 103.5t-93 254.5q0 131 74.5 249.5t193 188.5t244.5 70q144 0 238 -104t94 -255z" />
<glyph unicode=":" horiz-adv-x="335" d="M197 907l32 152h64l-33 -152h-63zM4 0l33 152h61l-30 -152h-64z" />
<glyph unicode=";" horiz-adv-x="346" d="M201 907l32 152h64l-33 -152h-63zM-27 -166l58 154h-27l35 164h76l-37 -164l-64 -154h-41z" />
<glyph unicode="&#x3c;" horiz-adv-x="1110" d="M63 553l855 512v-76l-754 -459l754 -460v-76l-855 512v47z" />
<glyph unicode="=" horiz-adv-x="937" d="M154 621v59h606v-59h-606zM154 451v59h606v-59h-606z" />
<glyph unicode="&#x3e;" horiz-adv-x="1110" d="M1010 506l-854 -512v76l753 460l-753 459v76l854 -512v-47z" />
<glyph unicode="?" horiz-adv-x="925" d="M281 381q24 114 61 190t78.5 114t103.5 69q21 11 59 28.5t63 29t60 31.5t58 39t48.5 48t40 61t24.5 76t10 96q0 120 -70 183t-176 63q-112 0 -221 -63t-180 -166l-47 28q79 124 206 194.5t254 70.5q129 0 215 -80t86 -224q0 -55 -10 -103t-23.5 -82.5t-41 -67.5 t-48.5 -53t-61 -44.5t-63 -36.5t-70 -35t-68 -34q-43 -21 -71 -41.5t-59 -57t-54 -94t-41 -139.5h-63zM201 0l39 186h63l-39 -186h-63z" />
<glyph unicode="@" horiz-adv-x="1628" d="M1448 614q0 249 -148.5 410.5t-384.5 161.5q-151 0 -299.5 -71.5t-261 -188.5t-182.5 -276t-70 -324q0 -249 148 -412.5t381 -163.5q146 0 305 78l12 -45q-175 -82 -338 -82q-159 0 -287 81.5t-199 224t-71 317.5q0 141 49 279.5t134.5 250.5t195 199t238.5 134.5 t256 47.5q250 0 410.5 -172t160.5 -438q0 -111 -30 -227.5t-81.5 -212.5t-128 -157t-161.5 -61q-56 0 -83.5 30t-27.5 95q0 49 6 76q-70 -68 -160.5 -109t-175.5 -41q-133 0 -215 100.5t-82 258.5q0 142 67.5 268.5t180.5 202.5t240 76q96 0 166 -48t102 -135l37 181h57 l-153 -719q-15 -66 -15 -99q0 -86 78 -86q84 0 161.5 90.5t123 229t45.5 276.5zM1020 295l76 375q-28 94 -95.5 146t-160.5 52q-107 0 -205 -66t-158.5 -178t-60.5 -237q0 -138 72 -225.5t188 -87.5q102 0 205 65.5t139 155.5z" />
<glyph unicode="A" horiz-adv-x="1327" d="M819 1454h62l282 -1454h-76l-96 502h-688l-309 -502h-78zM983 563l-152 801l-495 -801h647z" />
<glyph unicode="B" horiz-adv-x="1294" d="M371 1454h628q115 0 180.5 -87.5t65.5 -209.5q0 -131 -78.5 -245t-201.5 -167q89 -30 138.5 -111t49.5 -185q0 -117 -65 -222t-168.5 -166t-212.5 -61h-646zM827 766q87 0 168.5 55t130 142t48.5 178q0 105 -54.5 176.5t-148.5 71.5h-543l-133 -623h532zM719 66 q89 0 173.5 55t136.5 143t52 180q0 107 -58.5 182.5t-154.5 75.5h-585l-138 -636h574z" />
<glyph unicode="C" horiz-adv-x="1353" d="M104 590q0 101 28 206t78.5 201.5t125 181.5t163 147.5t198 99t225.5 36.5q185 0 298 -86t148 -231l-65 -29q-79 279 -388 279q-126 0 -242.5 -47.5t-205.5 -128.5t-156 -184t-102 -218.5t-35 -228.5q0 -144 54 -264t161.5 -194.5t249.5 -74.5q139 0 282 74t246 221 l58 -24q-103 -161 -268 -249.5t-330 -88.5q-122 0 -223.5 51.5t-165.5 137t-99 192.5t-35 221z" />
<glyph unicode="D" horiz-adv-x="1404" d="M371 1454h452q130 0 231 -42.5t163 -118.5t94 -175.5t32 -218.5q0 -190 -62.5 -357t-172 -286t-263.5 -187.5t-331 -68.5h-453zM528 66q136 0 255 43.5t207.5 121t152.5 180.5t96.5 224.5t32.5 251.5q0 227 -119.5 364.5t-343.5 137.5h-381l-283 -1323h383z" />
<glyph unicode="E" horiz-adv-x="1200" d="M371 1454h897l-15 -65h-825l-131 -613h723l-14 -65h-721l-140 -645h844l-12 -66h-916z" />
<glyph unicode="F" horiz-adv-x="1193" d="M371 1454h895l-15 -65h-823l-129 -615h698l-12 -63h-702l-150 -711h-72z" />
<glyph unicode="G" horiz-adv-x="1409" d="M913 637l13 61h383l-150 -698h-63l51 238q-260 -248 -535 -248q-120 0 -218.5 51.5t-160.5 138t-95.5 194.5t-33.5 226q0 130 41 258.5t116.5 236.5t175.5 191.5t226 130.5t259 47q187 0 299 -85.5t149 -231.5l-67 -31q-78 281 -390 281q-154 0 -293.5 -70t-236 -182.5 t-153 -255.5t-56.5 -287q0 -148 55.5 -271.5t162.5 -198.5t245 -75q253 0 528 269l66 311h-318z" />
<glyph unicode="H" horiz-adv-x="1439" d="M371 1454h71l-145 -678h913l146 678h69l-309 -1454h-69l149 711h-911l-152 -711h-72z" />
<glyph unicode="I" horiz-adv-x="456" d="M371 1452h71l-309 -1452h-72z" />
<glyph unicode="J" horiz-adv-x="944" d="M-68 68l39 57q98 -84 262 -84q66 0 121 16t97 43.5t77.5 75t61 98t50 126t42.5 145.5t39 170l158 737h69l-157 -737q-20 -95 -36.5 -164t-39 -144.5t-46.5 -127.5t-56 -104.5t-70 -86t-85.5 -60.5t-106.5 -39t-130 -12q-167 0 -289 91z" />
<glyph unicode="K" horiz-adv-x="1224" d="M371 1452h71l-194 -913l1034 915h88l-717 -637l434 -817h-79l-410 774l-369 -323l-96 -451h-72z" />
<glyph unicode="L" horiz-adv-x="1132" d="M371 1454h71l-297 -1388h846l-14 -66h-916z" />
<glyph unicode="M" horiz-adv-x="1728" d="M371 1454h67l375 -1081l836 1081h65l-309 -1454h-70l279 1315l-797 -1032h-47l-356 1032l-281 -1315h-72z" />
<glyph unicode="N" horiz-adv-x="1519" d="M371 1454h55l725 -1341l283 1339h71l-309 -1452h-68l-714 1319l-281 -1319h-72z" />
<glyph unicode="O" horiz-adv-x="1484" d="M102 584q0 172 66 334t175.5 281.5t258.5 192t307 72.5q105 0 192 -33t146.5 -89.5t100.5 -133.5t60 -163t19 -179q0 -114 -30 -226t-83 -208t-128.5 -178t-163.5 -140t-191.5 -91t-209.5 -33q-104 0 -191 32.5t-147 88t-101.5 131.5t-60.5 162t-19 180zM1358 864 q0 108 -28 202.5t-82 169t-144 118t-205 43.5q-148 0 -284 -69.5t-231.5 -182t-152.5 -259.5t-57 -298q0 -108 28 -202t82 -168.5t144 -117.5t205 -43q120 0 232.5 45t200.5 123.5t154.5 180t102 220t35.5 238.5z" />
<glyph unicode="P" horiz-adv-x="1220" d="M371 1454h555q99 0 174 -53.5t111 -135t36 -175.5q0 -128 -65.5 -250t-179.5 -200.5t-242 -78.5h-508l-119 -561h-72zM772 627q108 0 203.5 70.5t149 176t53.5 213.5q0 125 -72.5 213.5t-185.5 88.5h-492l-162 -762h506z" />
<glyph unicode="Q" horiz-adv-x="1482" d="M1427 866q0 -202 -88 -385t-237 -309l96 -172h-78l-73 131q-200 -141 -426 -141q-104 0 -191 32.5t-147 88t-101.5 131.5t-60.5 162t-19 180q0 172 66 334t175.5 281.5t258.5 192t307 72.5q105 0 192 -33t146.5 -89.5t100.5 -133.5t60 -163t19 -179zM633 57 q204 0 383 129l-121 213h78l96 -170q133 116 211 286t78 349q0 108 -28 202.5t-82 169t-144 118t-205 43.5q-148 0 -284 -69.5t-231.5 -182t-152.5 -259.5t-57 -298q0 -108 28 -202t82 -168.5t144 -117.5t205 -43z" />
<glyph unicode="R" horiz-adv-x="1269" d="M61 0l310 1454h569q95 0 167.5 -53.5t108 -136t35.5 -177.5q0 -186 -131 -342.5t-309 -175.5l223 -569h-82l-221 561h-479l-119 -561h-72zM776 627q107 0 202 68.5t148.5 172t53.5 209.5q0 128 -72 220t-184 92h-496l-162 -762h510z" />
<glyph unicode="S" horiz-adv-x="1189" d="M-6 211l51 53q83 -102 196 -156.5t273 -54.5q218 0 347.5 94.5t129.5 260.5q0 38 -8.5 69.5t-22.5 55.5t-40.5 44.5t-53.5 35.5t-71.5 30t-84.5 26.5t-102 26.5q-66 16 -103 26t-85.5 26.5t-74.5 31t-55.5 37t-43.5 48t-23.5 61t-9.5 78.5q0 206 157.5 333t407.5 127 q265 0 400 -172l-52 -53q-112 160 -352 160q-230 0 -357.5 -108t-127.5 -271q0 -35 8 -63t19.5 -49t37 -39.5t48.5 -31t68 -27t80 -24.5t99 -26q80 -21 129 -35.5t103 -36t84 -44t56.5 -54.5t37 -72.5t10.5 -93.5q0 -143 -76 -242.5t-202 -145.5t-291 -46q-169 0 -288.5 53 t-217.5 168z" />
<glyph unicode="T" horiz-adv-x="1179" d="M713 1389h-516l12 65h1106l-15 -65h-518l-295 -1389h-69z" />
<glyph unicode="U" horiz-adv-x="1480" d="M166 463q0 120 29 262l155 729h70l-154 -729q-30 -140 -30 -250q0 -418 380 -418q114 0 212 39t168 103t125.5 152.5t89 180t55.5 193.5l153 729h70l-154 -729q-26 -122 -66.5 -227.5t-103 -200.5t-141 -162t-184.5 -106t-230 -39q-98 0 -174.5 24.5t-126.5 67t-82.5 103 t-46.5 129t-14 149.5z" />
<glyph unicode="V" horiz-adv-x="1320" d="M205 1454h74l264 -1366l839 1366h76l-901 -1454h-70z" />
<glyph unicode="W" horiz-adv-x="2025" d="M203 1454h78l262 -1370l469 756l-119 602h72l100 -537l330 537h71l-372 -602l149 -756l842 1370h78l-906 -1454h-67l-152 774l-481 -774h-68z" />
<glyph unicode="X" horiz-adv-x="1214" d="M588 717l-393 737h84l362 -684l651 684h84l-706 -737l381 -717h-84l-349 664l-632 -664h-84z" />
<glyph unicode="Y" horiz-adv-x="1224" d="M555 561l-360 893h79l332 -825l684 825h78l-743 -897l-119 -557h-70z" />
<glyph unicode="Z" horiz-adv-x="1208" d="M-66 61l1297 1328h-1004l15 65h1089l-14 -61l-1294 -1327h1007l-14 -66h-1096z" />
<glyph unicode="[" horiz-adv-x="462" d="M41 -82l340 1598h168l-14 -64h-101l-313 -1470h102l-12 -64h-170z" />
<glyph unicode="\" horiz-adv-x="1015" d="M299 1454l537 -1454h-82l-539 1454h84z" />
<glyph unicode="]" horiz-adv-x="460" d="M-43 -82l12 64h101l313 1470h-100l14 64h166l-338 -1598h-168z" />
<glyph unicode="^" horiz-adv-x="1056" d="M111 621l405 833h62l403 -833h-70l-364 753l-371 -753h-65z" />
<glyph unicode="_" horiz-adv-x="1038" d="M-10 -66l14 66h758l-14 -66h-758z" />
<glyph unicode="`" horiz-adv-x="417" d="M307 1495h88l90 -162l-55 -26z" />
<glyph unicode="a" horiz-adv-x="1198" d="M59 428q0 122 50 241.5t131.5 209.5t191 146t221.5 56q130 0 221 -72.5t132 -185.5l51 242h71l-202 -948q-4 -12 -4 -25q0 -26 28 -26l-14 -66h-29q-55 9 -55 63q0 9 29 154q-86 -107 -206 -172t-237 -65q-114 0 -202 64t-132.5 165t-44.5 219zM905 352l78 367 q-18 123 -109.5 210t-220.5 87q-132 0 -254.5 -87.5t-195 -222.5t-72.5 -272q0 -160 94 -274.5t234 -114.5q126 0 268 94t178 213z" />
<glyph unicode="b" horiz-adv-x="1189" d="M141 217l-47 -217h-63l317 1495h70l-144 -672q222 258 457 258q72 0 132.5 -24.5t102.5 -67t72 -98.5t44 -119t14 -129q0 -126 -53 -249t-137.5 -213t-196 -145.5t-222.5 -55.5q-126 0 -216 67t-130 170zM1024 635q0 102 -36.5 187t-111.5 139.5t-176 54.5 q-83 0 -166.5 -41t-146.5 -98.5t-133 -141.5l-88 -430q17 -117 107.5 -188.5t215.5 -71.5q134 0 258.5 85t200.5 222t76 283z" />
<glyph unicode="c" horiz-adv-x="1060" d="M59 430q0 171 87 322t231 240t305 89q133 0 222.5 -64t117.5 -177l-74 -25q-26 95 -97 148t-171 53q-103 0 -203 -46.5t-176 -124t-123 -184t-47 -219.5q0 -170 92 -283.5t236 -113.5q113 0 227 63t154 148l65 -20q-60 -110 -189 -183t-263 -73q-175 0 -284.5 129.5 t-109.5 320.5z" />
<glyph unicode="d" horiz-adv-x="1198" d="M59 430q0 162 84 313t223 244.5t291 93.5q126 0 217 -73t132 -185l141 672h72l-295 -1380q-2 -8 -2 -21q0 -28 28 -28l-14 -66q-25 0 -33 2q-51 9 -51 64q0 15 29 151q-85 -106 -205.5 -171.5t-233.5 -65.5q-117 0 -205.5 64t-133 165t-44.5 221zM905 352l78 367 q-17 122 -114.5 209.5t-215.5 87.5q-103 0 -201 -52t-167.5 -134.5t-111.5 -186t-42 -203.5q0 -165 93.5 -280t240.5 -115q75 0 168 41t171 114t101 152z" />
<glyph unicode="e" horiz-adv-x="1075" d="M461 500q-133 0 -324 12q-6 -40 -6 -80q0 -109 37 -196.5t115.5 -142t187.5 -54.5q111 0 222.5 63.5t168.5 165.5l62 -18q-70 -121 -199.5 -195.5t-269.5 -74.5q-121 0 -212.5 61t-137.5 162.5t-46 226.5q0 122 48 240t130 208.5t199.5 146.5t247.5 56q59 0 116 -18.5 t103.5 -52.5t75.5 -89t29 -122q0 -299 -547 -299zM674 1020q-189 0 -335 -131t-192 -318q191 -12 320 -12q473 0 473 242q0 73 -42.5 124.5t-100.5 73t-123 21.5z" />
<glyph unicode="f" horiz-adv-x="616" d="M279 1004h-144l12 61h146l8 39q38 192 136.5 302t228.5 110q56 0 104.5 -19.5t73.5 -50.5l-43 -47q-20 24 -58 38.5t-81 14.5q-105 0 -181 -90t-110 -258l-9 -39h293l-12 -61h-295l-305 -1440h-70z" />
<glyph unicode="g" horiz-adv-x="1189" d="M-51 -207l57 29q35 -109 127.5 -163t218.5 -54q168 0 299 94.5t168 267.5l55 250q-86 -105 -205.5 -170t-232.5 -65q-115 0 -203 64t-132 165t-44 219q0 119 49.5 237.5t130.5 209t192.5 147.5t227.5 57q232 0 351 -258l51 242h63l-233 -1098q-21 -103 -76 -185.5 t-130 -134t-163 -78t-180 -26.5q-170 0 -261.5 64.5t-129.5 185.5zM903 352l78 367q-19 129 -113 213t-217 84q-106 0 -205 -54t-167 -137.5t-109 -185.5t-41 -199q0 -165 93 -280t241 -115q87 0 182 46.5t165 117.5t93 143z" />
<glyph unicode="h" horiz-adv-x="1118" d="M348 1495h70l-148 -696q89 129 217.5 205.5t257.5 76.5q242 0 242 -280q0 -97 -22 -199l-127 -602h-70l125 594q22 110 22 182q0 240 -198 240q-132 0 -269 -100.5t-206 -249.5l-142 -666h-69z" />
<glyph unicode="i" horiz-adv-x="391" d="M348 1495h70l-37 -172h-70zM256 1065h70l-226 -1065h-69z" />
<glyph unicode="j" horiz-adv-x="407" d="M362 1495h70l-37 -172h-69zM-420 -283l51 45q44 -51 144 -51q79 0 157.5 65t98.5 156l239 1133h70l-240 -1131q-27 -121 -128.5 -204.5t-204.5 -83.5q-132 0 -187 71z" />
<glyph unicode="k" horiz-adv-x="1075" d="M1047 872q0 -134 -117.5 -237.5t-321.5 -149.5l244 -485h-78l-254 522q221 44 339 133t118 207q0 79 -51 121.5t-142 42.5q-266 0 -555 -414l-129 -612h-69l317 1495h70l-166 -778q125 179 265 274.5t282 95.5q119 0 183.5 -57t64.5 -158z" />
<glyph unicode="l" horiz-adv-x="483" d="M70 121q0 31 4 47l282 1327h70l-281 -1313q-4 -24 -4 -35q0 -44 28 -69t77 -25t110 21l4 -58q-80 -26 -157 -26q-61 0 -97 35.5t-36 95.5z" />
<glyph unicode="m" horiz-adv-x="1781" d="M256 1065h66l-56 -266q92 133 210.5 207.5t238.5 74.5q123 0 186 -81.5t53 -227.5q80 147 207 228t260 81q234 0 234 -266q0 -93 -27 -213l-127 -602h-69l124 594q23 106 23 194q0 228 -188 228q-131 0 -254 -97t-197 -255l-139 -664h-70l125 594q25 122 25 199 q0 114 -46.5 168.5t-142.5 54.5q-131 0 -252.5 -96t-197.5 -254l-142 -666h-69z" />
<glyph unicode="n" horiz-adv-x="1118" d="M256 1065h66l-56 -266q88 126 226.5 204t273.5 78q116 0 170.5 -64t54.5 -194q0 -85 -26 -221l-127 -602h-70l125 594q25 125 25 205q0 217 -181 217q-90 0 -186.5 -45t-179 -125.5t-129.5 -179.5l-142 -666h-69z" />
<glyph unicode="o" horiz-adv-x="1157" d="M57 422q0 135 51.5 258t135.5 210.5t195.5 139t228.5 51.5q127 0 217.5 -61t133 -160t42.5 -225q0 -177 -84.5 -328.5t-224.5 -239t-299 -87.5q-191 0 -293.5 124.5t-102.5 317.5zM991 623q0 110 -36.5 197.5t-114 141.5t-185.5 54q-99 0 -195 -45.5t-169 -123 t-117.5 -186.5t-44.5 -229q0 -170 87.5 -278.5t248.5 -108.5q99 0 195 45t169 121t117.5 184.5t44.5 227.5z" />
<glyph unicode="p" horiz-adv-x="1191" d="M258 1065h64l-48 -221q86 106 206.5 171.5t234.5 65.5q87 0 160 -38t121 -101t74 -144t26 -169q0 -161 -80.5 -310.5t-219.5 -244t-296 -94.5q-125 0 -215 72.5t-133 185.5l-144 -674h-69zM1024 621q0 163 -93 279t-241 116q-74 0 -167 -42t-171.5 -115t-101.5 -150 l-78 -367q27 -129 116.5 -213t213.5 -84q137 0 259.5 87.5t192.5 220t70 268.5z" />
<glyph unicode="q" horiz-adv-x="1189" d="M879 238q-223 -258 -459 -258q-114 0 -198 62.5t-124.5 161t-40.5 216.5q0 125 53.5 247t139 212.5t198 146t226.5 55.5q115 0 206.5 -67t131.5 -170l45 221h65l-317 -1501h-70zM899 338l86 393q-9 114 -98.5 199.5t-216.5 85.5q-138 0 -265 -86.5t-202.5 -222.5 t-75.5 -277q0 -162 87 -273.5t232 -111.5q129 0 247.5 82.5t205.5 210.5z" />
<glyph unicode="r" horiz-adv-x="665" d="M256 1065h68l-58 -270q80 119 187.5 189t216.5 79q23 3 43 0l-15 -64q-142 -6 -263 -93t-193 -236l-142 -670h-69z" />
<glyph unicode="s" horiz-adv-x="931" d="M-29 147l47 48q127 -154 326 -154q161 0 266 75.5t105 198.5q0 29 -8 52t-27.5 41.5t-40.5 32t-58.5 27.5t-70 24t-86.5 24q-65 17 -100.5 27.5t-76 28.5t-59.5 37.5t-32 49t-13 68.5q0 112 61 194t158 121t216 39t199.5 -41.5t109.5 -109.5l-51 -35q-29 60 -102.5 92.5 t-170.5 32.5q-65 0 -126 -16.5t-112 -48.5t-81.5 -86.5t-30.5 -123.5q0 -30 10.5 -52t26.5 -37.5t49 -30t64.5 -24t87.5 -23.5q72 -19 115.5 -33t90.5 -35t72 -44t41 -57t16 -77q0 -164 -124.5 -258t-325.5 -94q-250 0 -365 167z" />
<glyph unicode="t" horiz-adv-x="600" d="M98 125q0 13 4 41l179 838h-144l13 61h145l78 367h69l-77 -367h239l-14 -61h-240l-160 -744q-18 -95 -18 -104q0 -48 31 -74.5t78 -26.5q87 0 172 51l12 -57q-8 -7 -34.5 -19.5t-77.5 -26t-99 -13.5q-69 0 -112.5 36.5t-43.5 98.5z" />
<glyph unicode="u" horiz-adv-x="1138" d="M90 262q0 81 25 197l129 606h69l-127 -598q-24 -108 -24 -188q0 -234 205 -234q137 0 274 96t213 248l143 676h70l-193 -911q-12 -50 -12 -58q0 -30 31 -30l-16 -66q-25 0 -33 2q-49 9 -49 61q0 16 39 199q-94 -130 -227.5 -206t-268.5 -76q-248 0 -248 282z" />
<glyph unicode="v" horiz-adv-x="948" d="M127 1065h74l151 -987q183 213 319 475.5t212 511.5h69q-183 -599 -585 -1065h-70z" />
<glyph unicode="w" horiz-adv-x="1499" d="M121 1065h72l178 -987q197 218 356 522l-92 465h74l67 -369q86 176 148 369h67q-71 -234 -194 -469l98 -518q189 213 329.5 475.5t219.5 511.5h67q-186 -598 -600 -1065h-69l-97 506q-150 -275 -360 -506h-70z" />
<glyph unicode="x" horiz-adv-x="948" d="M414 528l-285 537h82l246 -463l8 -27l18 21l447 469h80l-512 -537l284 -528h-82l-243 459l-11 24l-20 -22l-438 -461h-82z" />
<glyph unicode="y" horiz-adv-x="935" d="M-76 -401q63 12 106.5 29.5t83 53.5t70 76t80.5 117l78 121l-236 1069h74l213 -991l109 174q187 298 268.5 463.5t134.5 353.5h70q-56 -200 -138 -366.5t-284 -487.5l-168 -264q-146 -231 -233.5 -310t-219.5 -96z" />
<glyph unicode="z" horiz-adv-x="942" d="M-61 57l942 949h-729l12 59h811l-12 -57l-938 -949h733l-15 -59h-817z" />
<glyph unicode="{" horiz-adv-x="464" d="M434 1452l-127 -596q-2 -22 -19.5 -57.5t-49.5 -61.5q22 -24 22 -75q0 -10 -1 -25.5t-1 -18.5l-133 -618h108l-14 -63h-129q-33 0 -33 38q0 15 2 23l131 610q3 15 3 35q0 60 -46 66l13 61q36 0 57.5 33.5t26.5 62.5l125 588q7 34 24.5 48t32.5 14h129l-14 -64h-107z" />
<glyph unicode="|" horiz-adv-x="540" d="M248 -266v1853h65v-1853h-65z" />
<glyph unicode="}" horiz-adv-x="464" d="M281 1452l12 64h127q7 0 14 -2.5t14 -13t7 -27.5q0 -13 -2 -19l-125 -588q-4 -12 -4 -32q0 -64 47 -64l-13 -61q-34 -4 -56.5 -33.5t-29.5 -67.5l-129 -610q-7 -31 -23.5 -46t-35.5 -15h-127l12 63h107l133 618q2 21 20.5 58t49.5 61q-25 32 -25 76q0 27 4 43l129 596 h-106z" />
<glyph unicode="~" horiz-adv-x="935" d="M305 688q38 0 80.5 -19.5t74 -43t73 -43t77.5 -19.5q44 0 80 26.5t51 51t15 33.5l55 -2l-1 -2q-38 -97 -114 -139q-43 -23 -92 -23q-43 0 -89 19t-78 42.5t-69.5 42.5t-66.5 19q-38 0 -72 -31t-48.5 -58.5t-14.5 -33.5h-53q0 6 7 24.5t23 45t37.5 51t54.5 42t70 17.5z " />
<glyph unicode="&#xa1;" horiz-adv-x="473" d="M451 1466l-39 -188h-78l47 188h70zM360 1040l-221 -1042h-69l221 1042h69z" />
<glyph unicode="&#xa2;" horiz-adv-x="1079" d="M358 -246l50 228q-106 9 -186.5 75t-120.5 164t-40 209q0 153 78.5 299t213.5 243.5t288 108.5l51 240h49l-51 -240q269 -8 334 -241l-74 -25q-59 191 -272 201l-207 -971q61 1 135 26.5t142 75t96 109.5l65 -20q-44 -81 -125.5 -141t-166 -87.5t-160.5 -27.5l-49 -226 h-50zM422 49l205 965q-103 -6 -197 -62t-157.5 -139t-101.5 -182t-38 -193q0 -152 79.5 -264t209.5 -125z" />
<glyph unicode="&#xa3;" horiz-adv-x="931" d="M672 1464q98 0 173 -58t107 -157l-55 -43q-29 91 -94 143t-150 52q-122 0 -221.5 -99.5t-99.5 -232.5q0 -47 11.5 -96.5t33.5 -116t31 -102.5h342l-15 -62h-315q8 -62 8 -98q0 -91 -21 -156.5t-93 -157t-214 -221.5q84 15 144 15q61 0 144.5 -19.5t131.5 -19.5 q76 0 195 41l6 -60q-118 -47 -219 -47q-57 0 -147.5 21.5t-149.5 21.5q-100 0 -199 -26l-12 53q124 111 195 183.5t110 135.5t50 110.5t11 117.5q0 51 -10 106h-229l12 62h203q-9 32 -30.5 98t-32.5 114t-11 95q0 105 59.5 199t154.5 149t196 55z" />
<glyph unicode="&#xa4;" horiz-adv-x="1134" d="M336 965q102 92 239 92q143 0 246 -96l144 143l41 -41l-146 -143q80 -108 80 -234q0 -128 -84 -233l150 -146l-39 -39l-150 146q-105 -95 -242 -95q-133 0 -237 91l-143 -142l-39 39l145 142q-86 103 -86 237q0 132 82 238l-141 139l43 41zM575 375q123 0 212.5 93 t89.5 220q0 130 -89 220.5t-213 90.5q-121 0 -208.5 -92t-87.5 -223q0 -127 87 -218t209 -91z" />
<glyph unicode="&#xa5;" horiz-adv-x="1298" d="M788 713h177l-13 -58h-211l-82 -98l-10 -51h271l-11 -57h-272l-96 -449h-72l96 449h-270l12 57h271l12 55l-39 94h-211l12 58h178l-301 741h80l330 -825l684 825h80z" />
<glyph unicode="&#xa6;" horiz-adv-x="528" d="M307 1587v-846h-65v846h65zM307 580v-846h-65v846h65z" />
<glyph unicode="&#xa7;" horiz-adv-x="970" d="M791 227q0 -77 -29.5 -144.5t-77 -114.5t-107.5 -81.5t-121.5 -50.5t-119.5 -16q-206 0 -334 174l57 43q61 -77 130.5 -113.5t160.5 -36.5q62 0 126 22.5t118 62.5t88.5 102t34.5 133q0 52 -21 87.5t-60 53t-77.5 25t-91.5 10.5q-139 5 -224 69t-85 187q0 69 32 137.5 t76 110.5q-32 23 -49.5 71.5t-17.5 108.5q0 90 42.5 167t108.5 126t143 76.5t150 27.5q127 0 195.5 -42.5t103.5 -123.5l-63 -26q-20 69 -89.5 98t-158.5 29q-83 0 -164.5 -37.5t-139 -113.5t-57.5 -171q0 -194 256 -194q63 0 118.5 -14t101 -43t72 -78.5t26.5 -114.5 q0 -71 -33.5 -141t-83.5 -113q64 -43 64 -152zM666 403q47 36 78.5 97t31.5 121q0 54 -23.5 94t-62.5 61.5t-83.5 32t-92.5 10.5q-115 0 -188 37q-43 -36 -72 -94.5t-29 -122.5q0 -69 32.5 -112t86.5 -60t110 -25t118 -16t94 -23z" />
<glyph unicode="&#xa8;" horiz-adv-x="516" d="M272 1325l35 168h64l-35 -168h-64zM518 1325l35 168h63l-34 -168h-64z" />
<glyph unicode="&#xa9;" horiz-adv-x="1718" d="M137 727q0 125 36 238.5t103.5 203.5t158.5 156.5t205.5 102.5t240.5 36q210 0 380.5 -95.5t267.5 -264.5t97 -377q0 -209 -97 -379t-267.5 -266t-380.5 -96q-157 0 -295.5 56.5t-237 154.5t-155 235.5t-56.5 294.5zM1573 721q0 198 -89 356.5t-247 248t-354 89.5 q-147 0 -276.5 -52.5t-221 -143.5t-144.5 -219t-53 -275q0 -146 52.5 -274t144 -219.5t221 -144t277.5 -52.5q145 0 272 50.5t219 139t145.5 217.5t53.5 279zM438 727q0 68 16.5 134.5t52 128t86.5 109t125.5 75.5t162.5 28q125 0 222.5 -54.5t137.5 -156.5l-65 -22 q-22 50 -59 85.5t-80.5 52t-81 23.5t-74.5 7q-92 0 -165.5 -37t-117 -97.5t-66 -131t-22.5 -144.5q0 -93 35.5 -171.5t91 -128.5t121 -77.5t129.5 -27.5q91 0 181.5 49t125.5 129l66 -19q-10 -32 -40.5 -69t-76.5 -72t-112 -58.5t-136 -23.5q-83 0 -164 32.5t-146.5 90.5 t-106 148.5t-40.5 197.5z" />
<glyph unicode="&#xaa;" horiz-adv-x="833" d="M160 899q0 109 98.5 179.5t241.5 70.5q126 0 207 -37l14 68q6 30 6 55q0 72 -44 114t-122 42q-103 0 -244 -84l-18 51q155 94 279 94q109 0 168 -53t59 -150q0 -42 -8 -78l-70 -333q-2 -4 -2 -15q0 -19 25 -22l-17 -72q-62 -3 -65 35q-19 6 -19 24q0 2 10 62 q-61 -64 -142.5 -98.5t-168.5 -34.5q-83 0 -135.5 52t-52.5 130zM670 938l24 119q-73 37 -194 37q-114 0 -188 -49.5t-74 -131.5q0 -57 39 -95t102 -38q61 0 124.5 20.5t110.5 58t56 79.5z" />
<glyph unicode="&#xab;" horiz-adv-x="1050" d="M74 553l542 352l-14 -67l-473 -308l342 -307l-14 -67l-394 350zM436 553l545 352l-16 -67l-473 -308l342 -307l-13 -67l-393 350z" />
<glyph unicode="&#xac;" horiz-adv-x="1118" d="M995 709l-92 -430h-63l78 362h-744l14 68h807z" />
<glyph unicode="&#xad;" horiz-adv-x="1079" d="M117 522l12 68h809l-14 -68h-807z" />
<glyph unicode="&#xae;" horiz-adv-x="1718" d="M137 727q0 125 36 238.5t103.5 203.5t158.5 156.5t205.5 102.5t240.5 36q210 0 380.5 -95.5t267.5 -264.5t97 -377q0 -209 -97 -379t-267.5 -266t-380.5 -96q-157 0 -295.5 56.5t-237 154.5t-155 235.5t-56.5 294.5zM1573 727q0 145 -52.5 273t-143.5 219t-220 143.5 t-276 52.5q-196 0 -354 -89.5t-247.5 -247t-89.5 -351.5q0 -147 52 -275.5t143.5 -220t220 -144t275.5 -52.5q195 0 352 85.5t248.5 244t91.5 362.5zM580 1192h387q114 0 191 -88.5t77 -200.5q0 -109 -65 -190.5t-166 -91.5l235 -369h-70l-231 364h-297v-364h-61v940z M973 672q96 0 149.5 66t53.5 165q0 96 -60 163t-151 67h-324v-461h332z" />
<glyph unicode="&#xaf;" horiz-adv-x="755" d="M285 1391l12 57h551l-12 -57h-551z" />
<glyph unicode="&#xb0;" horiz-adv-x="509" d="M254 1300q0 69 54 126t126 57q51 0 83 -35t32 -88q0 -70 -54.5 -123t-125.5 -53q-51 0 -83 32.5t-32 83.5zM498 1352q0 36 -20.5 54.5t-55.5 18.5q-44 0 -77.5 -32.5t-33.5 -77.5q0 -35 18.5 -57.5t51.5 -22.5q40 0 78.5 36t38.5 81z" />
<glyph unicode="&#xb1;" horiz-adv-x="989" d="M780 764v-64h-280v-301h-68v301h-280v64h280v301h68v-301h280zM152 160v63h628v-63h-628z" />
<glyph unicode="&#xb2;" horiz-adv-x="737" d="M131 856q32 147 110.5 230.5t209.5 130.5q19 7 60.5 21t64.5 22.5t58.5 24t56 31.5t41.5 37.5t30.5 49.5t9.5 61q0 64 -42 104t-130 40q-158 0 -285 -127l-32 43q14 14 32 28.5t62 43.5t104.5 47t126.5 18q111 0 166 -52t55 -134q0 -30 -7 -56.5t-16 -47.5t-27.5 -41 t-33.5 -33.5t-42 -29t-43.5 -24t-49.5 -21t-48 -18t-50 -16.5l-18 -6q-234 -78 -273 -273h494l-10 -53h-574z" />
<glyph unicode="&#xb3;" horiz-adv-x="749" d="M166 1038l43 25q0 -76 58.5 -121t162.5 -45q112 0 195.5 56t83.5 137q0 68 -69 107.5t-187 39.5h-43l10 49h43q142 0 220.5 46t78.5 132q0 65 -54.5 105.5t-140.5 40.5q-81 0 -149 -33t-105 -88l-30 39q42 61 123.5 97t171.5 36q109 0 177 -53t68 -135q0 -80 -55 -133.5 t-162 -75.5q72 -13 115 -60.5t43 -109.5q0 -107 -103.5 -177.5t-242.5 -70.5q-118 0 -185 53t-67 139z" />
<glyph unicode="&#xb4;" horiz-adv-x="417" d="M309 1307l-43 26l156 162h90z" />
<glyph unicode="&#xb5;" horiz-adv-x="1198" d="M274 1065h70l-127 -598q-22 -113 -22 -188q0 -119 49.5 -176.5t152.5 -57.5q137 0 274.5 96.5t213.5 247.5l143 676h72l-203 -954q-2 -6 -2 -17q0 -28 29 -28l-17 -66q-54 0 -57 47q-26 8 -23 35q12 55 37 180q-90 -127 -221.5 -204.5t-261.5 -77.5q-202 0 -227 200 l-129 -614h-70z" />
<glyph unicode="&#xb6;" horiz-adv-x="1130" d="M795 1454h415l-14 -61h-135l-332 -1557h-63l141 662h-166l-141 -662h-66l141 662q-211 4 -327.5 105t-116.5 276q0 259 181.5 417t482.5 158zM588 559l178 834q-267 0 -418 -137.5t-151 -362.5q0 -82 30 -145.5t84.5 -102.5t123.5 -60.5t153 -25.5zM997 1393h-166 l-178 -834h166z" />
<glyph unicode="&#xb7;" horiz-adv-x="335" d="M113 510l39 186h63l-39 -186h-63z" />
<glyph unicode="&#xb8;" horiz-adv-x="585" d="M115 -346q-106 0 -189 53l33 45q45 -24 78 -34.5t80 -10.5q74 0 120 39.5t46 99.5q0 79 -101 154l47 25q52 -42 78.5 -83.5t26.5 -93.5q0 -94 -60.5 -144t-158.5 -50z" />
<glyph unicode="&#xb9;" horiz-adv-x="503" d="M526 909l-12 -55h-364l12 55h160l145 684q-30 -30 -97.5 -64t-111.5 -34l12 55q37 0 88.5 27t85 53t35.5 31h58l-162 -752h151z" />
<glyph unicode="&#xba;" horiz-adv-x="882" d="M184 1016q0 84 36 164.5t95 140t137.5 95.5t159.5 36q125 0 202 -86.5t77 -214.5q0 -110 -60.5 -211t-161.5 -162t-212 -61q-124 0 -198.5 86.5t-74.5 212.5zM825 1143q0 107 -63 179.5t-160 72.5q-86 0 -168 -50.5t-134 -138t-52 -184.5q0 -106 62 -178t159 -72 q134 0 245 113t111 258z" />
<glyph unicode="&#xbb;" horiz-adv-x="1050" d="M578 506l-543 -350l14 67l473 307l-342 308l15 67l391 -352zM940 506l-541 -350l13 67l473 307l-342 308l14 67l393 -352z" />
<glyph unicode="&#xbc;" horiz-adv-x="1501" d="M492 745l-13 -55h-364l12 55h160l145 685q-30 -30 -97.5 -64.5t-111.5 -34.5l13 55q37 0 88.5 27t84.5 53t35 31h58l-162 -752h152zM-51 33l659 674l725 751l37 -35l-731 -749l-653 -678zM1190 221h-451l11 49l577 525h39l-111 -521h109l-10 -53h-109l-49 -221h-53z M1202 274l92 433l-475 -433h383z" />
<glyph unicode="&#xbd;" horiz-adv-x="1503" d="M492 745l-13 -55h-364l12 55h160l145 685q-30 -30 -97.5 -64.5t-111.5 -34.5l13 55q37 0 88.5 27t84.5 53t35 31h58l-162 -752h152zM-51 33l659 674l725 751l37 -35l-731 -749l-653 -678zM721 0q31 147 108 230t207 130q18 6 61 20.5t65.5 23t58.5 24.5t55.5 31.5 t41 37.5t31 50t9.5 61q0 63 -43 103.5t-131 40.5q-89 0 -162.5 -40t-118.5 -87l-31 43q9 11 30.5 28.5t62.5 44.5t102 45.5t125 18.5q111 0 167 -52.5t56 -134.5q0 -38 -11 -70.5t-25.5 -56.5t-43.5 -46.5t-50 -36t-61 -30t-60.5 -24t-63.5 -21.5q-5 -2 -7.5 -2.5t-6.5 -2 t-7 -2.5q-231 -78 -270 -273h491l-12 -53h-567z" />
<glyph unicode="&#xbe;" horiz-adv-x="1746" d="M131 874l43 25q0 -69 59.5 -117.5t161.5 -48.5q112 0 195.5 56t83.5 137q0 68 -69 107.5t-187 39.5h-43l10 49h43q142 0 220.5 45.5t78.5 130.5q0 66 -54.5 107t-140.5 41q-80 0 -148 -33t-105 -88l-31 39q43 60 124 96.5t171 36.5q109 0 177 -53.5t68 -134.5 q0 -80 -55 -134t-162 -77q72 -12 115 -58.5t43 -109.5q0 -107 -103.5 -177.5t-242.5 -70.5q-98 0 -175 50t-77 142zM195 33l659 674l725 751l37 -35l-731 -749l-654 -678zM1436 221h-451l10 49l578 525h39l-111 -521h109l-11 -53h-108l-49 -221h-53zM1448 274l92 433 l-475 -433h383z" />
<glyph unicode="&#xbf;" horiz-adv-x="915" d="M678 1036l-39 -186h-64l39 186h64zM598 655q-18 -87 -42 -150t-56.5 -105t-66 -68t-79.5 -49q-21 -11 -59 -28.5t-63 -29t-59.5 -31.5t-57.5 -39t-48.5 -48t-40 -61.5t-24.5 -76.5t-10 -96q0 -120 70 -183t176 -63q112 0 221 63t180 167l47 -29q-79 -124 -206.5 -194 t-254.5 -70q-129 0 -215 80t-86 223q0 45 6.5 84.5t16 70.5t26.5 60t33.5 50t42 42.5t46 35.5t51.5 31.5t52.5 28t56 27.5t54.5 27q43 22 71 41.5t59.5 56t54.5 94t41 139.5h63z" />
<glyph unicode="&#xc0;" horiz-adv-x="1327" d="M713 1884h88l90 -162l-55 -26zM819 1454h62l282 -1454h-76l-96 502h-688l-309 -502h-78zM983 563l-152 801l-495 -801h647z" />
<glyph unicode="&#xc1;" horiz-adv-x="1327" d="M905 1696l-43 26l156 162h90zM819 1454h62l282 -1454h-76l-96 502h-688l-309 -502h-78zM983 563l-152 801l-495 -801h647z" />
<glyph unicode="&#xc2;" horiz-adv-x="1327" d="M694 1679l217 158h54l151 -158l-51 -30l-139 129l-193 -129zM819 1454h62l282 -1454h-76l-96 502h-688l-309 -502h-78zM983 563l-152 801l-495 -801h647z" />
<glyph unicode="&#xc3;" horiz-adv-x="1327" d="M799 1810q-29 0 -53 -13t-38 -32.5t-20.5 -31.5t-9.5 -21h-51q1 10 11.5 32t31 51t58.5 50t85 21q43 0 79 -20t71.5 -40t76.5 -20q29 0 53.5 9.5t38.5 22.5t25 28.5t14.5 24t4.5 13.5h51q-2 -12 -13 -33t-33 -49.5t-63 -48.5t-92 -20q-49 0 -89 19.5t-73 38.5t-65 19z M819 1454h62l282 -1454h-76l-96 502h-688l-309 -502h-78zM983 563l-152 801l-495 -801h647z" />
<glyph unicode="&#xc4;" horiz-adv-x="1327" d="M754 1714l34 168h64l-35 -168h-63zM999 1714l35 168h64l-35 -168h-64zM819 1454h62l282 -1454h-76l-96 502h-688l-309 -502h-78zM983 563l-152 801l-495 -801h647z" />
<glyph unicode="&#xc5;" horiz-adv-x="1327" d="M944 1884q44 0 70 -27.5t26 -70.5q0 -60 -44.5 -103t-104.5 -43q-44 0 -71 28t-27 71q0 61 45 103t106 42zM838 1747q0 -30 17 -49t46 -19q34 0 66 30t32 69q0 31 -18 49t-47 18q-38 0 -67 -28t-29 -70zM819 1454h62l282 -1454h-76l-96 502h-688l-309 -502h-78zM983 563 l-152 801l-495 -801h647z" />
<glyph unicode="&#xc6;" horiz-adv-x="1888" d="M1042 1454h912l-15 -65h-823l-129 -613h717l-14 -65h-717l-137 -645h839l-14 -66h-909l106 502h-532l-414 -502h-82zM870 567l166 791l-659 -791h493z" />
<glyph unicode="&#xc7;" horiz-adv-x="1353" d="M915 1395q-126 0 -242.5 -47.5t-205.5 -128.5t-156 -184t-102 -218.5t-35 -228.5q0 -144 54 -264t161.5 -194.5t249.5 -74.5q139 0 282 74t246 221l58 -24q-103 -161 -268 -249.5t-330 -88.5q63 -66 63 -140q0 -94 -60.5 -144t-158.5 -50q-105 0 -188 53l32 45 q45 -24 78 -34.5t80 -10.5q74 0 120 39.5t46 99.5q0 78 -92 148q-104 16 -189.5 72.5t-140 138.5t-84 181t-29.5 204q0 101 28 206t78.5 201.5t125 181.5t163 147.5t198 99t225.5 36.5q185 0 298 -86t148 -231l-65 -29q-79 279 -388 279z" />
<glyph unicode="&#xc8;" horiz-adv-x="1200" d="M657 1884h88l91 -162l-56 -26zM371 1454h897l-15 -65h-825l-131 -613h723l-14 -65h-721l-140 -645h844l-12 -66h-916z" />
<glyph unicode="&#xc9;" horiz-adv-x="1200" d="M850 1696l-43 26l156 162h90zM371 1454h897l-15 -65h-825l-131 -613h723l-14 -65h-721l-140 -645h844l-12 -66h-916z" />
<glyph unicode="&#xca;" horiz-adv-x="1200" d="M639 1679l217 158h53l152 -158l-51 -30l-140 129l-192 -129zM371 1454h897l-15 -65h-825l-131 -613h723l-14 -65h-721l-140 -645h844l-12 -66h-916z" />
<glyph unicode="&#xcb;" horiz-adv-x="1200" d="M698 1714l35 168h64l-35 -168h-64zM944 1714l35 168h63l-34 -168h-64zM371 1454h897l-15 -65h-825l-131 -613h723l-14 -65h-721l-140 -645h844l-12 -66h-916z" />
<glyph unicode="&#xcc;" horiz-adv-x="456" d="M266 1880h88l90 -162l-55 -26zM371 1452h71l-309 -1452h-72z" />
<glyph unicode="&#xcd;" horiz-adv-x="456" d="M459 1692l-43 26l155 162h91zM371 1452h71l-309 -1452h-72z" />
<glyph unicode="&#xce;" horiz-adv-x="456" d="M248 1675l217 158h53l152 -158l-52 -30l-139 129l-192 -129zM371 1452h71l-309 -1452h-72z" />
<glyph unicode="&#xcf;" horiz-adv-x="456" d="M307 1710l35 168h64l-35 -168h-64zM553 1710l35 168h63l-35 -168h-63zM371 1452h71l-309 -1452h-72z" />
<glyph unicode="&#xd0;" horiz-adv-x="1419" d="M838 1454q130 0 231 -42.5t163 -118.5t94 -175.5t32 -218.5q0 -254 -107 -459.5t-297 -322.5t-426 -117h-452l149 700h-131l12 62h132l147 692h453zM543 66q136 0 255 43.5t207 121t152 180.5t96.5 224.5t32.5 251.5q0 227 -119.5 364.5t-343.5 137.5h-381l-133 -627h359 l-13 -62h-360l-135 -634h383z" />
<glyph unicode="&#xd1;" horiz-adv-x="1519" d="M909 1804q-29 0 -53 -13t-38 -32.5t-20.5 -31.5t-9.5 -21h-51q1 7 7 23t21 39t35 43t53 34.5t71 14.5q52 0 115 -40t112 -40q29 0 53.5 9.5t38.5 22.5t24.5 28.5t14 24t4.5 13.5h51q-2 -9 -8 -24t-22 -38t-37 -42.5t-56.5 -33.5t-76.5 -14q-49 0 -89 19.5t-73.5 39 t-65.5 19.5zM371 1454h55l725 -1341l283 1339h71l-309 -1452h-68l-714 1319l-281 -1319h-72z" />
<glyph unicode="&#xd2;" horiz-adv-x="1484" d="M799 1878h88l90 -162l-55 -26zM102 584q0 172 66 334t175.5 281.5t258.5 192t307 72.5q105 0 192 -33t146.5 -89.5t100.5 -133.5t60 -163t19 -179q0 -114 -30 -226t-83 -208t-128.5 -178t-163.5 -140t-191.5 -91t-209.5 -33q-104 0 -191 32.5t-147 88t-101.5 131.5 t-60.5 162t-19 180zM1358 864q0 108 -28 202.5t-82 169t-144 118t-205 43.5q-148 0 -284 -69.5t-231.5 -182t-152.5 -259.5t-57 -298q0 -108 28 -202t82 -168.5t144 -117.5t205 -43q120 0 232.5 45t200.5 123.5t154.5 180t102 220t35.5 238.5z" />
<glyph unicode="&#xd3;" horiz-adv-x="1484" d="M991 1690l-43 26l156 162h90zM102 584q0 172 66 334t175.5 281.5t258.5 192t307 72.5q105 0 192 -33t146.5 -89.5t100.5 -133.5t60 -163t19 -179q0 -114 -30 -226t-83 -208t-128.5 -178t-163.5 -140t-191.5 -91t-209.5 -33q-104 0 -191 32.5t-147 88t-101.5 131.5 t-60.5 162t-19 180zM1358 864q0 108 -28 202.5t-82 169t-144 118t-205 43.5q-148 0 -284 -69.5t-231.5 -182t-152.5 -259.5t-57 -298q0 -108 28 -202t82 -168.5t144 -117.5t205 -43q120 0 232.5 45t200.5 123.5t154.5 180t102 220t35.5 238.5z" />
<glyph unicode="&#xd4;" horiz-adv-x="1484" d="M780 1673l217 158h54l151 -158l-51 -31l-139 130l-193 -130zM102 584q0 172 66 334t175.5 281.5t258.5 192t307 72.5q105 0 192 -33t146.5 -89.5t100.5 -133.5t60 -163t19 -179q0 -114 -30 -226t-83 -208t-128.5 -178t-163.5 -140t-191.5 -91t-209.5 -33 q-104 0 -191 32.5t-147 88t-101.5 131.5t-60.5 162t-19 180zM1358 864q0 108 -28 202.5t-82 169t-144 118t-205 43.5q-148 0 -284 -69.5t-231.5 -182t-152.5 -259.5t-57 -298q0 -108 28 -202t82 -168.5t144 -117.5t205 -43q120 0 232.5 45t200.5 123.5t154.5 180t102 220 t35.5 238.5z" />
<glyph unicode="&#xd5;" horiz-adv-x="1484" d="M885 1804q-29 0 -53 -13t-38 -32.5t-20.5 -31.5t-9.5 -21h-51q1 10 11.5 32t31 51t58.5 50t85 21q43 0 79 -20t71.5 -40t76.5 -20q29 0 53.5 9.5t38.5 22.5t25 28.5t14.5 24t4.5 13.5h51q-2 -9 -8 -24t-22 -38t-37.5 -42.5t-57 -33.5t-76.5 -14q-39 0 -73 12t-54 27 t-47 27t-53 12zM102 584q0 172 66 334t175.5 281.5t258.5 192t307 72.5q105 0 192 -33t146.5 -89.5t100.5 -133.5t60 -163t19 -179q0 -114 -30 -226t-83 -208t-128.5 -178t-163.5 -140t-191.5 -91t-209.5 -33q-104 0 -191 32.5t-147 88t-101.5 131.5t-60.5 162t-19 180z M1358 864q0 108 -28 202.5t-82 169t-144 118t-205 43.5q-148 0 -284 -69.5t-231.5 -182t-152.5 -259.5t-57 -298q0 -108 28 -202t82 -168.5t144 -117.5t205 -43q120 0 232.5 45t200.5 123.5t154.5 180t102 220t35.5 238.5z" />
<glyph unicode="&#xd6;" horiz-adv-x="1484" d="M840 1708l34 168h64l-35 -168h-63zM1085 1708l35 168h64l-35 -168h-64zM102 584q0 172 66 334t175.5 281.5t258.5 192t307 72.5q105 0 192 -33t146.5 -89.5t100.5 -133.5t60 -163t19 -179q0 -114 -30 -226t-83 -208t-128.5 -178t-163.5 -140t-191.5 -91t-209.5 -33 q-104 0 -191 32.5t-147 88t-101.5 131.5t-60.5 162t-19 180zM1358 864q0 108 -28 202.5t-82 169t-144 118t-205 43.5q-148 0 -284 -69.5t-231.5 -182t-152.5 -259.5t-57 -298q0 -108 28 -202t82 -168.5t144 -117.5t205 -43q120 0 232.5 45t200.5 123.5t154.5 180t102 220 t35.5 238.5z" />
<glyph unicode="&#xd7;" horiz-adv-x="946" d="M774 287l-49 -47l-268 268l-269 -268l-45 49l267 266l-269 268l49 47l267 -268l270 270l45 -49l-268 -268z" />
<glyph unicode="&#xd8;" horiz-adv-x="1484" d="M1286 1300q70 -82 105.5 -195.5t35.5 -238.5q0 -114 -30 -226t-83 -208t-128.5 -178t-163.5 -140t-191.5 -91t-209.5 -33q-200 0 -328 112l-86 -102h-82l123 147q-72 83 -109 196.5t-37 240.5q0 172 66 334t175.5 281.5t258.5 192t307 72.5q203 0 332 -116l90 106h82z M174 588q0 -238 121 -383l901 1087q-115 105 -297 105q-148 0 -284 -69.5t-231.5 -182t-152.5 -259.5t-57 -298zM633 57q120 0 232.5 45t200.5 123.5t154.5 180t102 220t35.5 238.5q0 239 -119 381l-901 -1085q121 -103 295 -103z" />
<glyph unicode="&#xd9;" horiz-adv-x="1480" d="M772 1878h88l90 -162l-55 -26zM166 463q0 120 29 262l155 729h70l-154 -729q-30 -140 -30 -250q0 -418 380 -418q114 0 212 39t168 103t125.5 152.5t89 180t55.5 193.5l153 729h70l-154 -729q-26 -122 -66.5 -227.5t-103 -200.5t-141 -162t-184.5 -106t-230 -39 q-98 0 -174.5 24.5t-126.5 67t-82.5 103t-46.5 129t-14 149.5z" />
<glyph unicode="&#xda;" horiz-adv-x="1480" d="M965 1690l-43 26l155 162h90zM166 463q0 120 29 262l155 729h70l-154 -729q-30 -140 -30 -250q0 -418 380 -418q114 0 212 39t168 103t125.5 152.5t89 180t55.5 193.5l153 729h70l-154 -729q-26 -122 -66.5 -227.5t-103 -200.5t-141 -162t-184.5 -106t-230 -39 q-98 0 -174.5 24.5t-126.5 67t-82.5 103t-46.5 129t-14 149.5z" />
<glyph unicode="&#xdb;" horiz-adv-x="1480" d="M754 1673l217 158h53l152 -158l-52 -31l-139 130l-192 -130zM166 463q0 120 29 262l155 729h70l-154 -729q-30 -140 -30 -250q0 -418 380 -418q114 0 212 39t168 103t125.5 152.5t89 180t55.5 193.5l153 729h70l-154 -729q-26 -122 -66.5 -227.5t-103 -200.5t-141 -162 t-184.5 -106t-230 -39q-98 0 -174.5 24.5t-126.5 67t-82.5 103t-46.5 129t-14 149.5z" />
<glyph unicode="&#xdc;" horiz-adv-x="1480" d="M813 1708l35 168h63l-34 -168h-64zM1059 1708l35 168h63l-35 -168h-63zM166 463q0 120 29 262l155 729h70l-154 -729q-30 -140 -30 -250q0 -418 380 -418q114 0 212 39t168 103t125.5 152.5t89 180t55.5 193.5l153 729h70l-154 -729q-26 -122 -66.5 -227.5t-103 -200.5 t-141 -162t-184.5 -106t-230 -39q-98 0 -174.5 24.5t-126.5 67t-82.5 103t-46.5 129t-14 149.5z" />
<glyph unicode="&#xdd;" horiz-adv-x="1224" d="M827 1690l-43 26l156 162h90zM555 561l-360 893h79l332 -825l684 825h78l-743 -897l-119 -557h-70z" />
<glyph unicode="&#xde;" horiz-adv-x="1177" d="M371 1454h71l-65 -301h459q94 0 166 -53.5t107.5 -136.5t35.5 -179q0 -126 -66 -247t-180 -199t-242 -78h-471l-53 -260h-72zM670 326q109 0 204 69t148 172.5t53 208.5q0 128 -72 218.5t-186 90.5h-452l-162 -759h467z" />
<glyph unicode="&#xdf;" horiz-adv-x="1075" d="M336 53q255 5 400 121.5t145 319.5q0 135 -82.5 216t-223.5 81h-34l14 65h33q138 0 240 93.5t102 224.5q0 100 -66 161.5t-172 61.5q-136 0 -237.5 -98.5t-135.5 -258.5l-221 -1040h-67l221 1047q40 185 167 300t290 115q131 0 211.5 -75t80.5 -193q0 -125 -91.5 -234 t-207.5 -133q122 -29 187 -114t65 -209q0 -234 -168 -369.5t-464 -146.5z" />
<glyph unicode="&#xe0;" horiz-adv-x="1198" d="M573 1495h89l90 -162l-56 -26zM59 428q0 122 50 241.5t131.5 209.5t191 146t221.5 56q130 0 221 -72.5t132 -185.5l51 242h71l-202 -948q-4 -12 -4 -25q0 -26 28 -26l-14 -66h-29q-55 9 -55 63q0 9 29 154q-86 -107 -206 -172t-237 -65q-114 0 -202 64t-132.5 165 t-44.5 219zM905 352l78 367q-18 123 -109.5 210t-220.5 87q-132 0 -254.5 -87.5t-195 -222.5t-72.5 -272q0 -160 94 -274.5t234 -114.5q126 0 268 94t178 213z" />
<glyph unicode="&#xe1;" horiz-adv-x="1198" d="M766 1307l-43 26l156 162h90zM59 428q0 122 50 241.5t131.5 209.5t191 146t221.5 56q130 0 221 -72.5t132 -185.5l51 242h71l-202 -948q-4 -12 -4 -25q0 -26 28 -26l-14 -66h-29q-55 9 -55 63q0 9 29 154q-86 -107 -206 -172t-237 -65q-114 0 -202 64t-132.5 165 t-44.5 219zM905 352l78 367q-18 123 -109.5 210t-220.5 87q-132 0 -254.5 -87.5t-195 -222.5t-72.5 -272q0 -160 94 -274.5t234 -114.5q126 0 268 94t178 213z" />
<glyph unicode="&#xe2;" horiz-adv-x="1198" d="M555 1290l217 158h53l152 -158l-51 -30l-140 129l-192 -129zM59 428q0 122 50 241.5t131.5 209.5t191 146t221.5 56q130 0 221 -72.5t132 -185.5l51 242h71l-202 -948q-4 -12 -4 -25q0 -26 28 -26l-14 -66h-29q-55 9 -55 63q0 9 29 154q-86 -107 -206 -172t-237 -65 q-114 0 -202 64t-132.5 165t-44.5 219zM905 352l78 367q-18 123 -109.5 210t-220.5 87q-132 0 -254.5 -87.5t-195 -222.5t-72.5 -272q0 -160 94 -274.5t234 -114.5q126 0 268 94t178 213z" />
<glyph unicode="&#xe3;" horiz-adv-x="1198" d="M659 1421q-29 0 -53 -13t-38 -32.5t-20 -31.5t-9 -21h-52q1 7 7 23t21 39t35 43t53 34.5t71 14.5q52 0 115 -40t112 -40q29 0 53.5 9.5t38.5 22.5t24.5 28.5t14 24t4.5 13.5h51q-2 -9 -8 -24t-22 -38t-37 -42.5t-56.5 -33.5t-76.5 -14q-49 0 -89 19.5t-73.5 39 t-65.5 19.5zM59 428q0 122 50 241.5t131.5 209.5t191 146t221.5 56q130 0 221 -72.5t132 -185.5l51 242h71l-202 -948q-4 -12 -4 -25q0 -26 28 -26l-14 -66h-29q-55 9 -55 63q0 9 29 154q-86 -107 -206 -172t-237 -65q-114 0 -202 64t-132.5 165t-44.5 219zM905 352l78 367 q-18 123 -109.5 210t-220.5 87q-132 0 -254.5 -87.5t-195 -222.5t-72.5 -272q0 -160 94 -274.5t234 -114.5q126 0 268 94t178 213z" />
<glyph unicode="&#xe4;" horiz-adv-x="1198" d="M614 1325l35 168h64l-35 -168h-64zM860 1325l35 168h63l-34 -168h-64zM59 428q0 122 50 241.5t131.5 209.5t191 146t221.5 56q130 0 221 -72.5t132 -185.5l51 242h71l-202 -948q-4 -12 -4 -25q0 -26 28 -26l-14 -66h-29q-55 9 -55 63q0 9 29 154q-86 -107 -206 -172 t-237 -65q-114 0 -202 64t-132.5 165t-44.5 219zM905 352l78 367q-18 123 -109.5 210t-220.5 87q-132 0 -254.5 -87.5t-195 -222.5t-72.5 -272q0 -160 94 -274.5t234 -114.5q126 0 268 94t178 213z" />
<glyph unicode="&#xe5;" horiz-adv-x="1198" d="M805 1495q44 0 70 -27.5t26 -70.5q0 -60 -44.5 -103t-104.5 -43q-44 0 -71.5 28t-27.5 71q0 61 45.5 103t106.5 42zM698 1358q0 -30 17.5 -49t46.5 -19q34 0 66 30t32 69q0 31 -18 49t-47 18q-38 0 -67.5 -28.5t-29.5 -69.5zM59 428q0 122 50 241.5t131.5 209.5t191 146 t221.5 56q130 0 221 -72.5t132 -185.5l51 242h71l-202 -948q-4 -12 -4 -25q0 -26 28 -26l-14 -66h-29q-55 9 -55 63q0 9 29 154q-86 -107 -206 -172t-237 -65q-114 0 -202 64t-132.5 165t-44.5 219zM905 352l78 367q-18 123 -109.5 210t-220.5 87q-132 0 -254.5 -87.5 t-195 -222.5t-72.5 -272q0 -160 94 -274.5t234 -114.5q126 0 268 94t178 213z" />
<glyph unicode="&#xe6;" horiz-adv-x="1810" d="M0 248q0 162 142 265t352 103q136 0 264 -41q16 64 82 197q0 114 -66 182t-182 68q-155 0 -359 -131l-20 51q225 139 395 139q120 0 198 -63t93 -178q89 110 208 175.5t243 65.5q172 0 283.5 -118.5t111.5 -298.5q0 -98 -27 -164h-909q-4 -54 -4 -80q0 -166 92.5 -273.5 t243.5 -107.5q112 0 220.5 60t168.5 155l59 -16q-66 -112 -197 -185t-268 -73q-125 0 -218.5 65.5t-137.5 177.5q-83 -120 -225 -181.5t-264 -61.5q-132 0 -205.5 76.5t-73.5 191.5zM1663 557q10 44 10 107q0 151 -88 253.5t-246 102.5q-172 0 -318.5 -131.5t-199.5 -331.5 h842zM748 289q-15 53 -15 114q0 57 12 115q-116 43 -253 43q-186 0 -305 -82.5t-119 -216.5q0 -94 59.5 -158.5t175.5 -64.5q83 0 176 32t169.5 91t99.5 127z" />
<glyph unicode="&#xe7;" horiz-adv-x="1060" d="M680 1016q-103 0 -203 -46.5t-176 -124t-123 -184t-47 -219.5q0 -170 92 -283.5t236 -113.5q113 0 227 63t154 148l65 -20q-52 -94 -156.5 -162.5t-222.5 -87.5q62 -62 62 -138q0 -94 -60.5 -144t-158.5 -50q-106 0 -189 53l33 45q45 -24 78 -34.5t80 -10.5 q74 0 120 39.5t46 99.5q0 69 -74 134h-10q-175 0 -284.5 129.5t-109.5 320.5q0 171 87 322t231 240t305 89q133 0 222.5 -64t117.5 -177l-74 -25q-26 95 -97 148t-171 53z" />
<glyph unicode="&#xe8;" horiz-adv-x="1075" d="M717 1333l-55 -26l-123 188h88zM461 500q-133 0 -324 12q-6 -40 -6 -80q0 -109 37 -196.5t115.5 -142t187.5 -54.5q111 0 222.5 63.5t168.5 165.5l62 -18q-70 -121 -199.5 -195.5t-269.5 -74.5q-121 0 -212.5 61t-137.5 162.5t-46 226.5q0 122 48 240t130 208.5 t199.5 146.5t247.5 56q59 0 116 -18.5t103.5 -52.5t75.5 -89t29 -122q0 -299 -547 -299zM674 1020q-189 0 -335 -131t-192 -318q191 -12 320 -12q473 0 473 242q0 73 -42.5 124.5t-100.5 73t-123 21.5z" />
<glyph unicode="&#xe9;" horiz-adv-x="1075" d="M934 1495l-203 -188l-43 26l156 162h90zM461 500q-133 0 -324 12q-6 -40 -6 -80q0 -109 37 -196.5t115.5 -142t187.5 -54.5q111 0 222.5 63.5t168.5 165.5l62 -18q-70 -121 -199.5 -195.5t-269.5 -74.5q-121 0 -212.5 61t-137.5 162.5t-46 226.5q0 122 48 240t130 208.5 t199.5 146.5t247.5 56q59 0 116 -18.5t103.5 -52.5t75.5 -89t29 -122q0 -299 -547 -299zM674 1020q-189 0 -335 -131t-192 -318q191 -12 320 -12q473 0 473 242q0 73 -42.5 124.5t-100.5 73t-123 21.5z" />
<glyph unicode="&#xea;" horiz-adv-x="1075" d="M752 1389l-193 -129l-39 30l217 158h54l151 -158l-51 -30zM461 500q-133 0 -324 12q-6 -40 -6 -80q0 -109 37 -196.5t115.5 -142t187.5 -54.5q111 0 222.5 63.5t168.5 165.5l62 -18q-70 -121 -199.5 -195.5t-269.5 -74.5q-121 0 -212.5 61t-137.5 162.5t-46 226.5 q0 122 48 240t130 208.5t199.5 146.5t247.5 56q59 0 116 -18.5t103.5 -52.5t75.5 -89t29 -122q0 -299 -547 -299zM674 1020q-189 0 -335 -131t-192 -318q191 -12 320 -12q473 0 473 242q0 73 -42.5 124.5t-100.5 73t-123 21.5z" />
<glyph unicode="&#xeb;" horiz-adv-x="1075" d="M678 1493l-35 -168h-63l34 168h64zM924 1493l-35 -168h-64l35 168h64zM461 500q-133 0 -324 12q-6 -40 -6 -80q0 -109 37 -196.5t115.5 -142t187.5 -54.5q111 0 222.5 63.5t168.5 165.5l62 -18q-70 -121 -199.5 -195.5t-269.5 -74.5q-121 0 -212.5 61t-137.5 162.5 t-46 226.5q0 122 48 240t130 208.5t199.5 146.5t247.5 56q59 0 116 -18.5t103.5 -52.5t75.5 -89t29 -122q0 -299 -547 -299zM674 1020q-189 0 -335 -131t-192 -318q191 -12 320 -12q473 0 473 242q0 73 -42.5 124.5t-100.5 73t-123 21.5z" />
<glyph unicode="&#xec;" horiz-adv-x="391" d="M371 1403h88l90 -162l-55 -27zM256 1065h70l-226 -1065h-69z" />
<glyph unicode="&#xed;" horiz-adv-x="391" d="M344 1307l-43 26l156 162h90zM256 1065h70l-226 -1065h-69z" />
<glyph unicode="&#xee;" horiz-adv-x="391" d="M133 1290l217 158h53l152 -158l-51 -30l-139 129l-193 -129zM256 1065h70l-226 -1065h-69z" />
<glyph unicode="&#xef;" horiz-adv-x="391" d="M193 1325l34 168h64l-35 -168h-63zM438 1325l35 168h64l-35 -168h-64zM256 1065h70l-226 -1065h-69z" />
<glyph unicode="&#xf0;" horiz-adv-x="1169" d="M1106 1421l-205 -121q182 -231 182 -542q0 -174 -57 -323.5t-148.5 -247t-205.5 -152.5t-230 -55q-172 0 -281.5 118.5t-109.5 290.5q0 113 52 221t135 187t191.5 127.5t217.5 48.5q143 0 242.5 -78t124.5 -203q4 41 4 125q-7 257 -170 455l-266 -158l-19 39l256 152 q-92 102 -221 190h98q99 -70 178 -162l213 127zM457 45q128 0 250 74.5t199 196.5t77 253q0 143 -96.5 241.5t-243.5 98.5q-127 0 -247.5 -71t-196.5 -190.5t-76 -250.5q0 -150 93.5 -251t240.5 -101z" />
<glyph unicode="&#xf1;" horiz-adv-x="1118" d="M649 1421q-29 0 -53 -13t-38 -32.5t-20.5 -31.5t-9.5 -21h-51q1 7 7 23t21 39t35 43t53 34.5t71 14.5q43 0 79 -20t71.5 -40t76.5 -20q29 0 53.5 9.5t38.5 22.5t24.5 28.5t14 24t4.5 13.5h51q-2 -9 -8 -24t-22 -38t-37 -42.5t-56.5 -33.5t-76.5 -14q-49 0 -89 19.5 t-73.5 39t-65.5 19.5zM256 1065h66l-56 -266q88 126 226.5 204t273.5 78q116 0 170.5 -64t54.5 -194q0 -85 -26 -221l-127 -602h-70l125 594q25 125 25 205q0 217 -181 217q-90 0 -186.5 -45t-179 -125.5t-129.5 -179.5l-142 -666h-69z" />
<glyph unicode="&#xf2;" horiz-adv-x="1157" d="M532 1495h89l90 -162l-56 -26zM57 422q0 135 51.5 258t135.5 210.5t195.5 139t228.5 51.5q127 0 217.5 -61t133 -160t42.5 -225q0 -177 -84.5 -328.5t-224.5 -239t-299 -87.5q-191 0 -293.5 124.5t-102.5 317.5zM991 623q0 110 -36.5 197.5t-114 141.5t-185.5 54 q-99 0 -195 -45.5t-169 -123t-117.5 -186.5t-44.5 -229q0 -170 87.5 -278.5t248.5 -108.5q99 0 195 45t169 121t117.5 184.5t44.5 227.5z" />
<glyph unicode="&#xf3;" horiz-adv-x="1157" d="M725 1307l-43 26l156 162h90zM57 422q0 135 51.5 258t135.5 210.5t195.5 139t228.5 51.5q127 0 217.5 -61t133 -160t42.5 -225q0 -177 -84.5 -328.5t-224.5 -239t-299 -87.5q-191 0 -293.5 124.5t-102.5 317.5zM991 623q0 110 -36.5 197.5t-114 141.5t-185.5 54 q-99 0 -195 -45.5t-169 -123t-117.5 -186.5t-44.5 -229q0 -170 87.5 -278.5t248.5 -108.5q99 0 195 45t169 121t117.5 184.5t44.5 227.5z" />
<glyph unicode="&#xf4;" horiz-adv-x="1157" d="M514 1290l217 158h53l152 -158l-51 -30l-140 129l-192 -129zM57 422q0 135 51.5 258t135.5 210.5t195.5 139t228.5 51.5q127 0 217.5 -61t133 -160t42.5 -225q0 -177 -84.5 -328.5t-224.5 -239t-299 -87.5q-191 0 -293.5 124.5t-102.5 317.5zM991 623q0 110 -36.5 197.5 t-114 141.5t-185.5 54q-99 0 -195 -45.5t-169 -123t-117.5 -186.5t-44.5 -229q0 -170 87.5 -278.5t248.5 -108.5q99 0 195 45t169 121t117.5 184.5t44.5 227.5z" />
<glyph unicode="&#xf5;" horiz-adv-x="1157" d="M618 1421q-29 0 -53 -13t-38 -32.5t-20 -31.5t-9 -21h-52q1 7 7 23t21 39t35 43t53 34.5t71 14.5q43 0 79 -20t71.5 -40t76.5 -20q29 0 53.5 9.5t38.5 22.5t24.5 28.5t14 24t4.5 13.5h52q-2 -9 -8 -24t-22 -38t-37.5 -42.5t-57 -33.5t-76.5 -14q-49 0 -89 19.5t-73.5 39 t-65.5 19.5zM57 422q0 135 51.5 258t135.5 210.5t195.5 139t228.5 51.5q127 0 217.5 -61t133 -160t42.5 -225q0 -177 -84.5 -328.5t-224.5 -239t-299 -87.5q-191 0 -293.5 124.5t-102.5 317.5zM991 623q0 110 -36.5 197.5t-114 141.5t-185.5 54q-99 0 -195 -45.5t-169 -123 t-117.5 -186.5t-44.5 -229q0 -170 87.5 -278.5t248.5 -108.5q99 0 195 45t169 121t117.5 184.5t44.5 227.5z" />
<glyph unicode="&#xf6;" horiz-adv-x="1157" d="M573 1325l35 168h64l-35 -168h-64zM819 1325l35 168h64l-35 -168h-64zM57 422q0 135 51.5 258t135.5 210.5t195.5 139t228.5 51.5q127 0 217.5 -61t133 -160t42.5 -225q0 -177 -84.5 -328.5t-224.5 -239t-299 -87.5q-191 0 -293.5 124.5t-102.5 317.5zM991 623 q0 110 -36.5 197.5t-114 141.5t-185.5 54q-99 0 -195 -45.5t-169 -123t-117.5 -186.5t-44.5 -229q0 -170 87.5 -278.5t248.5 -108.5q99 0 195 45t169 121t117.5 184.5t44.5 227.5z" />
<glyph unicode="&#xf7;" horiz-adv-x="1116" d="M512 797v147h66v-147h-66zM133 530v64h825v-64h-825zM512 178v146h66v-146h-66z" />
<glyph unicode="&#xf8;" horiz-adv-x="1157" d="M944 965q117 -130 117 -332q0 -166 -88.5 -318t-231.5 -243.5t-297 -91.5q-136 0 -233 81l-53 -61h-64l82 94q-119 128 -119 330q0 126 54 248t140.5 211t199.5 143.5t227 54.5q134 0 231 -84l58 68h63zM664 1016q-96 0 -193 -48.5t-172 -127.5t-122.5 -187.5 t-47.5 -220.5q0 -169 96 -282l637 790q-86 76 -198 76zM455 45q129 0 253.5 80t203.5 215t79 283q0 171 -96 284l-639 -788q83 -74 199 -74z" />
<glyph unicode="&#xf9;" horiz-adv-x="1138" d="M545 1495h88l90 -162l-55 -26zM90 262q0 81 25 197l129 606h69l-127 -598q-24 -108 -24 -188q0 -234 205 -234q137 0 274 96t213 248l143 676h70l-193 -911q-12 -50 -12 -58q0 -30 31 -30l-16 -66q-25 0 -33 2q-49 9 -49 61q0 16 39 199q-94 -130 -227.5 -206t-268.5 -76 q-248 0 -248 282z" />
<glyph unicode="&#xfa;" horiz-adv-x="1138" d="M737 1307l-43 26l156 162h90zM90 262q0 81 25 197l129 606h69l-127 -598q-24 -108 -24 -188q0 -234 205 -234q137 0 274 96t213 248l143 676h70l-193 -911q-12 -50 -12 -58q0 -30 31 -30l-16 -66q-25 0 -33 2q-49 9 -49 61q0 16 39 199q-94 -130 -227.5 -206t-268.5 -76 q-248 0 -248 282z" />
<glyph unicode="&#xfb;" horiz-adv-x="1138" d="M526 1290l217 158h54l151 -158l-51 -30l-139 129l-193 -129zM90 262q0 81 25 197l129 606h69l-127 -598q-24 -108 -24 -188q0 -234 205 -234q137 0 274 96t213 248l143 676h70l-193 -911q-12 -50 -12 -58q0 -30 31 -30l-16 -66q-25 0 -33 2q-49 9 -49 61q0 16 39 199 q-94 -130 -227.5 -206t-268.5 -76q-248 0 -248 282z" />
<glyph unicode="&#xfc;" horiz-adv-x="1138" d="M586 1325l35 168h63l-35 -168h-63zM831 1325l35 168h64l-35 -168h-64zM90 262q0 81 25 197l129 606h69l-127 -598q-24 -108 -24 -188q0 -234 205 -234q137 0 274 96t213 248l143 676h70l-193 -911q-12 -50 -12 -58q0 -30 31 -30l-16 -66q-25 0 -33 2q-49 9 -49 61 q0 16 39 199q-94 -130 -227.5 -206t-268.5 -76q-248 0 -248 282z" />
<glyph unicode="&#xfd;" horiz-adv-x="935" d="M647 1307l-43 26l156 162h90zM-76 -401q63 12 106.5 29.5t83 53.5t70 76t80.5 117l78 121l-236 1069h74l213 -991l109 174q187 298 268.5 463.5t134.5 353.5h70q-56 -200 -138 -366.5t-284 -487.5l-168 -264q-146 -231 -233.5 -310t-219.5 -96z" />
<glyph unicode="&#xfe;" horiz-adv-x="1181" d="M-61 -436l401 1890h70l-129 -604q86 103 204 167t230 64q87 0 160 -38t121 -101t74 -144t26 -169q0 -161 -80.5 -310.5t-219.5 -244t-296 -94.5q-125 0 -215 72.5t-133 185.5l-144 -674h-69zM502 45q137 0 259.5 87.5t192.5 220t70 268.5q0 163 -93 279t-241 116 q-74 0 -167 -42t-171.5 -115t-101.5 -150l-78 -367q27 -129 116.5 -213t213.5 -84z" />
<glyph unicode="&#xff;" horiz-adv-x="935" d="M496 1325l34 168h64l-35 -168h-63zM741 1325l35 168h64l-35 -168h-64zM-76 -401q63 12 106.5 29.5t83 53.5t70 76t80.5 117l78 121l-236 1069h74l213 -991l109 174q187 298 268.5 463.5t134.5 353.5h70q-56 -200 -138 -366.5t-284 -487.5l-168 -264 q-146 -231 -233.5 -310t-219.5 -96z" />
<glyph unicode="&#x100;" horiz-adv-x="1327" d="M647 1780l12 57h551l-12 -57h-551zM819 1454h62l282 -1454h-76l-96 502h-688l-309 -502h-78zM983 563l-152 801l-495 -801h647z" />
<glyph unicode="&#x101;" horiz-adv-x="1198" d="M508 1391l12 57h551l-12 -57h-551zM59 428q0 122 50 241.5t131.5 209.5t191 146t221.5 56q130 0 221 -72.5t132 -185.5l51 242h71l-202 -948q-4 -12 -4 -25q0 -26 28 -26l-14 -66h-29q-55 9 -55 63q0 9 29 154q-86 -107 -206 -172t-237 -65q-114 0 -202 64t-132.5 165 t-44.5 219zM905 352l78 367q-18 123 -109.5 210t-220.5 87q-132 0 -254.5 -87.5t-195 -222.5t-72.5 -272q0 -160 94 -274.5t234 -114.5q126 0 268 94t178 213z" />
<glyph unicode="&#x102;" horiz-adv-x="1327" d="M1053 1884h51q-15 -70 -73.5 -121t-121.5 -51q-57 0 -93 39t-36 98q0 11 4 35h54q-4 -16 -4 -24q0 -42 24 -72.5t60 -30.5q40 0 80 37.5t55 89.5zM819 1454h62l282 -1454h-76l-96 502h-688l-309 -502h-78zM983 563l-152 801l-495 -801h647z" />
<glyph unicode="&#x103;" horiz-adv-x="1198" d="M913 1495h52q-15 -70 -73.5 -121t-121.5 -51q-57 0 -93 39t-36 98q0 11 4 35h53q-4 -16 -4 -25q0 -42 24 -72t60 -30q40 0 80 37.5t55 89.5zM59 428q0 122 50 241.5t131.5 209.5t191 146t221.5 56q130 0 221 -72.5t132 -185.5l51 242h71l-202 -948q-4 -12 -4 -25 q0 -26 28 -26l-14 -66h-29q-55 9 -55 63q0 9 29 154q-86 -107 -206 -172t-237 -65q-114 0 -202 64t-132.5 165t-44.5 219zM905 352l78 367q-18 123 -109.5 210t-220.5 87q-132 0 -254.5 -87.5t-195 -222.5t-72.5 -272q0 -160 94 -274.5t234 -114.5q126 0 268 94t178 213z " />
<glyph unicode="&#x104;" horiz-adv-x="1327" d="M1004 -215q0 -31 21 -49.5t69 -30.5l-35 -51q-107 22 -107 110q0 56 37 111.5t115 124.5h-17l-96 502h-688l-309 -502h-78l903 1454h62l282 -1454q-88 -76 -123.5 -124t-35.5 -91zM336 563h647l-152 801z" />
<glyph unicode="&#x105;" horiz-adv-x="1198" d="M922 92q0 -26 28 -26l-14 -66q-89 -76 -124.5 -124t-35.5 -91q0 -31 21 -49.5t69 -30.5l-35 -51q-106 22 -106 110q0 58 38.5 114t121.5 128q-33 14 -33 57q0 9 29 154q-86 -107 -206 -172t-237 -65q-114 0 -202 64t-132.5 165t-44.5 219q0 122 50 241.5t131.5 209.5 t191 146t221.5 56q130 0 221 -72.5t132 -185.5l51 242h71l-202 -948q-4 -12 -4 -25zM459 45q126 0 268 94t178 213l78 367q-18 123 -109.5 210t-220.5 87q-132 0 -254.5 -87.5t-195 -222.5t-72.5 -272q0 -160 94 -274.5t234 -114.5z" />
<glyph unicode="&#x106;" horiz-adv-x="1353" d="M928 1696l-43 26l155 162h90zM104 590q0 101 28 206t78.5 201.5t125 181.5t163 147.5t198 99t225.5 36.5q185 0 298 -86t148 -231l-65 -29q-79 279 -388 279q-126 0 -242.5 -47.5t-205.5 -128.5t-156 -184t-102 -218.5t-35 -228.5q0 -144 54 -264t161.5 -194.5 t249.5 -74.5q139 0 282 74t246 221l58 -24q-103 -161 -268 -249.5t-330 -88.5q-122 0 -223.5 51.5t-165.5 137t-99 192.5t-35 221z" />
<glyph unicode="&#x107;" horiz-adv-x="1060" d="M733 1307l-43 26l156 162h90zM59 430q0 171 87 322t231 240t305 89q133 0 222.5 -64t117.5 -177l-74 -25q-26 95 -97 148t-171 53q-103 0 -203 -46.5t-176 -124t-123 -184t-47 -219.5q0 -170 92 -283.5t236 -113.5q113 0 227 63t154 148l65 -20q-60 -110 -189 -183 t-263 -73q-175 0 -284.5 129.5t-109.5 320.5z" />
<glyph unicode="&#x108;" horiz-adv-x="1353" d="M717 1679l217 158h53l152 -158l-52 -30l-139 129l-192 -129zM104 590q0 101 28 206t78.5 201.5t125 181.5t163 147.5t198 99t225.5 36.5q185 0 298 -86t148 -231l-65 -29q-79 279 -388 279q-126 0 -242.5 -47.5t-205.5 -128.5t-156 -184t-102 -218.5t-35 -228.5 q0 -144 54 -264t161.5 -194.5t249.5 -74.5q139 0 282 74t246 221l58 -24q-103 -161 -268 -249.5t-330 -88.5q-122 0 -223.5 51.5t-165.5 137t-99 192.5t-35 221z" />
<glyph unicode="&#x109;" horiz-adv-x="1060" d="M522 1290l217 158h54l151 -158l-51 -30l-139 129l-193 -129zM59 430q0 171 87 322t231 240t305 89q133 0 222.5 -64t117.5 -177l-74 -25q-26 95 -97 148t-171 53q-103 0 -203 -46.5t-176 -124t-123 -184t-47 -219.5q0 -170 92 -283.5t236 -113.5q113 0 227 63t154 148 l65 -20q-60 -110 -189 -183t-263 -73q-175 0 -284.5 129.5t-109.5 320.5z" />
<glyph unicode="&#x10a;" horiz-adv-x="1353" d="M899 1714l35 170h65l-34 -170h-66zM104 590q0 101 28 206t78.5 201.5t125 181.5t163 147.5t198 99t225.5 36.5q185 0 298 -86t148 -231l-65 -29q-79 279 -388 279q-126 0 -242.5 -47.5t-205.5 -128.5t-156 -184t-102 -218.5t-35 -228.5q0 -144 54 -264t161.5 -194.5 t249.5 -74.5q139 0 282 74t246 221l58 -24q-103 -161 -268 -249.5t-330 -88.5q-122 0 -223.5 51.5t-165.5 137t-99 192.5t-35 221z" />
<glyph unicode="&#x10b;" horiz-adv-x="1060" d="M705 1325l34 170h66l-35 -170h-65zM59 430q0 171 87 322t231 240t305 89q133 0 222.5 -64t117.5 -177l-74 -25q-26 95 -97 148t-171 53q-103 0 -203 -46.5t-176 -124t-123 -184t-47 -219.5q0 -170 92 -283.5t236 -113.5q113 0 227 63t154 148l65 -20q-60 -110 -189 -183 t-263 -73q-175 0 -284.5 129.5t-109.5 320.5z" />
<glyph unicode="&#x10c;" horiz-adv-x="1353" d="M735 1855l51 29l140 -129l192 129l39 -29l-219 -159h-53zM104 590q0 101 28 206t78.5 201.5t125 181.5t163 147.5t198 99t225.5 36.5q185 0 298 -86t148 -231l-65 -29q-79 279 -388 279q-126 0 -242.5 -47.5t-205.5 -128.5t-156 -184t-102 -218.5t-35 -228.5 q0 -144 54 -264t161.5 -194.5t249.5 -74.5q139 0 282 74t246 221l58 -24q-103 -161 -268 -249.5t-330 -88.5q-122 0 -223.5 51.5t-165.5 137t-99 192.5t-35 221z" />
<glyph unicode="&#x10d;" horiz-adv-x="1060" d="M541 1466l51 29l139 -129l193 129l39 -29l-220 -159h-53zM59 430q0 171 87 322t231 240t305 89q133 0 222.5 -64t117.5 -177l-74 -25q-26 95 -97 148t-171 53q-103 0 -203 -46.5t-176 -124t-123 -184t-47 -219.5q0 -170 92 -283.5t236 -113.5q113 0 227 63t154 148 l65 -20q-60 -110 -189 -183t-263 -73q-175 0 -284.5 129.5t-109.5 320.5z" />
<glyph unicode="&#x10e;" horiz-adv-x="1404" d="M688 1855l51 29l140 -129l192 129l39 -29l-219 -159h-53zM371 1454h452q130 0 231 -42.5t163 -118.5t94 -175.5t32 -218.5q0 -190 -62.5 -357t-172 -286t-263.5 -187.5t-331 -68.5h-453zM528 66q136 0 255 43.5t207.5 121t152.5 180.5t96.5 224.5t32.5 251.5 q0 227 -119.5 364.5t-343.5 137.5h-381l-283 -1323h383z" />
<glyph unicode="&#x10f;" horiz-adv-x="1198" d="M59 430q0 162 84 313t223 244.5t291 93.5q126 0 217 -73t132 -185l141 672h72l-295 -1380q-2 -8 -2 -21q0 -28 28 -28l-14 -66q-25 0 -33 2q-51 9 -51 64q0 15 29 151q-85 -106 -205.5 -171.5t-233.5 -65.5q-117 0 -205.5 64t-133 165t-44.5 221zM1251 1333l156 162h90 l-201 -188zM905 352l78 367q-17 122 -114.5 209.5t-215.5 87.5q-103 0 -201 -52t-167.5 -134.5t-111.5 -186t-42 -203.5q0 -165 93.5 -280t240.5 -115q75 0 168 41t171 114t101 152z" />
<glyph unicode="&#x110;" horiz-adv-x="1419" d="M838 1454q130 0 231 -42.5t163 -118.5t94 -175.5t32 -218.5q0 -254 -107 -459.5t-297 -322.5t-426 -117h-452l149 700h-131l12 62h132l147 692h453zM543 66q136 0 255 43.5t207 121t152 180.5t96.5 224.5t32.5 251.5q0 227 -119.5 364.5t-343.5 137.5h-381l-133 -627h359 l-13 -62h-360l-135 -634h383z" />
<glyph unicode="&#x111;" horiz-adv-x="1198" d="M1174 1282l-250 -1167q-2 -8 -2 -21q0 -28 28 -28l-14 -66q-25 0 -33 2q-51 9 -51 64q0 15 29 151q-85 -106 -205.5 -171.5t-233.5 -65.5q-117 0 -205.5 64t-133 165t-44.5 221q0 162 84 313t223 244.5t291 93.5q126 0 217 -73t132 -185l96 459h-230l13 57h229l33 156h72 l-33 -156h147l-10 -57h-149zM905 352l78 367q-17 122 -114.5 209.5t-215.5 87.5q-103 0 -201 -52t-167.5 -134.5t-111.5 -186t-42 -203.5q0 -165 93.5 -280t240.5 -115q75 0 168 41t171 114t101 152z" />
<glyph unicode="&#x112;" horiz-adv-x="1200" d="M592 1780l12 57h551l-12 -57h-551zM371 1454h897l-15 -65h-825l-131 -613h723l-14 -65h-721l-140 -645h844l-12 -66h-916z" />
<glyph unicode="&#x113;" horiz-adv-x="1075" d="M485 1448h551l-12 -57h-551zM684 1081q59 0 116 -18.5t103.5 -52.5t75.5 -89t29 -122q0 -299 -547 -299q-133 0 -324 12q-6 -40 -6 -80q0 -109 37 -196.5t115.5 -142t187.5 -54.5q111 0 222.5 63.5t168.5 165.5l62 -18q-70 -121 -199.5 -195.5t-269.5 -74.5 q-121 0 -212.5 61t-137.5 162.5t-46 226.5q0 122 48 240t130 208.5t199.5 146.5t247.5 56zM467 559q473 0 473 242q0 73 -42.5 124.5t-100.5 73t-123 21.5q-189 0 -335 -131t-192 -318q191 -12 320 -12z" />
<glyph unicode="&#x114;" horiz-adv-x="1200" d="M997 1884h52q-15 -70 -73.5 -121t-121.5 -51q-57 0 -93 39t-36 98q0 11 4 35h53q-4 -16 -4 -24q0 -42 24 -72.5t60 -30.5q40 0 80 37.5t55 89.5zM371 1454h897l-15 -65h-825l-131 -613h723l-14 -65h-721l-140 -645h844l-12 -66h-916z" />
<glyph unicode="&#x115;" horiz-adv-x="1075" d="M735 1323q-57 0 -93 39t-36 98q0 11 4 35h54q-5 -20 -5 -25q0 -42 24 -72t60 -30q40 0 80.5 37.5t55.5 89.5h51q-15 -70 -73.5 -121t-121.5 -51zM461 500q-133 0 -324 12q-6 -40 -6 -80q0 -109 37 -196.5t115.5 -142t187.5 -54.5q111 0 222.5 63.5t168.5 165.5l62 -18 q-70 -121 -199.5 -195.5t-269.5 -74.5q-121 0 -212.5 61t-137.5 162.5t-46 226.5q0 122 48 240t130 208.5t199.5 146.5t247.5 56q59 0 116 -18.5t103.5 -52.5t75.5 -89t29 -122q0 -299 -547 -299zM674 1020q-189 0 -335 -131t-192 -318q191 -12 320 -12q473 0 473 242 q0 73 -42.5 124.5t-100.5 73t-123 21.5z" />
<glyph unicode="&#x116;" horiz-adv-x="1200" d="M821 1714l35 170h66l-35 -170h-66zM371 1454h897l-15 -65h-825l-131 -613h723l-14 -65h-721l-140 -645h844l-12 -66h-916z" />
<glyph unicode="&#x117;" horiz-adv-x="1075" d="M803 1495l-35 -170h-66l35 170h66zM461 500q-133 0 -324 12q-6 -40 -6 -80q0 -109 37 -196.5t115.5 -142t187.5 -54.5q111 0 222.5 63.5t168.5 165.5l62 -18q-70 -121 -199.5 -195.5t-269.5 -74.5q-121 0 -212.5 61t-137.5 162.5t-46 226.5q0 122 48 240t130 208.5 t199.5 146.5t247.5 56q59 0 116 -18.5t103.5 -52.5t75.5 -89t29 -122q0 -299 -547 -299zM674 1020q-189 0 -335 -131t-192 -318q191 -12 320 -12q473 0 473 242q0 73 -42.5 124.5t-100.5 73t-123 21.5z" />
<glyph unicode="&#x118;" horiz-adv-x="1200" d="M1253 1389h-825l-131 -613h723l-14 -65h-721l-140 -645h844l-12 -66q-89 -76 -124.5 -124t-35.5 -91q0 -31 21 -49.5t69 -30.5l-35 -51q-106 22 -106 110q0 56 37 111.5t115 124.5h-857l310 1454h897z" />
<glyph unicode="&#x119;" horiz-adv-x="1075" d="M461 500q-133 0 -324 12q-6 -40 -6 -80q0 -109 37 -196.5t115.5 -142t187.5 -54.5q111 0 222.5 63.5t168.5 165.5l62 -18q-64 -110 -179 -183t-243 -85q-76 -67 -108 -112t-32 -85q0 -30 21.5 -49t69.5 -31l-35 -51q-107 22 -107 110q0 52 31 103t98 113 q-176 6 -278.5 133.5t-102.5 316.5q0 122 48 240t130 208.5t199.5 146.5t247.5 56q59 0 116 -18.5t103.5 -52.5t75.5 -89t29 -122q0 -299 -547 -299zM674 1020q-189 0 -335 -131t-192 -318q191 -12 320 -12q473 0 473 242q0 73 -42.5 124.5t-100.5 73t-123 21.5z" />
<glyph unicode="&#x11a;" horiz-adv-x="1200" d="M657 1855l52 29l139 -129l192 129l39 -29l-219 -159h-53zM371 1454h897l-15 -65h-825l-131 -613h723l-14 -65h-721l-140 -645h844l-12 -66h-916z" />
<glyph unicode="&#x11b;" horiz-adv-x="1075" d="M741 1307h-53l-149 159l51 29l139 -129l193 129l39 -29zM461 500q-133 0 -324 12q-6 -40 -6 -80q0 -109 37 -196.5t115.5 -142t187.5 -54.5q111 0 222.5 63.5t168.5 165.5l62 -18q-70 -121 -199.5 -195.5t-269.5 -74.5q-121 0 -212.5 61t-137.5 162.5t-46 226.5 q0 122 48 240t130 208.5t199.5 146.5t247.5 56q59 0 116 -18.5t103.5 -52.5t75.5 -89t29 -122q0 -299 -547 -299zM674 1020q-189 0 -335 -131t-192 -318q191 -12 320 -12q473 0 473 242q0 73 -42.5 124.5t-100.5 73t-123 21.5z" />
<glyph unicode="&#x11c;" horiz-adv-x="1409" d="M979 1772l-193 -130l-38 31l217 158h53l151 -158l-51 -31zM913 637l13 61h383l-150 -698h-63l51 238q-260 -248 -535 -248q-120 0 -218.5 51.5t-160.5 138t-95.5 194.5t-33.5 226q0 130 41 258.5t116.5 236.5t175.5 191.5t226 130.5t259 47q187 0 299 -85.5t149 -231.5 l-67 -31q-78 281 -390 281q-154 0 -293.5 -70t-236 -182.5t-153 -255.5t-56.5 -287q0 -148 55.5 -271.5t162.5 -198.5t245 -75q253 0 528 269l66 311h-318z" />
<glyph unicode="&#x11d;" horiz-adv-x="1189" d="M526 1290l217 158h54l151 -158l-51 -30l-139 129l-193 -129zM-51 -207l57 29q35 -109 127.5 -163t218.5 -54q168 0 299 94.5t168 267.5l55 250q-86 -105 -205.5 -170t-232.5 -65q-115 0 -203 64t-132 165t-44 219q0 119 49.5 237.5t130.5 209t192.5 147.5t227.5 57 q232 0 351 -258l51 242h63l-233 -1098q-21 -103 -76 -185.5t-130 -134t-163 -78t-180 -26.5q-170 0 -261.5 64.5t-129.5 185.5zM903 352l78 367q-19 129 -113 213t-217 84q-106 0 -205 -54t-167 -137.5t-109 -185.5t-41 -199q0 -165 93 -280t241 -115q87 0 182 46.5 t165 117.5t93 143z" />
<glyph unicode="&#x11e;" horiz-adv-x="1409" d="M963 1706q-57 0 -93 39t-36 98q0 11 4 35h53q-4 -16 -4 -25q0 -42 24 -72t60 -30q40 0 80 37.5t55 89.5h51q-15 -70 -73 -121t-121 -51zM913 637l13 61h383l-150 -698h-63l51 238q-260 -248 -535 -248q-120 0 -218.5 51.5t-160.5 138t-95.5 194.5t-33.5 226 q0 130 41 258.5t116.5 236.5t175.5 191.5t226 130.5t259 47q187 0 299 -85.5t149 -231.5l-67 -31q-78 281 -390 281q-154 0 -293.5 -70t-236 -182.5t-153 -255.5t-56.5 -287q0 -148 55.5 -271.5t162.5 -198.5t245 -75q253 0 528 269l66 311h-318z" />
<glyph unicode="&#x11f;" horiz-adv-x="1189" d="M885 1495h51q-15 -70 -73.5 -121t-121.5 -51q-57 0 -93 39t-36 98q0 11 4 35h54q-4 -16 -4 -25q0 -42 24 -72t60 -30q40 0 80 37.5t55 89.5zM-51 -207l57 29q35 -109 127.5 -163t218.5 -54q168 0 299 94.5t168 267.5l55 250q-86 -105 -205.5 -170t-232.5 -65 q-115 0 -203 64t-132 165t-44 219q0 119 49.5 237.5t130.5 209t192.5 147.5t227.5 57q232 0 351 -258l51 242h63l-233 -1098q-21 -103 -76 -185.5t-130 -134t-163 -78t-180 -26.5q-170 0 -261.5 64.5t-129.5 185.5zM903 352l78 367q-19 129 -113 213t-217 84 q-106 0 -205 -54t-167 -137.5t-109 -185.5t-41 -199q0 -165 93 -280t241 -115q87 0 182 46.5t165 117.5t93 143z" />
<glyph unicode="&#x120;" horiz-adv-x="1409" d="M1030 1878l-35 -170h-65l35 170h65zM913 637l13 61h383l-150 -698h-63l51 238q-260 -248 -535 -248q-120 0 -218.5 51.5t-160.5 138t-95.5 194.5t-33.5 226q0 130 41 258.5t116.5 236.5t175.5 191.5t226 130.5t259 47q187 0 299 -85.5t149 -231.5l-67 -31 q-78 281 -390 281q-154 0 -293.5 -70t-236 -182.5t-153 -255.5t-56.5 -287q0 -148 55.5 -271.5t162.5 -198.5t245 -75q253 0 528 269l66 311h-318z" />
<glyph unicode="&#x121;" horiz-adv-x="1189" d="M709 1325l34 170h66l-35 -170h-65zM-51 -207l57 29q35 -109 127.5 -163t218.5 -54q168 0 299 94.5t168 267.5l55 250q-86 -105 -205.5 -170t-232.5 -65q-115 0 -203 64t-132 165t-44 219q0 119 49.5 237.5t130.5 209t192.5 147.5t227.5 57q232 0 351 -258l51 242h63 l-233 -1098q-21 -103 -76 -185.5t-130 -134t-163 -78t-180 -26.5q-170 0 -261.5 64.5t-129.5 185.5zM903 352l78 367q-19 129 -113 213t-217 84q-106 0 -205 -54t-167 -137.5t-109 -185.5t-41 -199q0 -165 93 -280t241 -115q87 0 182 46.5t165 117.5t93 143z" />
<glyph unicode="&#x122;" horiz-adv-x="1409" d="M913 637l13 61h383l-150 -698h-63l51 238q-260 -248 -535 -248q-120 0 -218.5 51.5t-160.5 138t-95.5 194.5t-33.5 226q0 130 41 258.5t116.5 236.5t175.5 191.5t226 130.5t259 47q187 0 299 -85.5t149 -231.5l-67 -31q-78 281 -390 281q-154 0 -293.5 -70t-236 -182.5 t-153 -255.5t-56.5 -287q0 -148 55.5 -271.5t162.5 -198.5t245 -75q253 0 528 269l66 311h-318zM537 -233l28 131h74l-29 -131l-59 -127h-41l51 127h-24z" />
<glyph unicode="&#x123;" horiz-adv-x="1189" d="M803 1495l-43 -123h16l-28 -127h-50l31 127l47 123h27zM-51 -207l57 29q35 -109 127.5 -163t218.5 -54q168 0 299 94.5t168 267.5l55 250q-86 -105 -205.5 -170t-232.5 -65q-115 0 -203 64t-132 165t-44 219q0 119 49.5 237.5t130.5 209t192.5 147.5t227.5 57 q232 0 351 -258l51 242h63l-233 -1098q-21 -103 -76 -185.5t-130 -134t-163 -78t-180 -26.5q-170 0 -261.5 64.5t-129.5 185.5zM903 352l78 367q-19 129 -113 213t-217 84q-106 0 -205 -54t-167 -137.5t-109 -185.5t-41 -199q0 -165 93 -280t241 -115q87 0 182 46.5 t165 117.5t93 143z" />
<glyph unicode="&#x124;" horiz-adv-x="1439" d="M760 1679l217 158h53l152 -158l-52 -30l-139 129l-192 -129zM371 1454h71l-145 -678h913l146 678h69l-309 -1454h-69l149 711h-911l-152 -711h-72z" />
<glyph unicode="&#x125;" horiz-adv-x="1118" d="M596 1677l213 158h53l150 -158l-51 -30l-138 129l-188 -129zM348 1495h70l-148 -696q89 129 217.5 205.5t257.5 76.5q242 0 242 -280q0 -97 -22 -199l-127 -602h-70l125 594q22 110 22 182q0 240 -198 240q-132 0 -269 -100.5t-206 -249.5l-142 -666h-69z" />
<glyph unicode="&#x126;" horiz-adv-x="1458" d="M1475 1184l-13 -51h-94l-242 -1133h-71l151 711h-913l-152 -711h-69l241 1133h-98l12 51h97l57 270h70l-58 -270h914l57 270h72l-58 -270h97zM1221 776l75 357h-913l-76 -357h914z" />
<glyph unicode="&#x127;" horiz-adv-x="1118" d="M745 1081q242 0 242 -280q0 -97 -22 -199l-127 -602h-70l125 594q22 110 22 182q0 240 -198 240q-132 0 -269 -100.5t-206 -249.5l-142 -666h-69l272 1282h-143l12 57h143l33 156h70l-33 -156h233l-10 -57h-235l-103 -483q89 129 217.5 205.5t257.5 76.5z" />
<glyph unicode="&#x128;" horiz-adv-x="456" d="M352 1806q-29 0 -53 -13t-38 -32.5t-20.5 -31.5t-9.5 -21h-51q1 7 7 23t21 39t35 43t53 34.5t71 14.5q43 0 79 -20t71.5 -40t76.5 -20q29 0 53.5 9.5t38.5 22.5t24.5 28.5t14 24t4.5 13.5h51q-2 -9 -8 -24t-22 -38t-37 -42t-56.5 -33t-76.5 -14q-49 0 -89 19.5 t-73.5 38.5t-65.5 19zM371 1452h71l-309 -1452h-72z" />
<glyph unicode="&#x129;" horiz-adv-x="391" d="M406 1315q-29 0 -53 -13t-38 -32.5t-20.5 -31.5t-9.5 -21h-52q1 10 11.5 32t31 50.5t59 49.5t85.5 21q52 0 115 -40t112 -40q29 0 53.5 10t38.5 22.5t24.5 28.5t14 24.5t4.5 13.5h52q-2 -9 -8 -24t-22 -38t-37.5 -42.5t-57 -33.5t-76.5 -14q-39 0 -73 12t-54 27t-47 27 t-53 12zM256 1065h70l-226 -1065h-69z" />
<glyph unicode="&#x12a;" horiz-adv-x="456" d="M201 1776l12 57h551l-12 -57h-551zM371 1452h71l-309 -1452h-72z" />
<glyph unicode="&#x12b;" horiz-adv-x="391" d="M86 1391l12 57h551l-12 -57h-551zM256 1065h70l-226 -1065h-69z" />
<glyph unicode="&#x12c;" horiz-adv-x="456" d="M606 1880h51q-15 -70 -73 -121t-121 -51q-57 0 -93 39t-36 98q0 11 4 35h53q-4 -16 -4 -25q0 -42 24 -72t60 -30q40 0 80 37.5t55 89.5zM371 1452h71l-309 -1452h-72z" />
<glyph unicode="&#x12d;" horiz-adv-x="391" d="M492 1495h51q-15 -70 -73.5 -121t-121.5 -51q-57 0 -93 39t-36 98q0 11 4 35h53q-4 -16 -4 -25q0 -42 24 -72t60 -30q40 0 80.5 37.5t55.5 89.5zM256 1065h70l-226 -1065h-69z" />
<glyph unicode="&#x12e;" horiz-adv-x="456" d="M133 0q-89 -76 -124.5 -124t-35.5 -91q0 -31 21 -49.5t69 -30.5l-34 -51q-107 22 -107 110q0 56 37 111.5t115 124.5h-13l310 1452h71z" />
<glyph unicode="&#x12f;" horiz-adv-x="391" d="M348 1495h70l-37 -172h-70zM31 0l225 1065h70l-226 -1065q-88 -76 -123.5 -124t-35.5 -91q0 -31 21 -49.5t69 -30.5l-35 -51q-107 22 -107 110q0 56 37 111.5t115 124.5h-10z" />
<glyph unicode="&#x130;" horiz-adv-x="456" d="M430 1710l35 170h65l-34 -170h-66zM371 1452h71l-309 -1452h-72z" />
<glyph unicode="&#x131;" horiz-adv-x="391" d="M256 1065h70l-226 -1065h-69z" />
<glyph unicode="&#x134;" horiz-adv-x="944" d="M756 1673l217 158h53l152 -158l-52 -31l-139 130l-192 -130zM-68 68l39 57q98 -84 262 -84q66 0 121 16t97 43.5t77.5 75t61 98t50 126t42.5 145.5t39 170l158 737h69l-157 -737q-20 -95 -36.5 -164t-39 -144.5t-46.5 -127.5t-56 -104.5t-70 -86t-85.5 -60.5t-106.5 -39 t-130 -12q-167 0 -289 91z" />
<glyph unicode="&#x135;" horiz-adv-x="391" d="M152 1290l217 158h53l151 -158l-51 -30l-139 129l-193 -129zM-436 -283l51 45q44 -51 145 -51q78 0 156 65t98 156l242 1133h70l-242 -1131q-25 -121 -127 -204.5t-205 -83.5q-133 0 -188 71z" />
<glyph unicode="&#x136;" horiz-adv-x="1224" d="M371 1452h71l-194 -913l1034 915h88l-717 -637l434 -817h-79l-410 774l-369 -323l-96 -451h-72zM416 -360l51 127h-25l29 131h74l-29 -131l-59 -127h-41z" />
<glyph unicode="&#x137;" horiz-adv-x="1075" d="M1047 872q0 -134 -117.5 -237.5t-321.5 -149.5l244 -485h-78l-254 522q221 44 339 133t118 207q0 79 -51 121.5t-142 42.5q-266 0 -555 -414l-129 -612h-69l317 1495h70l-166 -778q125 179 265 274.5t282 95.5q119 0 183.5 -57t64.5 -158zM334 -233l28 131h74l-28 -131 l-60 -127h-41l51 127h-24z" />
<glyph unicode="&#x138;" horiz-adv-x="1005" d="M256 1065h70l-136 -641l785 637h84l-520 -426l307 -635h-78l-289 590l-307 -248l-72 -342h-69z" />
<glyph unicode="&#x139;" horiz-adv-x="1132" d="M455 1696l-43 26l155 162h90zM371 1454h71l-297 -1388h846l-14 -66h-916z" />
<glyph unicode="&#x13a;" horiz-adv-x="483" d="M444 1737l-43 26l156 162h90zM70 121q0 31 4 47l282 1327h70l-281 -1313q-4 -24 -4 -35q0 -44 28 -69t77 -25t110 21l4 -58q-80 -26 -157 -26q-61 0 -97 35.5t-36 95.5z" />
<glyph unicode="&#x13b;" horiz-adv-x="1132" d="M371 1454h71l-297 -1388h846l-14 -66h-916zM408 -360l51 127h-25l29 131h74l-29 -131l-59 -127h-41z" />
<glyph unicode="&#x13c;" horiz-adv-x="483" d="M70 121q0 31 4 47l282 1327h70l-281 -1313q-4 -24 -4 -35q0 -44 28 -69t77 -25t110 21l4 -58q-80 -26 -157 -26q-61 0 -97 35.5t-36 95.5zM82 -360l51 127h-24l28 131h74l-29 -131l-59 -127h-41z" />
<glyph unicode="&#x13d;" horiz-adv-x="1132" d="M938 1333l156 162h90l-201 -188zM371 1454h71l-297 -1388h846l-14 -66h-916z" />
<glyph unicode="&#x13e;" horiz-adv-x="483" d="M70 121q0 31 4 47l282 1327h70l-281 -1313q-4 -24 -4 -35q0 -44 28 -69t77 -25t110 21l4 -58q-80 -26 -157 -26q-61 0 -97 35.5t-36 95.5zM469 1333l156 162h90l-201 -188z" />
<glyph unicode="&#x13f;" horiz-adv-x="1132" d="M371 1454h71l-297 -1388h846l-14 -66h-916zM682 731l39 187h63l-39 -187h-63z" />
<glyph unicode="&#x140;" horiz-adv-x="526" d="M70 121q0 31 4 47l282 1327h70l-281 -1313q-4 -24 -4 -35q0 -44 28 -69t77 -25t110 21l4 -58q-80 -26 -157 -26q-61 0 -97 35.5t-36 95.5zM416 520l39 187h63l-39 -187h-63z" />
<glyph unicode="&#x141;" horiz-adv-x="1148" d="M145 66h846l-14 -66h-916l119 559l-125 -102l-22 47l164 135l174 815h71l-159 -745l438 358l22 -45l-477 -391z" />
<glyph unicode="&#x142;" horiz-adv-x="514" d="M279 53q45 0 110 21l4 -58q-80 -26 -157 -26q-63 0 -98.5 34.5t-35.5 94.5q0 33 4 49l123 580l-163 -134l-25 43l205 166l143 672h70l-129 -604l213 172l26 -43l-256 -207l-133 -623q-1 -5 -3.5 -20.5t-2.5 -22.5q0 -44 28 -69t77 -25z" />
<glyph unicode="&#x143;" horiz-adv-x="1519" d="M1016 1690l-43 26l155 162h91zM371 1454h55l725 -1341l283 1339h71l-309 -1452h-68l-714 1319l-281 -1319h-72z" />
<glyph unicode="&#x144;" horiz-adv-x="1118" d="M756 1307l-43 26l155 162h90zM256 1065h66l-56 -266q88 126 226.5 204t273.5 78q116 0 170.5 -64t54.5 -194q0 -85 -26 -221l-127 -602h-70l125 594q25 125 25 205q0 217 -181 217q-90 0 -186.5 -45t-179 -125.5t-129.5 -179.5l-142 -666h-69z" />
<glyph unicode="&#x145;" horiz-adv-x="1519" d="M371 1454h55l725 -1341l283 1339h71l-309 -1452h-68l-714 1319l-281 -1319h-72zM537 -360l51 127h-25l29 131h74l-29 -131l-59 -127h-41z" />
<glyph unicode="&#x146;" horiz-adv-x="1118" d="M256 1065h66l-56 -266q88 126 226.5 204t273.5 78q116 0 170.5 -64t54.5 -194q0 -85 -26 -221l-127 -602h-70l125 594q25 125 25 205q0 217 -181 217q-90 0 -186.5 -45t-179 -125.5t-129.5 -179.5l-142 -666h-69zM338 -360l51 127h-24l28 131h74l-29 -131l-59 -127h-41z " />
<glyph unicode="&#x147;" horiz-adv-x="1519" d="M823 1849l51 29l140 -129l192 129l39 -29l-219 -159h-53zM371 1454h55l725 -1341l283 1339h71l-309 -1452h-68l-714 1319l-281 -1319h-72z" />
<glyph unicode="&#x148;" horiz-adv-x="1118" d="M563 1466l51 29l140 -129l192 129l39 -29l-219 -159h-53zM256 1065h66l-56 -266q88 126 226.5 204t273.5 78q116 0 170.5 -64t54.5 -194q0 -85 -26 -221l-127 -602h-70l125 594q25 125 25 205q0 217 -181 217q-90 0 -186.5 -45t-179 -125.5t-129.5 -179.5l-142 -666h-69z " />
<glyph unicode="&#x14a;" horiz-adv-x="1519" d="M657 -283l52 45q46 -51 145 -51q79 0 157 65t99 156l14 68l-710 1319l-281 -1319h-72l310 1454h53l723 -1339l285 1337h69l-321 -1520q-27 -121 -129 -203.5t-207 -82.5q-129 0 -187 71z" />
<glyph unicode="&#x14b;" horiz-adv-x="1118" d="M301 -283l53 45q44 -51 144 -51q78 0 156 65t98 156l141 662q25 125 25 205q0 217 -181 217q-90 0 -186.5 -45t-179 -125.5t-129.5 -179.5l-142 -666h-69l225 1065h66l-56 -266q88 126 226.5 204t273.5 78q116 0 170.5 -64t54.5 -194q0 -85 -26 -221l-142 -668 q-27 -121 -129 -204.5t-205 -83.5q-130 0 -188 71z" />
<glyph unicode="&#x14c;" horiz-adv-x="1484" d="M733 1774l12 57h551l-12 -57h-551zM102 584q0 172 66 334t175.5 281.5t258.5 192t307 72.5q105 0 192 -33t146.5 -89.5t100.5 -133.5t60 -163t19 -179q0 -114 -30 -226t-83 -208t-128.5 -178t-163.5 -140t-191.5 -91t-209.5 -33q-104 0 -191 32.5t-147 88t-101.5 131.5 t-60.5 162t-19 180zM1358 864q0 108 -28 202.5t-82 169t-144 118t-205 43.5q-148 0 -284 -69.5t-231.5 -182t-152.5 -259.5t-57 -298q0 -108 28 -202t82 -168.5t144 -117.5t205 -43q120 0 232.5 45t200.5 123.5t154.5 180t102 220t35.5 238.5z" />
<glyph unicode="&#x14d;" horiz-adv-x="1157" d="M467 1391l12 57h551l-12 -57h-551zM57 422q0 135 51.5 258t135.5 210.5t195.5 139t228.5 51.5q127 0 217.5 -61t133 -160t42.5 -225q0 -177 -84.5 -328.5t-224.5 -239t-299 -87.5q-191 0 -293.5 124.5t-102.5 317.5zM991 623q0 110 -36.5 197.5t-114 141.5t-185.5 54 q-99 0 -195 -45.5t-169 -123t-117.5 -186.5t-44.5 -229q0 -170 87.5 -278.5t248.5 -108.5q99 0 195 45t169 121t117.5 184.5t44.5 227.5z" />
<glyph unicode="&#x14e;" horiz-adv-x="1484" d="M1139 1878h51q-15 -70 -73.5 -121t-121.5 -51q-57 0 -93 39t-36 98q0 11 4 35h54q-4 -16 -4 -25q0 -42 24 -72t60 -30q40 0 80 37.5t55 89.5zM102 584q0 172 66 334t175.5 281.5t258.5 192t307 72.5q105 0 192 -33t146.5 -89.5t100.5 -133.5t60 -163t19 -179 q0 -114 -30 -226t-83 -208t-128.5 -178t-163.5 -140t-191.5 -91t-209.5 -33q-104 0 -191 32.5t-147 88t-101.5 131.5t-60.5 162t-19 180zM1358 864q0 108 -28 202.5t-82 169t-144 118t-205 43.5q-148 0 -284 -69.5t-231.5 -182t-152.5 -259.5t-57 -298q0 -108 28 -202 t82 -168.5t144 -117.5t205 -43q120 0 232.5 45t200.5 123.5t154.5 180t102 220t35.5 238.5z" />
<glyph unicode="&#x14f;" horiz-adv-x="1157" d="M872 1495h52q-15 -70 -73.5 -121t-121.5 -51q-57 0 -93 39t-36 98q0 11 4 35h53q-4 -16 -4 -25q0 -42 24 -72t60 -30q40 0 80 37.5t55 89.5zM57 422q0 135 51.5 258t135.5 210.5t195.5 139t228.5 51.5q127 0 217.5 -61t133 -160t42.5 -225q0 -177 -84.5 -328.5 t-224.5 -239t-299 -87.5q-191 0 -293.5 124.5t-102.5 317.5zM991 623q0 110 -36.5 197.5t-114 141.5t-185.5 54q-99 0 -195 -45.5t-169 -123t-117.5 -186.5t-44.5 -229q0 -170 87.5 -278.5t248.5 -108.5q99 0 195 45t169 121t117.5 184.5t44.5 227.5z" />
<glyph unicode="&#x150;" horiz-adv-x="1484" d="M864 1690l-39 26l154 162h86zM1075 1690l-39 26l154 162h86zM102 584q0 172 66 334t175.5 281.5t258.5 192t307 72.5q105 0 192 -33t146.5 -89.5t100.5 -133.5t60 -163t19 -179q0 -114 -30 -226t-83 -208t-128.5 -178t-163.5 -140t-191.5 -91t-209.5 -33 q-104 0 -191 32.5t-147 88t-101.5 131.5t-60.5 162t-19 180zM1358 864q0 108 -28 202.5t-82 169t-144 118t-205 43.5q-148 0 -284 -69.5t-231.5 -182t-152.5 -259.5t-57 -298q0 -108 28 -202t82 -168.5t144 -117.5t205 -43q120 0 232.5 45t200.5 123.5t154.5 180t102 220 t35.5 238.5z" />
<glyph unicode="&#x151;" horiz-adv-x="1157" d="M598 1307l-39 26l154 162h86zM809 1307l-39 26l154 162h86zM57 422q0 135 51.5 258t135.5 210.5t195.5 139t228.5 51.5q127 0 217.5 -61t133 -160t42.5 -225q0 -177 -84.5 -328.5t-224.5 -239t-299 -87.5q-191 0 -293.5 124.5t-102.5 317.5zM991 623q0 110 -36.5 197.5 t-114 141.5t-185.5 54q-99 0 -195 -45.5t-169 -123t-117.5 -186.5t-44.5 -229q0 -170 87.5 -278.5t248.5 -108.5q99 0 195 45t169 121t117.5 184.5t44.5 227.5z" />
<glyph unicode="&#x152;" horiz-adv-x="2322" d="M102 590q0 163 70.5 323.5t183.5 280.5t264 195t304 75q199 0 325 -130t150 -328l96 448h895l-16 -65h-822l-129 -613h717l-16 -65h-717l-135 -645h837l-12 -66h-911l96 446q-111 -198 -293.5 -327t-374.5 -129q-119 0 -217.5 49.5t-162 133t-98 191.5t-34.5 226z M1356 856q0 146 -52.5 268t-156 197.5t-238.5 75.5q-143 0 -280 -71.5t-235.5 -185t-159 -258t-60.5 -286.5q0 -109 31 -206.5t87.5 -171.5t142.5 -117.5t190 -43.5q115 0 226.5 46.5t201 126t159 181t107 217.5t37.5 228z" />
<glyph unicode="&#x153;" horiz-adv-x="2039" d="M57 420q0 129 53.5 252t140 212t200.5 143t229 54q157 0 257.5 -104.5t109.5 -276.5q83 177 226 279t310 102q179 0 280 -121.5t101 -332.5q0 -84 -16 -127h-904q-6 -40 -6 -76q0 -166 98 -275.5t253 -109.5q116 0 225 60t166 155l59 -16q-70 -113 -202.5 -185.5 t-266.5 -72.5q-157 0 -266.5 106t-126.5 274q-89 -173 -235.5 -276.5t-301.5 -103.5q-171 0 -277 125.5t-106 314.5zM1892 557q6 47 6 92q0 165 -90.5 268t-238.5 103q-170 0 -315.5 -131.5t-198.5 -331.5h837zM991 627q0 167 -90.5 278t-234.5 111q-97 0 -195 -48.5 t-173 -127.5t-122 -188.5t-47 -223.5q0 -165 90 -274t236 -109q99 0 196.5 47.5t172 125.5t121 186.5t46.5 222.5z" />
<glyph unicode="&#x154;" horiz-adv-x="1269" d="M866 1696l-43 26l156 162h90zM61 0l310 1454h569q95 0 167.5 -53.5t108 -136t35.5 -177.5q0 -186 -131 -342.5t-309 -175.5l223 -569h-82l-221 561h-479l-119 -561h-72zM776 627q107 0 202 68.5t148.5 172t53.5 209.5q0 128 -72 220t-184 92h-496l-162 -762h510z" />
<glyph unicode="&#x155;" horiz-adv-x="665" d="M467 1307l-43 26l156 162h90zM256 1065h68l-58 -270q80 119 187.5 189t216.5 79q23 3 43 0l-15 -64q-142 -6 -263 -93t-193 -236l-142 -670h-69z" />
<glyph unicode="&#x156;" horiz-adv-x="1269" d="M61 0l310 1454h569q95 0 167.5 -53.5t108 -136t35.5 -177.5q0 -186 -131 -342.5t-309 -175.5l223 -569h-82l-221 561h-479l-119 -561h-72zM776 627q107 0 202 68.5t148.5 172t53.5 209.5q0 128 -72 220t-184 92h-496l-162 -762h510zM395 -360l51 127h-24l29 131h73 l-28 -131l-60 -127h-41z" />
<glyph unicode="&#x157;" horiz-adv-x="665" d="M256 1065h68l-58 -270q80 119 187.5 189t216.5 79q23 3 43 0l-15 -64q-142 -6 -263 -93t-193 -236l-142 -670h-69zM-41 -360l51 127h-24l28 131h74l-29 -131l-59 -127h-41z" />
<glyph unicode="&#x158;" horiz-adv-x="1269" d="M674 1855l51 29l139 -129l193 129l39 -29l-219 -159h-54zM61 0l310 1454h569q95 0 167.5 -53.5t108 -136t35.5 -177.5q0 -186 -131 -342.5t-309 -175.5l223 -569h-82l-221 561h-479l-119 -561h-72zM776 627q107 0 202 68.5t148.5 172t53.5 209.5q0 128 -72 220t-184 92 h-496l-162 -762h510z" />
<glyph unicode="&#x159;" horiz-adv-x="665" d="M274 1466l52 29l139 -129l192 129l39 -29l-219 -159h-53zM256 1065h68l-58 -270q80 119 187.5 189t216.5 79q23 3 43 0l-15 -64q-142 -6 -263 -93t-193 -236l-142 -670h-69z" />
<glyph unicode="&#x15a;" horiz-adv-x="1189" d="M856 1731l-43 26l156 162h90zM-6 211l51 53q83 -102 196 -156.5t273 -54.5q218 0 347.5 94.5t129.5 260.5q0 38 -8.5 69.5t-22.5 55.5t-40.5 44.5t-53.5 35.5t-71.5 30t-84.5 26.5t-102 26.5q-66 16 -103 26t-85.5 26.5t-74.5 31t-55.5 37t-43.5 48t-23.5 61t-9.5 78.5 q0 206 157.5 333t407.5 127q265 0 400 -172l-52 -53q-112 160 -352 160q-230 0 -357.5 -108t-127.5 -271q0 -35 8 -63t19.5 -49t37 -39.5t48.5 -31t68 -27t80 -24.5t99 -26q80 -21 129 -35.5t103 -36t84 -44t56.5 -54.5t37 -72.5t10.5 -93.5q0 -143 -76 -242.5t-202 -145.5 t-291 -46q-169 0 -288.5 53t-217.5 168z" />
<glyph unicode="&#x15b;" horiz-adv-x="931" d="M629 1307l-43 26l155 162h90zM-29 147l47 48q127 -154 326 -154q161 0 266 75.5t105 198.5q0 29 -8 52t-27.5 41.5t-40.5 32t-58.5 27.5t-70 24t-86.5 24q-65 17 -100.5 27.5t-76 28.5t-59.5 37.5t-32 49t-13 68.5q0 112 61 194t158 121t216 39t199.5 -41.5t109.5 -109.5 l-51 -35q-29 60 -102.5 92.5t-170.5 32.5q-65 0 -126 -16.5t-112 -48.5t-81.5 -86.5t-30.5 -123.5q0 -30 10.5 -52t26.5 -37.5t49 -30t64.5 -24t87.5 -23.5q72 -19 115.5 -33t90.5 -35t72 -44t41 -57t16 -77q0 -164 -124.5 -258t-325.5 -94q-250 0 -365 167z" />
<glyph unicode="&#x15c;" horiz-adv-x="1189" d="M645 1714l217 158h53l152 -158l-51 -31l-139 129l-193 -129zM-6 211l51 53q83 -102 196 -156.5t273 -54.5q218 0 347.5 94.5t129.5 260.5q0 38 -8.5 69.5t-22.5 55.5t-40.5 44.5t-53.5 35.5t-71.5 30t-84.5 26.5t-102 26.5q-66 16 -103 26t-85.5 26.5t-74.5 31t-55.5 37 t-43.5 48t-23.5 61t-9.5 78.5q0 206 157.5 333t407.5 127q265 0 400 -172l-52 -53q-112 160 -352 160q-230 0 -357.5 -108t-127.5 -271q0 -35 8 -63t19.5 -49t37 -39.5t48.5 -31t68 -27t80 -24.5t99 -26q80 -21 129 -35.5t103 -36t84 -44t56.5 -54.5t37 -72.5t10.5 -93.5 q0 -143 -76 -242.5t-202 -145.5t-291 -46q-169 0 -288.5 53t-217.5 168z" />
<glyph unicode="&#x15d;" horiz-adv-x="931" d="M418 1290l217 158h53l152 -158l-52 -30l-139 129l-192 -129zM-29 147l47 48q127 -154 326 -154q161 0 266 75.5t105 198.5q0 29 -8 52t-27.5 41.5t-40.5 32t-58.5 27.5t-70 24t-86.5 24q-65 17 -100.5 27.5t-76 28.5t-59.5 37.5t-32 49t-13 68.5q0 112 61 194t158 121 t216 39t199.5 -41.5t109.5 -109.5l-51 -35q-29 60 -102.5 92.5t-170.5 32.5q-65 0 -126 -16.5t-112 -48.5t-81.5 -86.5t-30.5 -123.5q0 -30 10.5 -52t26.5 -37.5t49 -30t64.5 -24t87.5 -23.5q72 -19 115.5 -33t90.5 -35t72 -44t41 -57t16 -77q0 -164 -124.5 -258t-325.5 -94 q-250 0 -365 167z" />
<glyph unicode="&#x15e;" horiz-adv-x="1189" d="M778 1464q265 0 400 -172l-52 -53q-112 160 -352 160q-230 0 -357.5 -108t-127.5 -271q0 -35 8 -63t19.5 -49t37 -39.5t48.5 -31t68 -27t80 -24.5t99 -26q80 -21 129 -35.5t103 -36t84 -44t56.5 -54.5t37 -72.5t10.5 -93.5q0 -103 -39 -184t-109.5 -133.5t-164.5 -81 t-207 -33.5q65 -65 65 -144q0 -94 -60.5 -144t-158.5 -50q-105 0 -188 53l33 45q45 -24 77.5 -34.5t79.5 -10.5q74 0 120 39.5t46 99.5q0 75 -88 144q-157 3 -271 56.5t-210 164.5l51 53q83 -102 196 -156.5t273 -54.5q218 0 347.5 94.5t129.5 260.5q0 38 -8.5 69.5 t-22.5 55.5t-40.5 44.5t-53.5 35.5t-71.5 30t-84.5 26.5t-102 26.5q-66 16 -103 26t-85.5 26.5t-74.5 31t-55.5 37t-43.5 48t-23.5 61t-9.5 78.5q0 206 157.5 333t407.5 127z" />
<glyph unicode="&#x15f;" horiz-adv-x="931" d="M578 1081q119 0 199.5 -41.5t109.5 -109.5l-51 -35q-29 60 -102.5 92.5t-170.5 32.5q-65 0 -126 -16.5t-112 -48.5t-81.5 -86.5t-30.5 -123.5q0 -30 10.5 -52t26.5 -37.5t49 -30t64.5 -24t87.5 -23.5q72 -19 115.5 -33t90.5 -35t72 -44t41 -57t16 -77q0 -145 -98.5 -236 t-263.5 -112q59 -62 59 -136q0 -94 -60.5 -144t-158.5 -50q-105 0 -188 53l33 45q45 -24 77.5 -34.5t79.5 -10.5q74 0 120 39.5t46 99.5q0 73 -74 134h-22q-250 0 -365 167l47 48q127 -154 326 -154q161 0 266 75.5t105 198.5q0 29 -8 52t-27.5 41.5t-40.5 32t-58.5 27.5 t-70 24t-86.5 24q-65 17 -100.5 27.5t-76 28.5t-59.5 37.5t-32 49t-13 68.5q0 112 61 194t158 121t216 39z" />
<glyph unicode="&#x160;" horiz-adv-x="1189" d="M664 1890l51 29l139 -129l193 129l38 -29l-219 -159h-53zM-6 211l51 53q83 -102 196 -156.5t273 -54.5q218 0 347.5 94.5t129.5 260.5q0 38 -8.5 69.5t-22.5 55.5t-40.5 44.5t-53.5 35.5t-71.5 30t-84.5 26.5t-102 26.5q-66 16 -103 26t-85.5 26.5t-74.5 31t-55.5 37 t-43.5 48t-23.5 61t-9.5 78.5q0 206 157.5 333t407.5 127q265 0 400 -172l-52 -53q-112 160 -352 160q-230 0 -357.5 -108t-127.5 -271q0 -35 8 -63t19.5 -49t37 -39.5t48.5 -31t68 -27t80 -24.5t99 -26q80 -21 129 -35.5t103 -36t84 -44t56.5 -54.5t37 -72.5t10.5 -93.5 q0 -143 -76 -242.5t-202 -145.5t-291 -46q-169 0 -288.5 53t-217.5 168z" />
<glyph unicode="&#x161;" horiz-adv-x="931" d="M436 1466l51 29l140 -129l192 129l39 -29l-219 -159h-53zM-29 147l47 48q127 -154 326 -154q161 0 266 75.5t105 198.5q0 29 -8 52t-27.5 41.5t-40.5 32t-58.5 27.5t-70 24t-86.5 24q-65 17 -100.5 27.5t-76 28.5t-59.5 37.5t-32 49t-13 68.5q0 112 61 194t158 121 t216 39t199.5 -41.5t109.5 -109.5l-51 -35q-29 60 -102.5 92.5t-170.5 32.5q-65 0 -126 -16.5t-112 -48.5t-81.5 -86.5t-30.5 -123.5q0 -30 10.5 -52t26.5 -37.5t49 -30t64.5 -24t87.5 -23.5q72 -19 115.5 -33t90.5 -35t72 -44t41 -57t16 -77q0 -164 -124.5 -258t-325.5 -94 q-250 0 -365 167z" />
<glyph unicode="&#x162;" horiz-adv-x="1179" d="M209 1454h1106l-15 -65h-518l-293 -1379q44 -39 66.5 -76.5t22.5 -85.5q0 -93 -61 -143.5t-159 -50.5q-105 0 -188 53l33 45q45 -24 77.5 -34.5t79.5 -10.5q74 0 120 39.5t46 99.5q0 79 -100 154h-8l295 1389h-516z" />
<glyph unicode="&#x163;" horiz-adv-x="600" d="M350 1004l-160 -744q-18 -95 -18 -104q0 -48 31 -74.5t78 -26.5q87 0 172 51l12 -57q-7 -5 -27 -15t-60.5 -24t-80.5 -18q68 -68 68 -144q0 -93 -61 -143.5t-159 -50.5q-105 0 -188 53l33 45q45 -24 77.5 -34.5t79.5 -10.5q74 0 120 39.5t46 99.5q0 75 -90 146 q-57 8 -91 43t-34 90q0 13 4 41l179 838h-144l13 61h145l78 367h69l-77 -367h239l-14 -61h-240z" />
<glyph unicode="&#x164;" horiz-adv-x="1179" d="M621 1849l51 29l139 -129l193 129l38 -29l-219 -159h-53zM713 1389h-516l12 65h1106l-15 -65h-518l-295 -1389h-69z" />
<glyph unicode="&#x165;" horiz-adv-x="600" d="M545 1333l155 162h91l-201 -188zM98 125q0 13 4 41l179 838h-144l13 61h145l78 367h69l-77 -367h239l-14 -61h-240l-160 -744q-18 -95 -18 -104q0 -48 31 -74.5t78 -26.5q87 0 172 51l12 -57q-8 -7 -34.5 -19.5t-77.5 -26t-99 -13.5q-69 0 -112.5 36.5t-43.5 98.5z" />
<glyph unicode="&#x166;" horiz-adv-x="1261" d="M1341 1389h-516l-112 -533h456l-10 -51h-459l-170 -805h-69l170 805h-457l10 51h459l113 533h-518l14 65h1106z" />
<glyph unicode="&#x167;" horiz-adv-x="602" d="M590 1004h-240l-65 -306h231l-10 -55h-234l-82 -383q-18 -95 -18 -104q0 -48 31 -74.5t78 -26.5q87 0 172 51l12 -57q-8 -7 -34.5 -19.5t-77.5 -26t-99 -13.5q-69 0 -112.5 36.5t-43.5 98.5q0 13 4 41l103 477h-154l12 55h152l66 306h-144l13 61h145l78 367h69l-77 -367 h239z" />
<glyph unicode="&#x168;" horiz-adv-x="1480" d="M858 1804q-29 0 -53 -13t-38 -32.5t-20.5 -31.5t-9.5 -21h-51q1 10 11.5 32t31 51t58.5 50t85 21q43 0 79.5 -20t72 -40t76.5 -20q29 0 53.5 9.5t38.5 22.5t24.5 28.5t14 24t4.5 13.5h51q-2 -9 -8 -24t-22 -38t-37.5 -42.5t-57 -33.5t-76.5 -14q-39 0 -73 12t-54 27 t-47 27t-53 12zM166 463q0 120 29 262l155 729h70l-154 -729q-30 -140 -30 -250q0 -418 380 -418q114 0 212 39t168 103t125.5 152.5t89 180t55.5 193.5l153 729h70l-154 -729q-26 -122 -66.5 -227.5t-103 -200.5t-141 -162t-184.5 -106t-230 -39q-98 0 -174.5 24.5 t-126.5 67t-82.5 103t-46.5 129t-14 149.5z" />
<glyph unicode="&#x169;" horiz-adv-x="1138" d="M631 1421q-29 0 -53 -13t-38 -32.5t-20.5 -31.5t-9.5 -21h-51q1 10 11.5 32t31 51t58.5 50t85 21q43 0 79 -20t71.5 -40t76.5 -20q29 0 53.5 9.5t38.5 22.5t25 28.5t14.5 24t4.5 13.5h51q-2 -9 -8 -24t-22 -38t-37.5 -42.5t-57 -33.5t-76.5 -14q-39 0 -73 12t-54 27 t-47 27t-53 12zM90 262q0 81 25 197l129 606h69l-127 -598q-24 -108 -24 -188q0 -234 205 -234q137 0 274 96t213 248l143 676h70l-193 -911q-12 -50 -12 -58q0 -30 31 -30l-16 -66q-25 0 -33 2q-49 9 -49 61q0 16 39 199q-94 -130 -227.5 -206t-268.5 -76q-248 0 -248 282z " />
<glyph unicode="&#x16a;" horiz-adv-x="1480" d="M707 1774l12 57h551l-13 -57h-550zM166 463q0 120 29 262l155 729h70l-154 -729q-30 -140 -30 -250q0 -418 380 -418q114 0 212 39t168 103t125.5 152.5t89 180t55.5 193.5l153 729h70l-154 -729q-26 -122 -66.5 -227.5t-103 -200.5t-141 -162t-184.5 -106t-230 -39 q-98 0 -174.5 24.5t-126.5 67t-82.5 103t-46.5 129t-14 149.5z" />
<glyph unicode="&#x16b;" horiz-adv-x="1138" d="M479 1391l13 57h550l-12 -57h-551zM90 262q0 81 25 197l129 606h69l-127 -598q-24 -108 -24 -188q0 -234 205 -234q137 0 274 96t213 248l143 676h70l-193 -911q-12 -50 -12 -58q0 -30 31 -30l-16 -66q-25 0 -33 2q-49 9 -49 61q0 16 39 199q-94 -130 -227.5 -206 t-268.5 -76q-248 0 -248 282z" />
<glyph unicode="&#x16c;" horiz-adv-x="1480" d="M1112 1878h51q-15 -70 -73 -121t-121 -51q-57 0 -93 39t-36 98q0 11 4 35h53q-4 -16 -4 -25q0 -42 24 -72t60 -30q40 0 80 37.5t55 89.5zM166 463q0 120 29 262l155 729h70l-154 -729q-30 -140 -30 -250q0 -418 380 -418q114 0 212 39t168 103t125.5 152.5t89 180 t55.5 193.5l153 729h70l-154 -729q-26 -122 -66.5 -227.5t-103 -200.5t-141 -162t-184.5 -106t-230 -39q-98 0 -174.5 24.5t-126.5 67t-82.5 103t-46.5 129t-14 149.5z" />
<glyph unicode="&#x16d;" horiz-adv-x="1138" d="M885 1495h51q-15 -70 -73.5 -121t-121.5 -51q-57 0 -93 39t-36 98q0 11 4 35h54q-4 -16 -4 -25q0 -42 24 -72t60 -30q40 0 80 37.5t55 89.5zM90 262q0 81 25 197l129 606h69l-127 -598q-24 -108 -24 -188q0 -234 205 -234q137 0 274 96t213 248l143 676h70l-193 -911 q-12 -50 -12 -58q0 -30 31 -30l-16 -66q-25 0 -33 2q-49 9 -49 61q0 16 39 199q-94 -130 -227.5 -206t-268.5 -76q-248 0 -248 282z" />
<glyph unicode="&#x16e;" horiz-adv-x="1480" d="M1004 1878q44 0 70 -27.5t26 -70.5q0 -60 -45 -103t-105 -43q-44 0 -71 28t-27 71q0 61 45.5 103t106.5 42zM897 1741q0 -30 17.5 -49t46.5 -19q34 0 66 30t32 69q0 30 -18.5 48.5t-47.5 18.5q-38 0 -67 -28t-29 -70zM166 463q0 120 29 262l155 729h70l-154 -729 q-30 -140 -30 -250q0 -418 380 -418q114 0 212 39t168 103t125.5 152.5t89 180t55.5 193.5l153 729h70l-154 -729q-26 -122 -66.5 -227.5t-103 -200.5t-141 -162t-184.5 -106t-230 -39q-98 0 -174.5 24.5t-126.5 67t-82.5 103t-46.5 129t-14 149.5z" />
<glyph unicode="&#x16f;" horiz-adv-x="1138" d="M776 1495q44 0 70 -27.5t26 -70.5q0 -60 -44.5 -103t-104.5 -43q-44 0 -71 28t-27 71q0 61 45 103t106 42zM670 1358q0 -30 17 -49t46 -19q34 0 66 30t32 69q0 31 -18 49t-47 18q-38 0 -67 -28t-29 -70zM90 262q0 81 25 197l129 606h69l-127 -598q-24 -108 -24 -188 q0 -234 205 -234q137 0 274 96t213 248l143 676h70l-193 -911q-12 -50 -12 -58q0 -30 31 -30l-16 -66q-25 0 -33 2q-49 9 -49 61q0 16 39 199q-94 -130 -227.5 -206t-268.5 -76q-248 0 -248 282z" />
<glyph unicode="&#x170;" horiz-adv-x="1480" d="M838 1690l-39 26l153 162h86zM1049 1690l-39 26l153 162h86zM166 463q0 120 29 262l155 729h70l-154 -729q-30 -140 -30 -250q0 -418 380 -418q114 0 212 39t168 103t125.5 152.5t89 180t55.5 193.5l153 729h70l-154 -729q-26 -122 -66.5 -227.5t-103 -200.5t-141 -162 t-184.5 -106t-230 -39q-98 0 -174.5 24.5t-126.5 67t-82.5 103t-46.5 129t-14 149.5z" />
<glyph unicode="&#x171;" horiz-adv-x="1138" d="M610 1307l-39 26l154 162h86zM821 1307l-39 26l154 162h86zM90 262q0 81 25 197l129 606h69l-127 -598q-24 -108 -24 -188q0 -234 205 -234q137 0 274 96t213 248l143 676h70l-193 -911q-12 -50 -12 -58q0 -30 31 -30l-16 -66q-25 0 -33 2q-49 9 -49 61q0 16 39 199 q-94 -130 -227.5 -206t-268.5 -76q-248 0 -248 282z" />
<glyph unicode="&#x172;" horiz-adv-x="1480" d="M1419 1454h70l-154 -729q-25 -116 -62.5 -216.5t-94.5 -192t-128 -159t-167 -111.5t-207 -54q-84 -71 -118 -118t-34 -89q0 -31 21 -49.5t69 -30.5l-34 -51q-107 22 -107 110q0 55 33.5 107.5t105.5 118.5h-2q-98 0 -174.5 24.5t-126.5 67t-82.5 103t-46.5 129t-14 149.5 q0 120 29 262l155 729h70l-154 -729q-30 -140 -30 -250q0 -418 380 -418q114 0 212 39t168 103t125.5 152.5t89 180t55.5 193.5z" />
<glyph unicode="&#x173;" horiz-adv-x="1138" d="M862 96q0 -30 31 -30l-16 -66q-89 -76 -124.5 -124t-35.5 -91q0 -31 21 -49.5t69 -30.5l-35 -51q-106 22 -106 110q0 58 38 114t121 130q-30 15 -30 55q0 16 39 199q-94 -130 -227.5 -206t-268.5 -76q-248 0 -248 282q0 81 25 197l129 606h69l-127 -598 q-24 -108 -24 -188q0 -234 205 -234q137 0 274 96t213 248l143 676h70l-193 -911q-12 -50 -12 -58z" />
<glyph unicode="&#x174;" horiz-adv-x="2025" d="M1022 1673l217 158h53l152 -158l-51 -31l-140 130l-192 -130zM203 1454h78l262 -1370l469 756l-119 602h72l100 -537l330 537h71l-372 -602l149 -756l842 1370h78l-906 -1454h-67l-152 774l-481 -774h-68z" />
<glyph unicode="&#x175;" horiz-adv-x="1499" d="M688 1290l217 158h53l152 -158l-51 -30l-139 129l-193 -129zM121 1065h72l178 -987q197 218 356 522l-92 465h74l67 -369q86 176 148 369h67q-71 -234 -194 -469l98 -518q189 213 329.5 475.5t219.5 511.5h67q-186 -598 -600 -1065h-69l-97 506q-150 -275 -360 -506h-70z " />
<glyph unicode="&#x176;" horiz-adv-x="1224" d="M616 1673l218 158h53l151 -158l-51 -31l-139 130l-193 -130zM555 561l-360 893h79l332 -825l684 825h78l-743 -897l-119 -557h-70z" />
<glyph unicode="&#x177;" horiz-adv-x="935" d="M436 1290l217 158h54l151 -158l-51 -30l-139 129l-193 -129zM-76 -401q63 12 106.5 29.5t83 53.5t70 76t80.5 117l78 121l-236 1069h74l213 -991l109 174q187 298 268.5 463.5t134.5 353.5h70q-56 -200 -138 -366.5t-284 -487.5l-168 -264q-146 -231 -233.5 -310 t-219.5 -96z" />
<glyph unicode="&#x178;" horiz-adv-x="1224" d="M676 1708l35 168h63l-35 -168h-63zM922 1708l34 168h64l-35 -168h-63zM555 561l-360 893h79l332 -825l684 825h78l-743 -897l-119 -557h-70z" />
<glyph unicode="&#x179;" horiz-adv-x="1208" d="M854 1696l-43 26l156 162h90zM-66 61l1297 1328h-1004l15 65h1089l-14 -61l-1294 -1327h1007l-14 -66h-1096z" />
<glyph unicode="&#x17a;" horiz-adv-x="942" d="M637 1307l-43 26l156 162h90zM-61 57l942 949h-729l12 59h811l-12 -57l-938 -949h733l-15 -59h-817z" />
<glyph unicode="&#x17b;" horiz-adv-x="1208" d="M825 1714l35 170h66l-35 -170h-66zM-66 61l1297 1328h-1004l15 65h1089l-14 -61l-1294 -1327h1007l-14 -66h-1096z" />
<glyph unicode="&#x17c;" horiz-adv-x="942" d="M608 1325l35 170h66l-35 -170h-66zM-61 57l942 949h-729l12 59h811l-12 -57l-938 -949h733l-15 -59h-817z" />
<glyph unicode="&#x17d;" horiz-adv-x="1208" d="M662 1855l51 29l139 -129l192 129l39 -29l-219 -159h-53zM-66 61l1297 1328h-1004l15 65h1089l-14 -61l-1294 -1327h1007l-14 -66h-1096z" />
<glyph unicode="&#x17e;" horiz-adv-x="942" d="M444 1466l52 29l139 -129l192 129l39 -29l-219 -159h-53zM-61 57l942 949h-729l12 59h811l-12 -57l-938 -949h733l-15 -59h-817z" />
<glyph unicode="&#x18f;" horiz-adv-x="1447" d="M63 545q0 104 31 209h1206q9 92 9 120q0 229 -123.5 375t-321.5 146q-152 0 -301.5 -85.5t-230.5 -222.5l-62 31q89 149 264 247.5t347 98.5q150 0 267 -81t179 -218t62 -305q0 -173 -70 -336.5t-183 -281.5t-261.5 -189t-299.5 -71q-228 0 -370 158t-142 405zM1286 686 h-1132q-17 -80 -17 -143q0 -96 27.5 -182.5t81 -156.5t141 -111.5t197.5 -41.5q159 0 306.5 83.5t253 229t142.5 322.5z" />
<glyph unicode="&#x192;" horiz-adv-x="1007" d="M-127 -283l51 45q44 -51 144 -51q79 0 157.5 65t98.5 156l200 947h-143l12 61h146l34 164q40 193 137 302.5t228 109.5q55 0 104 -19.5t74 -50.5l-45 -47q-19 24 -56.5 38.5t-80.5 14.5q-106 0 -181 -89.5t-110 -258.5l-35 -164h293l-12 -61h-295l-201 -947 q-27 -121 -129 -203.5t-205 -82.5q-131 0 -186 71z" />
<glyph unicode="&#x1a0;" horiz-adv-x="1484" d="M1145 1411q140 -69 211 -216.5t71 -328.5q0 -114 -30 -226t-83 -208t-128.5 -178t-163.5 -140t-191.5 -91t-209.5 -33q-104 0 -191 32.5t-147 88t-101.5 131.5t-60.5 162t-19 180q0 172 66 334t175.5 281.5t258.5 192t307 72.5q65 0 121 -12q118 0 168 47q35 33 57 125 h66q-17 -64 -32 -97.5t-48 -66.5q-35 -30 -96 -49zM633 57q120 0 232.5 45t200.5 123.5t154.5 180t102 220t35.5 238.5q0 108 -28 202.5t-82 169t-144 118t-205 43.5q-148 0 -284 -69.5t-231.5 -182t-152.5 -259.5t-57 -298q0 -108 28 -202t82 -168.5t144 -117.5t205 -43z " />
<glyph unicode="&#x1a1;" horiz-adv-x="1157" d="M889 1018q84 -57 128 -157.5t44 -225.5q0 -177 -84.5 -328.5t-224.5 -239t-299 -87.5q-191 0 -293.5 124.5t-102.5 317.5q0 135 51.5 258t135.5 210.5t195.5 139t228.5 51.5q72 0 127 -18q116 3 163 47q36 34 58 125h65q-17 -64 -32 -97.5t-48 -66.5q-41 -35 -112 -53z M465 45q99 0 195 45t169 121t117.5 184.5t44.5 227.5q0 110 -36.5 197.5t-114 141.5t-185.5 54q-99 0 -195 -45.5t-169 -123t-117.5 -186.5t-44.5 -229q0 -170 87.5 -278.5t248.5 -108.5z" />
<glyph unicode="&#x1af;" horiz-adv-x="1480" d="M1737 1624q-17 -64 -32 -97.5t-48 -66.5q-62 -52 -180 -65l-142 -670q-26 -122 -66.5 -227.5t-103 -200.5t-141 -162t-184.5 -106t-230 -39q-98 0 -174.5 24.5t-126.5 67t-82.5 103t-46.5 129t-14 149.5q0 120 29 262l155 729h70l-154 -729q-30 -140 -30 -250 q0 -418 380 -418q114 0 212 39t168 103t125.5 152.5t89 180t55.5 193.5l153 729h66q91 10 129 45q35 33 57 125h66z" />
<glyph unicode="&#x1b0;" horiz-adv-x="1138" d="M1055 1004l-181 -850q-12 -50 -12 -58q0 -30 31 -30l-16 -66q-25 0 -33 2q-49 9 -49 61q0 16 39 199q-94 -130 -227.5 -206t-268.5 -76q-248 0 -248 282q0 81 25 197l129 606h69l-127 -598q-24 -108 -24 -188q0 -234 205 -234q137 0 274 96t213 248l143 676h70v-2 q91 6 133 45q35 33 57 125h66q-17 -64 -32 -97.5t-48 -66.5q-65 -55 -188 -65z" />
<glyph unicode="&#x1e6;" horiz-adv-x="1409" d="M969 1690h-54l-149 159l51 29l139 -129l193 129l39 -29zM913 637l13 61h383l-150 -698h-63l51 238q-260 -248 -535 -248q-120 0 -218.5 51.5t-160.5 138t-95.5 194.5t-33.5 226q0 130 41 258.5t116.5 236.5t175.5 191.5t226 130.5t259 47q187 0 299 -85.5t149 -231.5 l-67 -31q-78 281 -390 281q-154 0 -293.5 -70t-236 -182.5t-153 -255.5t-56.5 -287q0 -148 55.5 -271.5t162.5 -198.5t245 -75q253 0 528 269l66 311h-318z" />
<glyph unicode="&#x1e7;" horiz-adv-x="1189" d="M545 1466l51 29l139 -129l193 129l39 -29l-219 -159h-54zM-51 -207l57 29q35 -109 127.5 -163t218.5 -54q168 0 299 94.5t168 267.5l55 250q-86 -105 -205.5 -170t-232.5 -65q-115 0 -203 64t-132 165t-44 219q0 119 49.5 237.5t130.5 209t192.5 147.5t227.5 57 q232 0 351 -258l51 242h63l-233 -1098q-21 -103 -76 -185.5t-130 -134t-163 -78t-180 -26.5q-170 0 -261.5 64.5t-129.5 185.5zM903 352l78 367q-19 129 -113 213t-217 84q-106 0 -205 -54t-167 -137.5t-109 -185.5t-41 -199q0 -165 93 -280t241 -115q87 0 182 46.5 t165 117.5t93 143z" />
<glyph unicode="&#x1ea;" horiz-adv-x="1484" d="M666 -8q-83 -73 -116.5 -119.5t-33.5 -87.5q0 -31 21 -49.5t69 -30.5l-35 -51q-106 22 -106 110q0 55 33.5 107.5t105.5 118.5q-101 2 -185 35.5t-142 89.5t-98 131.5t-58.5 160t-18.5 177.5q0 172 66 334t175.5 281.5t258.5 192t307 72.5q105 0 192 -33t146.5 -89.5 t100.5 -133.5t60 -163t19 -179q0 -165 -61 -321.5t-163.5 -274t-243.5 -193t-293 -85.5zM174 588q0 -108 28 -202t82 -168.5t144 -117.5t205 -43q120 0 232.5 45t200.5 123.5t154.5 180t102 220t35.5 238.5q0 108 -28 202.5t-82 169t-144 118t-205 43.5q-148 0 -284 -69.5 t-231.5 -182t-152.5 -259.5t-57 -298z" />
<glyph unicode="&#x1eb;" horiz-adv-x="1157" d="M506 -18q-76 -67 -107.5 -112t-31.5 -85q0 -31 21 -49.5t69 -30.5l-35 -51q-107 22 -107 110q0 52 31 103t98 113q-187 3 -287 127t-100 315q0 135 51.5 258t135.5 210.5t195.5 139t228.5 51.5q127 0 217.5 -61t133 -160t42.5 -225q0 -125 -45 -241.5t-120.5 -202.5 t-177 -142t-212.5 -67zM129 432q0 -170 87.5 -278.5t248.5 -108.5q99 0 195 45t169 121t117.5 184.5t44.5 227.5q0 110 -36.5 197.5t-114 141.5t-185.5 54q-99 0 -195 -45.5t-169 -123t-117.5 -186.5t-44.5 -229z" />
<glyph unicode="&#x1fa;" horiz-adv-x="1327" d="M881 1452l282 -1452h-76l-96 502h-688l-309 -502h-78l901 1452q-31 9 -48 34t-17 60q0 54 36.5 94.5t90.5 49.5l153 157h90l-178 -164q55 -22 55 -90q0 -52 -34 -91t-84 -50zM797 1554q0 -30 17 -48.5t46 -18.5q34 0 66 29.5t32 68.5q0 31 -18 49.5t-47 18.5 q-38 0 -67 -28.5t-29 -70.5zM336 563h647l-152 801z" />
<glyph unicode="&#x1fb;" horiz-adv-x="1198" d="M858 1737l-43 26l156 162h90zM805 1495q44 0 70 -27.5t26 -70.5q0 -60 -44.5 -103t-104.5 -43q-44 0 -71.5 28t-27.5 71q0 61 45.5 103t106.5 42zM698 1358q0 -30 17.5 -49t46.5 -19q34 0 66 30t32 69q0 31 -18 49t-47 18q-38 0 -67.5 -28.5t-29.5 -69.5zM59 428 q0 122 50 241.5t131.5 209.5t191 146t221.5 56q130 0 221 -72.5t132 -185.5l51 242h71l-202 -948q-4 -12 -4 -25q0 -26 28 -26l-14 -66h-29q-55 9 -55 63q0 9 29 154q-86 -107 -206 -172t-237 -65q-114 0 -202 64t-132.5 165t-44.5 219zM905 352l78 367q-18 123 -109.5 210 t-220.5 87q-132 0 -254.5 -87.5t-195 -222.5t-72.5 -272q0 -160 94 -274.5t234 -114.5q126 0 268 94t178 213z" />
<glyph unicode="&#x1fc;" horiz-adv-x="1888" d="M1333 1690l-43 26l156 162h90zM1042 1454h912l-15 -65h-823l-129 -613h717l-14 -65h-717l-137 -645h839l-14 -66h-909l106 502h-532l-414 -502h-82zM870 567l166 791l-659 -791h493z" />
<glyph unicode="&#x1fd;" horiz-adv-x="1810" d="M981 1307l-43 26l156 162h90zM0 248q0 162 142 265t352 103q136 0 264 -41q16 64 82 197q0 114 -66 182t-182 68q-155 0 -359 -131l-20 51q225 139 395 139q120 0 198 -63t93 -178q89 110 208 175.5t243 65.5q172 0 283.5 -118.5t111.5 -298.5q0 -98 -27 -164h-909 q-4 -54 -4 -80q0 -166 92.5 -273.5t243.5 -107.5q112 0 220.5 60t168.5 155l59 -16q-66 -112 -197 -185t-268 -73q-125 0 -218.5 65.5t-137.5 177.5q-83 -120 -225 -181.5t-264 -61.5q-132 0 -205.5 76.5t-73.5 191.5zM1663 557q10 44 10 107q0 151 -88 253.5t-246 102.5 q-172 0 -318.5 -131.5t-199.5 -331.5h842zM748 289q-15 53 -15 114q0 57 12 115q-116 43 -253 43q-186 0 -305 -82.5t-119 -216.5q0 -94 59.5 -158.5t175.5 -64.5q83 0 176 32t169.5 91t99.5 127z" />
<glyph unicode="&#x1fe;" horiz-adv-x="1484" d="M1194 1878l-203 -188l-43 26l156 162h90zM1292 1294q135 -166 135 -428q0 -114 -30 -226t-83 -208t-128.5 -178t-163.5 -140t-191.5 -91t-209.5 -33q-195 0 -322 108l-82 -98h-82l117 141q-75 83 -112.5 198t-37.5 245q0 172 66 334t175.5 281.5t258.5 192t307 72.5 q205 0 338 -123l94 113h82zM174 588q0 -243 125 -389l903 1087q-117 111 -303 111q-148 0 -284 -69.5t-231.5 -182t-152.5 -259.5t-57 -298zM633 57q120 0 232.5 45t200.5 123.5t154.5 180t102 220t35.5 238.5q0 229 -113 375l-901 -1085q118 -97 289 -97z" />
<glyph unicode="&#x1ff;" horiz-adv-x="1157" d="M1108 1495l-203 -188l-43 26l156 162h90zM1030 1065l-86 -100q117 -130 117 -332q0 -166 -88.5 -318t-231.5 -243.5t-297 -91.5q-136 0 -233 81l-53 -61h-64l82 94q-119 128 -119 330q0 126 54 248t140.5 211t199.5 143.5t227 54.5q134 0 231 -84l58 68h63zM664 1016 q-96 0 -193 -48.5t-172 -127.5t-122.5 -187.5t-47.5 -220.5q0 -169 96 -282l637 790q-86 76 -198 76zM455 45q129 0 253.5 80t203.5 215t79 283q0 171 -96 284l-639 -788q83 -74 199 -74z" />
<glyph unicode="&#x200;" horiz-adv-x="1327" d="M631 1886h86l84 -162l-49 -26zM842 1886h84l88 -162l-53 -26zM819 1454h62l282 -1454h-76l-96 502h-688l-309 -502h-78zM983 563l-152 801l-495 -801h647z" />
<glyph unicode="&#x201;" horiz-adv-x="1198" d="M492 1497h86l84 -162l-50 -26zM702 1497h84l88 -162l-53 -26zM59 428q0 122 50 241.5t131.5 209.5t191 146t221.5 56q130 0 221 -72.5t132 -185.5l51 242h71l-202 -948q-4 -12 -4 -25q0 -26 28 -26l-14 -66h-29q-55 9 -55 63q0 9 29 154q-86 -107 -206 -172t-237 -65 q-114 0 -202 64t-132.5 165t-44.5 219zM905 352l78 367q-18 123 -109.5 210t-220.5 87q-132 0 -254.5 -87.5t-195 -222.5t-72.5 -272q0 -160 94 -274.5t234 -114.5q126 0 268 94t178 213z" />
<glyph unicode="&#x202;" horiz-adv-x="1327" d="M948 1884q60 0 94.5 -40t34.5 -97q0 -11 -4 -35h-49q0 5 1 15.5t1 15.5q0 46 -21 71t-61 25q-53 0 -90 -37t-47 -90h-53q14 70 69.5 121t124.5 51zM819 1454h62l282 -1454h-76l-96 502h-688l-309 -502h-78zM983 563l-152 801l-495 -801h647z" />
<glyph unicode="&#x203;" horiz-adv-x="1198" d="M809 1495q60 0 94.5 -40t34.5 -97q0 -11 -4 -35h-49q0 5 1 15.5t1 15.5q0 46 -21 71t-61 25q-53 0 -90 -37t-47 -90h-54q14 69 70 120.5t125 51.5zM59 428q0 122 50 241.5t131.5 209.5t191 146t221.5 56q130 0 221 -72.5t132 -185.5l51 242h71l-202 -948q-4 -12 -4 -25 q0 -26 28 -26l-14 -66h-29q-55 9 -55 63q0 9 29 154q-86 -107 -206 -172t-237 -65q-114 0 -202 64t-132.5 165t-44.5 219zM905 352l78 367q-18 123 -109.5 210t-220.5 87q-132 0 -254.5 -87.5t-195 -222.5t-72.5 -272q0 -160 94 -274.5t234 -114.5q126 0 268 94t178 213z " />
<glyph unicode="&#x204;" horiz-adv-x="1200" d="M575 1886h87l83 -162l-49 -26zM786 1886h84l88 -162l-53 -26zM371 1454h897l-15 -65h-825l-131 -613h723l-14 -65h-721l-140 -645h844l-12 -66h-916z" />
<glyph unicode="&#x205;" horiz-adv-x="1075" d="M627 1335l-49 -26l-121 188h86zM840 1335l-54 -26l-118 188h84zM461 500q-133 0 -324 12q-6 -40 -6 -80q0 -109 37 -196.5t115.5 -142t187.5 -54.5q111 0 222.5 63.5t168.5 165.5l62 -18q-70 -121 -199.5 -195.5t-269.5 -74.5q-121 0 -212.5 61t-137.5 162.5t-46 226.5 q0 122 48 240t130 208.5t199.5 146.5t247.5 56q59 0 116 -18.5t103.5 -52.5t75.5 -89t29 -122q0 -299 -547 -299zM674 1020q-189 0 -335 -131t-192 -318q191 -12 320 -12q473 0 473 242q0 73 -42.5 124.5t-100.5 73t-123 21.5z" />
<glyph unicode="&#x206;" horiz-adv-x="1200" d="M893 1884q60 0 94.5 -40t34.5 -97q0 -11 -4 -35h-49q0 5 1 15.5t1 15.5q0 46 -21 71t-61 25q-53 0 -90 -37t-47 -90h-54q14 69 70 120.5t125 51.5zM371 1454h897l-15 -65h-825l-131 -613h723l-14 -65h-721l-140 -645h844l-12 -66h-916z" />
<glyph unicode="&#x207;" horiz-adv-x="1075" d="M770 1450q-53 0 -90 -37t-47 -90h-53q14 70 69.5 121t124.5 51q60 0 94.5 -40t34.5 -97q0 -11 -4 -35h-49q0 5 1 15.5t1 15.5q0 46 -21 71t-61 25zM461 500q-133 0 -324 12q-6 -40 -6 -80q0 -109 37 -196.5t115.5 -142t187.5 -54.5q111 0 222.5 63.5t168.5 165.5l62 -18 q-70 -121 -199.5 -195.5t-269.5 -74.5q-121 0 -212.5 61t-137.5 162.5t-46 226.5q0 122 48 240t130 208.5t199.5 146.5t247.5 56q59 0 116 -18.5t103.5 -52.5t75.5 -89t29 -122q0 -299 -547 -299zM674 1020q-189 0 -335 -131t-192 -318q191 -12 320 -12q473 0 473 242 q0 73 -42.5 124.5t-100.5 73t-123 21.5z" />
<glyph unicode="&#x208;" horiz-adv-x="456" d="M184 1882h86l84 -162l-49 -26zM395 1882h84l88 -162l-53 -26zM371 1452h71l-309 -1452h-72z" />
<glyph unicode="&#x209;" horiz-adv-x="391" d="M70 1497h86l84 -162l-50 -26zM281 1497h84l88 -162l-54 -26zM256 1065h70l-226 -1065h-69z" />
<glyph unicode="&#x20a;" horiz-adv-x="456" d="M502 1880q60 0 94.5 -40t34.5 -97q0 -11 -4 -35h-49q0 5 1 15.5t1 15.5q0 46 -21 71t-61 25q-53 0 -90.5 -37.5t-47.5 -89.5h-53q14 69 70 120.5t125 51.5zM371 1452h71l-309 -1452h-72z" />
<glyph unicode="&#x20b;" horiz-adv-x="391" d="M387 1495q60 0 94.5 -40t34.5 -97q0 -11 -4 -35h-49q0 5 1 15.5t1 15.5q0 46 -21 71t-61 25q-53 0 -90 -37t-47 -90h-53q14 70 69.5 121t124.5 51zM256 1065h70l-226 -1065h-69z" />
<glyph unicode="&#x20c;" horiz-adv-x="1484" d="M717 1880h86l84 -162l-49 -26zM928 1880h84l88 -162l-53 -26zM102 584q0 172 66 334t175.5 281.5t258.5 192t307 72.5q105 0 192 -33t146.5 -89.5t100.5 -133.5t60 -163t19 -179q0 -114 -30 -226t-83 -208t-128.5 -178t-163.5 -140t-191.5 -91t-209.5 -33 q-104 0 -191 32.5t-147 88t-101.5 131.5t-60.5 162t-19 180zM1358 864q0 108 -28 202.5t-82 169t-144 118t-205 43.5q-148 0 -284 -69.5t-231.5 -182t-152.5 -259.5t-57 -298q0 -108 28 -202t82 -168.5t144 -117.5t205 -43q120 0 232.5 45t200.5 123.5t154.5 180t102 220 t35.5 238.5z" />
<glyph unicode="&#x20d;" horiz-adv-x="1157" d="M451 1497h86l84 -162l-50 -26zM662 1497h83l89 -162l-54 -26zM57 422q0 135 51.5 258t135.5 210.5t195.5 139t228.5 51.5q127 0 217.5 -61t133 -160t42.5 -225q0 -177 -84.5 -328.5t-224.5 -239t-299 -87.5q-191 0 -293.5 124.5t-102.5 317.5zM991 623q0 110 -36.5 197.5 t-114 141.5t-185.5 54q-99 0 -195 -45.5t-169 -123t-117.5 -186.5t-44.5 -229q0 -170 87.5 -278.5t248.5 -108.5q99 0 195 45t169 121t117.5 184.5t44.5 227.5z" />
<glyph unicode="&#x20e;" horiz-adv-x="1484" d="M1034 1878q60 0 94.5 -40t34.5 -97q0 -11 -4 -35h-49q0 5 1 15.5t1 15.5q0 46 -21 71t-61 25q-53 0 -90 -37t-47 -90h-53q14 70 69.5 121t124.5 51zM102 584q0 172 66 334t175.5 281.5t258.5 192t307 72.5q105 0 192 -33t146.5 -89.5t100.5 -133.5t60 -163t19 -179 q0 -114 -30 -226t-83 -208t-128.5 -178t-163.5 -140t-191.5 -91t-209.5 -33q-104 0 -191 32.5t-147 88t-101.5 131.5t-60.5 162t-19 180zM1358 864q0 108 -28 202.5t-82 169t-144 118t-205 43.5q-148 0 -284 -69.5t-231.5 -182t-152.5 -259.5t-57 -298q0 -108 28 -202 t82 -168.5t144 -117.5t205 -43q120 0 232.5 45t200.5 123.5t154.5 180t102 220t35.5 238.5z" />
<glyph unicode="&#x20f;" horiz-adv-x="1157" d="M768 1495q60 0 94.5 -40t34.5 -97q0 -11 -4 -35h-49q0 5 1 15.5t1 15.5q0 46 -21 71t-61 25q-53 0 -90 -37t-47 -90h-54q14 69 70 120.5t125 51.5zM57 422q0 135 51.5 258t135.5 210.5t195.5 139t228.5 51.5q127 0 217.5 -61t133 -160t42.5 -225q0 -177 -84.5 -328.5 t-224.5 -239t-299 -87.5q-191 0 -293.5 124.5t-102.5 317.5zM991 623q0 110 -36.5 197.5t-114 141.5t-185.5 54q-99 0 -195 -45.5t-169 -123t-117.5 -186.5t-44.5 -229q0 -170 87.5 -278.5t248.5 -108.5q99 0 195 45t169 121t117.5 184.5t44.5 227.5z" />
<glyph unicode="&#x210;" horiz-adv-x="1269" d="M592 1886h86l84 -162l-49 -26zM803 1886h84l88 -162l-53 -26zM61 0l310 1454h569q95 0 167.5 -53.5t108 -136t35.5 -177.5q0 -186 -131 -342.5t-309 -175.5l223 -569h-82l-221 561h-479l-119 -561h-72zM776 627q107 0 202 68.5t148.5 172t53.5 209.5q0 128 -72 220 t-184 92h-496l-162 -762h510z" />
<glyph unicode="&#x211;" horiz-adv-x="665" d="M193 1497h86l83 -162l-49 -26zM403 1497h84l88 -162l-53 -26zM256 1065h68l-58 -270q80 119 187.5 189t216.5 79q23 3 43 0l-15 -64q-142 -6 -263 -93t-193 -236l-142 -670h-69z" />
<glyph unicode="&#x212;" horiz-adv-x="1269" d="M909 1884q60 0 94.5 -40t34.5 -97q0 -11 -4 -35h-49q0 5 1 15.5t1 15.5q0 46 -21 71t-61 25q-53 0 -90 -37t-47 -90h-53q14 70 69.5 121t124.5 51zM61 0l310 1454h569q95 0 167.5 -53.5t108 -136t35.5 -177.5q0 -186 -131 -342.5t-309 -175.5l223 -569h-82l-221 561h-479 l-119 -561h-72zM776 627q107 0 202 68.5t148.5 172t53.5 209.5q0 128 -72 220t-184 92h-496l-162 -762h510z" />
<glyph unicode="&#x213;" horiz-adv-x="665" d="M510 1495q60 0 94.5 -40t34.5 -97q0 -11 -4 -35h-49q0 5 1 15.5t1 15.5q0 46 -21 71t-61 25q-53 0 -90 -37t-47 -90h-54q14 69 70 120.5t125 51.5zM256 1065h68l-58 -270q80 119 187.5 189t216.5 79q23 3 43 0l-15 -64q-142 -6 -263 -93t-193 -236l-142 -670h-69z" />
<glyph unicode="&#x214;" horiz-adv-x="1480" d="M690 1880h86l84 -162l-49 -26zM901 1880h84l88 -162l-53 -26zM166 463q0 120 29 262l155 729h70l-154 -729q-30 -140 -30 -250q0 -418 380 -418q114 0 212 39t168 103t125.5 152.5t89 180t55.5 193.5l153 729h70l-154 -729q-26 -122 -66.5 -227.5t-103 -200.5t-141 -162 t-184.5 -106t-230 -39q-98 0 -174.5 24.5t-126.5 67t-82.5 103t-46.5 129t-14 149.5z" />
<glyph unicode="&#x215;" horiz-adv-x="1138" d="M463 1497h86l84 -162l-49 -26zM674 1497h84l88 -162l-53 -26zM90 262q0 81 25 197l129 606h69l-127 -598q-24 -108 -24 -188q0 -234 205 -234q137 0 274 96t213 248l143 676h70l-193 -911q-12 -50 -12 -58q0 -30 31 -30l-16 -66q-25 0 -33 2q-49 9 -49 61q0 16 39 199 q-94 -130 -227.5 -206t-268.5 -76q-248 0 -248 282z" />
<glyph unicode="&#x216;" horiz-adv-x="1480" d="M1008 1878q60 0 94.5 -40t34.5 -97q0 -11 -4 -35h-50q0 5 1 15.5t1 15.5q0 46 -21 71t-60 25q-53 0 -90.5 -37.5t-47.5 -89.5h-53q14 69 70 120.5t125 51.5zM166 463q0 120 29 262l155 729h70l-154 -729q-30 -140 -30 -250q0 -418 380 -418q114 0 212 39t168 103 t125.5 152.5t89 180t55.5 193.5l153 729h70l-154 -729q-26 -122 -66.5 -227.5t-103 -200.5t-141 -162t-184.5 -106t-230 -39q-98 0 -174.5 24.5t-126.5 67t-82.5 103t-46.5 129t-14 149.5z" />
<glyph unicode="&#x217;" horiz-adv-x="1138" d="M780 1495q60 0 94.5 -40t34.5 -97q0 -11 -4 -35h-49q0 5 1 15.5t1 15.5q0 46 -21 71t-61 25q-53 0 -90 -37t-47 -90h-53q14 70 69.5 121t124.5 51zM90 262q0 81 25 197l129 606h69l-127 -598q-24 -108 -24 -188q0 -234 205 -234q137 0 274 96t213 248l143 676h70 l-193 -911q-12 -50 -12 -58q0 -30 31 -30l-16 -66q-25 0 -33 2q-49 9 -49 61q0 16 39 199q-94 -130 -227.5 -206t-268.5 -76q-248 0 -248 282z" />
<glyph unicode="&#x218;" horiz-adv-x="1189" d="M-6 211l51 53q83 -102 196 -156.5t273 -54.5q218 0 347.5 94.5t129.5 260.5q0 38 -8.5 69.5t-22.5 55.5t-40.5 44.5t-53.5 35.5t-71.5 30t-84.5 26.5t-102 26.5q-66 16 -103 26t-85.5 26.5t-74.5 31t-55.5 37t-43.5 48t-23.5 61t-9.5 78.5q0 206 157.5 333t407.5 127 q265 0 400 -172l-52 -53q-112 160 -352 160q-230 0 -357.5 -108t-127.5 -271q0 -35 8 -63t19.5 -49t37 -39.5t48.5 -31t68 -27t80 -24.5t99 -26q80 -21 129 -35.5t103 -36t84 -44t56.5 -54.5t37 -72.5t10.5 -93.5q0 -143 -76 -242.5t-202 -145.5t-291 -46q-169 0 -288.5 53 t-217.5 168zM377 -360l51 127h-25l29 131h74l-29 -131l-59 -127h-41z" />
<glyph unicode="&#x219;" horiz-adv-x="931" d="M-29 147l47 48q127 -154 326 -154q161 0 266 75.5t105 198.5q0 29 -8 52t-27.5 41.5t-40.5 32t-58.5 27.5t-70 24t-86.5 24q-65 17 -100.5 27.5t-76 28.5t-59.5 37.5t-32 49t-13 68.5q0 112 61 194t158 121t216 39t199.5 -41.5t109.5 -109.5l-51 -35q-29 60 -102.5 92.5 t-170.5 32.5q-65 0 -126 -16.5t-112 -48.5t-81.5 -86.5t-30.5 -123.5q0 -30 10.5 -52t26.5 -37.5t49 -30t64.5 -24t87.5 -23.5q72 -19 115.5 -33t90.5 -35t72 -44t41 -57t16 -77q0 -164 -124.5 -258t-325.5 -94q-250 0 -365 167zM246 -360l51 127h-25l29 131h74l-29 -131 l-59 -127h-41z" />
<glyph unicode="&#x21a;" horiz-adv-x="1179" d="M713 1389h-516l12 65h1106l-15 -65h-518l-295 -1389h-69zM340 -360l51 127h-24l28 131h74l-29 -131l-59 -127h-41z" />
<glyph unicode="&#x21b;" horiz-adv-x="600" d="M98 125q0 13 4 41l179 838h-144l13 61h145l78 367h69l-77 -367h239l-14 -61h-240l-160 -744q-18 -95 -18 -104q0 -48 31 -74.5t78 -26.5q87 0 172 51l12 -57q-8 -7 -34.5 -19.5t-77.5 -26t-99 -13.5q-69 0 -112.5 36.5t-43.5 98.5zM127 -360l51 127h-24l28 131h74 l-29 -131l-59 -127h-41z" />
<glyph unicode="&#x22a;" horiz-adv-x="1484" d="M825 2202l13 57h551l-13 -57h-551zM840 1708l34 168h64l-35 -168h-63zM1085 1708l35 168h64l-35 -168h-64zM102 584q0 172 66 334t175.5 281.5t258.5 192t307 72.5q105 0 192 -33t146.5 -89.5t100.5 -133.5t60 -163t19 -179q0 -114 -30 -226t-83 -208t-128.5 -178 t-163.5 -140t-191.5 -91t-209.5 -33q-104 0 -191 32.5t-147 88t-101.5 131.5t-60.5 162t-19 180zM1358 864q0 108 -28 202.5t-82 169t-144 118t-205 43.5q-148 0 -284 -69.5t-231.5 -182t-152.5 -259.5t-57 -298q0 -108 28 -202t82 -168.5t144 -117.5t205 -43 q120 0 232.5 45t200.5 123.5t154.5 180t102 220t35.5 238.5z" />
<glyph unicode="&#x22b;" horiz-adv-x="1157" d="M559 1819l12 57h551l-12 -57h-551zM573 1325l35 168h64l-35 -168h-64zM819 1325l35 168h64l-35 -168h-64zM57 422q0 135 51.5 258t135.5 210.5t195.5 139t228.5 51.5q127 0 217.5 -61t133 -160t42.5 -225q0 -177 -84.5 -328.5t-224.5 -239t-299 -87.5 q-191 0 -293.5 124.5t-102.5 317.5zM991 623q0 110 -36.5 197.5t-114 141.5t-185.5 54q-99 0 -195 -45.5t-169 -123t-117.5 -186.5t-44.5 -229q0 -170 87.5 -278.5t248.5 -108.5q99 0 195 45t169 121t117.5 184.5t44.5 227.5z" />
<glyph unicode="&#x22c;" horiz-adv-x="1484" d="M825 2204l13 57h551l-13 -57h-551zM885 1804q-29 0 -53 -13t-38 -32.5t-20.5 -31.5t-9.5 -21h-51q1 10 11.5 32t31 51t58.5 50t85 21q43 0 79 -20t71.5 -40t76.5 -20q29 0 53.5 9.5t38.5 22.5t25 28.5t14.5 24t4.5 13.5h51q-2 -9 -8 -24t-22 -38t-37.5 -42.5t-57 -33.5 t-76.5 -14q-39 0 -73 12t-54 27t-47 27t-53 12zM102 584q0 172 66 334t175.5 281.5t258.5 192t307 72.5q105 0 192 -33t146.5 -89.5t100.5 -133.5t60 -163t19 -179q0 -114 -30 -226t-83 -208t-128.5 -178t-163.5 -140t-191.5 -91t-209.5 -33q-104 0 -191 32.5t-147 88 t-101.5 131.5t-60.5 162t-19 180zM1358 864q0 108 -28 202.5t-82 169t-144 118t-205 43.5q-148 0 -284 -69.5t-231.5 -182t-152.5 -259.5t-57 -298q0 -108 28 -202t82 -168.5t144 -117.5t205 -43q120 0 232.5 45t200.5 123.5t154.5 180t102 220t35.5 238.5z" />
<glyph unicode="&#x22d;" horiz-adv-x="1157" d="M559 1821l12 57h551l-12 -57h-551zM618 1421q-29 0 -53 -13t-38 -32.5t-20 -31.5t-9 -21h-52q1 7 7 23t21 39t35 43t53 34.5t71 14.5q43 0 79 -20t71.5 -40t76.5 -20q29 0 53.5 9.5t38.5 22.5t24.5 28.5t14 24t4.5 13.5h52q-2 -9 -8 -24t-22 -38t-37.5 -42.5t-57 -33.5 t-76.5 -14q-49 0 -89 19.5t-73.5 39t-65.5 19.5zM57 422q0 135 51.5 258t135.5 210.5t195.5 139t228.5 51.5q127 0 217.5 -61t133 -160t42.5 -225q0 -177 -84.5 -328.5t-224.5 -239t-299 -87.5q-191 0 -293.5 124.5t-102.5 317.5zM991 623q0 110 -36.5 197.5t-114 141.5 t-185.5 54q-99 0 -195 -45.5t-169 -123t-117.5 -186.5t-44.5 -229q0 -170 87.5 -278.5t248.5 -108.5q99 0 195 45t169 121t117.5 184.5t44.5 227.5z" />
<glyph unicode="&#x230;" horiz-adv-x="1484" d="M825 2204l13 57h551l-13 -57h-551zM963 1708l34 170h66l-35 -170h-65zM102 584q0 172 66 334t175.5 281.5t258.5 192t307 72.5q105 0 192 -33t146.5 -89.5t100.5 -133.5t60 -163t19 -179q0 -114 -30 -226t-83 -208t-128.5 -178t-163.5 -140t-191.5 -91t-209.5 -33 q-104 0 -191 32.5t-147 88t-101.5 131.5t-60.5 162t-19 180zM1358 864q0 108 -28 202.5t-82 169t-144 118t-205 43.5q-148 0 -284 -69.5t-231.5 -182t-152.5 -259.5t-57 -298q0 -108 28 -202t82 -168.5t144 -117.5t205 -43q120 0 232.5 45t200.5 123.5t154.5 180t102 220 t35.5 238.5z" />
<glyph unicode="&#x231;" horiz-adv-x="1157" d="M559 1821l12 57h551l-12 -57h-551zM696 1325l35 170h66l-35 -170h-66zM57 422q0 135 51.5 258t135.5 210.5t195.5 139t228.5 51.5q127 0 217.5 -61t133 -160t42.5 -225q0 -177 -84.5 -328.5t-224.5 -239t-299 -87.5q-191 0 -293.5 124.5t-102.5 317.5zM991 623 q0 110 -36.5 197.5t-114 141.5t-185.5 54q-99 0 -195 -45.5t-169 -123t-117.5 -186.5t-44.5 -229q0 -170 87.5 -278.5t248.5 -108.5q99 0 195 45t169 121t117.5 184.5t44.5 227.5z" />
<glyph unicode="&#x232;" horiz-adv-x="1224" d="M569 1774l13 57h551l-13 -57h-551zM555 561l-360 893h79l332 -825l684 825h78l-743 -897l-119 -557h-70z" />
<glyph unicode="&#x233;" horiz-adv-x="935" d="M389 1391l12 57h551l-12 -57h-551zM-76 -401q63 12 106.5 29.5t83 53.5t70 76t80.5 117l78 121l-236 1069h74l213 -991l109 174q187 298 268.5 463.5t134.5 353.5h70q-56 -200 -138 -366.5t-284 -487.5l-168 -264q-146 -231 -233.5 -310t-219.5 -96z" />
<glyph unicode="&#x237;" horiz-adv-x="391" d="M-436 -283l51 45q44 -51 145 -51q78 0 156 65t98 156l242 1133h70l-242 -1131q-25 -121 -127 -204.5t-205 -83.5q-133 0 -188 71z" />
<glyph unicode="&#x259;" horiz-adv-x="1130" d="M420 -20q-175 0 -282 118t-107 301q0 108 20 160h905q7 51 7 82q0 165 -92.5 272t-239.5 107q-112 0 -221.5 -59.5t-169.5 -153.5l-58 16q65 111 196.5 184.5t268.5 73.5q114 0 203 -60.5t136.5 -163t47.5 -228.5q0 -127 -52 -247t-136.5 -207.5t-197 -141t-228.5 -53.5z M432 39q169 0 315 132.5t197 330.5h-835q-7 -54 -7 -90q0 -167 90 -270t240 -103z" />
<glyph unicode="&#x2b9;" horiz-adv-x="348" d="M276 1137l72 321h49l-90 -321h-31z" />
<glyph unicode="&#x2ba;" horiz-adv-x="778" d="M276 1137l72 321h49l-90 -321h-31zM707 1137l71 321h49l-90 -321h-30z" />
<glyph unicode="&#x2bb;" horiz-adv-x="256" d="M358 1495l-43 -123h17l-29 -127h-49l31 127l47 123h26z" />
<glyph unicode="&#x2bc;" horiz-adv-x="368" d="M305 1307l-35 26l131 162h74z" />
<glyph unicode="&#x2be;" horiz-adv-x="284" d="M233 1229l13 51q33 0 65.5 41t32.5 98q0 35 -14 55.5t-37 20.5l12 51q36 0 58 -32t22 -84q0 -80 -47 -140.5t-105 -60.5z" />
<glyph unicode="&#x2bf;" horiz-adv-x="282" d="M342 1229q-36 0 -58 33.5t-22 85.5q0 80 47 139t105 59l-13 -51q-37 0 -67.5 -39.5t-30.5 -97.5q0 -33 14 -55.5t37 -22.5z" />
<glyph unicode="&#x2c6;" horiz-adv-x="626" d="M264 1290l217 158h54l151 -158l-51 -30l-139 129l-193 -129z" />
<glyph unicode="&#x2c7;" horiz-adv-x="626" d="M301 1466l51 29l140 -129l192 129l39 -29l-219 -159h-53z" />
<glyph unicode="&#x2c8;" horiz-adv-x="313" d="M307 1587v-846h-65v846h65z" />
<glyph unicode="&#x2c9;" horiz-adv-x="737" d="M289 1391l12 57h526l-12 -57h-526z" />
<glyph unicode="&#x2cb;" horiz-adv-x="344" d="M289 1137l55 321h51l-73 -321h-33z" />
<glyph unicode="&#x2cc;" horiz-adv-x="313" d="M92 580v-846h-65v846h65z" />
<glyph unicode="&#x2d8;" horiz-adv-x="524" d="M575 1495h52q-15 -70 -73.5 -121t-121.5 -51q-57 0 -93 39t-36 98q0 11 4 35h53q-4 -16 -4 -25q0 -42 24 -72t60 -30q40 0 80 37.5t55 89.5z" />
<glyph unicode="&#x2d9;" horiz-adv-x="270" d="M272 1325l35 170h66l-35 -170h-66z" />
<glyph unicode="&#x2da;" horiz-adv-x="448" d="M430 1495q44 0 70 -27.5t26 -70.5q0 -60 -44.5 -103t-104.5 -43q-44 0 -71 28t-27 71q0 61 45 103t106 42zM324 1358q0 -30 17 -49t46 -19q34 0 66 30t32 69q0 31 -18 49t-47 18q-38 0 -67 -28t-29 -70z" />
<glyph unicode="&#x2db;" horiz-adv-x="370" d="M-55 -236q0 62 43.5 122.5t138.5 140.5h18l11 -27q-89 -76 -124.5 -124t-35.5 -91q0 -31 21 -49.5t69 -30.5l-35 -51q-106 22 -106 110z" />
<glyph unicode="&#x2dc;" horiz-adv-x="770" d="M444 1421q-29 0 -53 -13t-38 -32.5t-20 -31.5t-9 -21h-52q1 7 7 23t21 39t35 43t53 34.5t71 14.5q43 0 79 -20t71.5 -40t76.5 -20q29 0 53.5 9.5t38.5 22.5t24.5 28.5t14 24t4.5 13.5h51q-2 -9 -8 -24t-22 -38t-37 -42.5t-56.5 -33.5t-76.5 -14q-49 0 -89 19.5t-73.5 39 t-65.5 19.5z" />
<glyph unicode="&#x2dd;" horiz-adv-x="620" d="M311 1307l-39 26l154 162h86zM522 1307l-39 26l154 162h86z" />
<glyph unicode="&#x300;" d="M-111 1495h88l91 -162l-56 -26z" />
<glyph unicode="&#x301;" d="M-109 1307l-43 26l156 162h90z" />
<glyph unicode="&#x302;" d="M-362 1290l217 158h53l151 -158l-51 -30l-139 129l-193 -129z" />
<glyph unicode="&#x303;" d="M-326 1421q-29 0 -53 -13t-38 -32.5t-20 -31.5t-9 -21h-52q1 7 7 23t21 39t35 43t53 34.5t71 14.5q43 0 79 -20t71.5 -40t76.5 -20q29 0 53.5 9.5t38.5 22.5t24.5 28.5t14 24t4.5 13.5h51q-2 -9 -8 -24t-22 -38t-37 -42.5t-56.5 -33.5t-76.5 -14q-49 0 -89 19.5t-73.5 39 t-65.5 19.5z" />
<glyph unicode="&#x304;" d="M-471 1391l12 57h551l-12 -57h-551z" />
<glyph unicode="&#x306;" d="M51 1495h51q-15 -70 -73 -121t-121 -51q-57 0 -93 39t-36 98q0 11 4 35h53q-4 -16 -4 -25q0 -42 24 -72t60 -30q40 0 80 37.5t55 89.5z" />
<glyph unicode="&#x307;" d="M2 1325l35 170h65l-34 -170h-66z" />
<glyph unicode="&#x308;" d="M-244 1325l35 168h64l-35 -168h-64zM2 1325l35 168h63l-34 -168h-64z" />
<glyph unicode="&#x309;" d="M-143 1403l-21 35q94 63 164 63q54 0 75 -33t1 -88q-14 -36 -45.5 -65.5t-100.5 -79.5l-18 31q51 38 76.5 63.5t34.5 48.5q14 31 1.5 52.5t-51.5 21.5q-25 0 -48.5 -10.5t-67.5 -38.5z" />
<glyph unicode="&#x30a;" d="M-18 1495q44 0 70 -27.5t26 -70.5q0 -60 -45 -103t-105 -43q-44 0 -71 28t-27 71q0 61 45.5 103t106.5 42zM-125 1358q0 -30 17.5 -49t46.5 -19q34 0 66 30t32 69q0 31 -18.5 49t-47.5 18q-38 0 -67 -28t-29 -70z" />
<glyph unicode="&#x30b;" d="M-309 1307l-39 26l153 162h86zM-98 1307l-39 26l153 162h86z" />
<glyph unicode="&#x30c;" d="M-326 1466l52 29l139 -129l192 129l39 -29l-219 -159h-53z" />
<glyph unicode="&#x30f;" d="M-315 1495h86l84 -162l-50 -26zM-104 1495h84l88 -162l-54 -26z" />
<glyph unicode="&#x311;" d="M-59 1495q60 0 94.5 -40t34.5 -97q0 -11 -4 -35h-50q0 5 1 15.5t1 15.5q0 46 -21 71t-60 25q-53 0 -90.5 -37.5t-47.5 -89.5h-53q14 69 70 120.5t125 51.5z" />
<glyph unicode="&#x312;" d="M102 1495l-43 -123h17l-29 -127h-49l31 127l47 123h26z" />
<glyph unicode="&#x31b;" d="M-246 1081l13 60q124 0 174 47q35 33 57 125h65q-17 -66 -32 -99t-47 -65q-35 -31 -98.5 -49.5t-131.5 -18.5z" />
<glyph unicode="&#x323;" d="M-340 -283l35 170h65l-34 -170h-66z" />
<glyph unicode="&#x324;" d="M-553 -285l37 168h57l-39 -168h-55zM-342 -285l39 168h55l-37 -168h-57z" />
<glyph unicode="&#x326;" d="M-367 -360l52 127h-25l29 131h73l-28 -131l-60 -127h-41z" />
<glyph unicode="&#x327;" d="M-471 -346q-105 0 -188 53l32 45q45 -24 78 -34.5t80 -10.5q74 0 120 39.5t46 99.5q0 79 -100 154l47 25q51 -42 77.5 -83.5t26.5 -93.5q0 -94 -60.5 -144t-158.5 -50z" />
<glyph unicode="&#x328;" d="M-426 -236q0 62 43.5 122.5t138.5 140.5h19l10 -27q-89 -76 -124.5 -124t-35.5 -91q0 -31 21 -49.5t69 -30.5l-34 -51q-107 22 -107 110z" />
<glyph unicode="&#x32e;" d="M-410 -264q-56 0 -86.5 51.5t-15.5 120.5h47q-11 -48 9.5 -86.5t58.5 -38.5q34 0 70 36.5t53 88.5h43q-15 -69 -68.5 -120.5t-110.5 -51.5z" />
<glyph unicode="&#x331;" d="M-786 -215l12 57h526l-12 -57h-526z" />
<glyph unicode="&#x335;" d="M-485 600l12 57h395l-12 -57h-395z" />
<glyph unicode="&#x3c0;" horiz-adv-x="1302" d="M821 168v829h-477v-997h-68v997h-163v68h1001v-68h-225v-815q0 -60 35.5 -94.5t97.5 -34.5q50 0 111 21l18 -58q-76 -26 -158 -26q-77 0 -124.5 48.5t-47.5 129.5z" />
<glyph unicode="&#x400;" horiz-adv-x="1200" d="M657 1884h88l91 -162l-56 -26zM371 1454h897l-15 -65h-825l-131 -613h723l-14 -65h-721l-140 -645h844l-12 -66h-916z" />
<glyph unicode="&#x401;" horiz-adv-x="1200" d="M698 1714l35 168h64l-35 -168h-64zM944 1714l35 168h63l-34 -168h-64zM371 1454h897l-15 -65h-825l-131 -613h723l-14 -65h-721l-140 -645h844l-12 -66h-916z" />
<glyph unicode="&#x402;" horiz-adv-x="1486" d="M946 891q201 0 307.5 -123.5t67.5 -341.5q-37 -220 -166.5 -329t-327.5 -109q-76 0 -145 14l14 61q82 -14 135 -14q171 0 279.5 95t140.5 282q33 191 -58.5 295t-262.5 104q-196 0 -416 -123l-147 -702h-70l293 1389h-393l14 65h1018l-15 -65h-555l-131 -617 q223 119 418 119z" />
<glyph unicode="&#x403;" horiz-adv-x="1013" d="M840 1696l-43 26l155 162h90zM61 0l308 1454h790l-12 -65h-721l-293 -1389h-72z" />
<glyph unicode="&#x404;" horiz-adv-x="1474" d="M895 1395q-135 0 -257 -53t-210 -141t-148 -197.5t-83 -227.5h737l-12 -65h-736q-14 -129 18.5 -249t101.5 -209.5t175 -143.5t230 -54q151 0 303 75t248 220l59 -24q-95 -159 -272 -248.5t-355 -89.5q-116 0 -217.5 42t-172.5 115.5t-119 168t-64.5 204t-1.5 219.5 q15 105 59 209t116 197t163.5 164t210 113t245.5 42q188 0 314.5 -86.5t175.5 -230.5l-64 -29q-38 99 -111 163.5t-155 90t-178 25.5z" />
<glyph unicode="&#x405;" horiz-adv-x="1189" d="M-6 211l51 53q83 -102 196 -156.5t273 -54.5q218 0 347.5 94.5t129.5 260.5q0 38 -8.5 69.5t-22.5 55.5t-40.5 44.5t-53.5 35.5t-71.5 30t-84.5 26.5t-102 26.5q-66 16 -103 26t-85.5 26.5t-74.5 31t-55.5 37t-43.5 48t-23.5 61t-9.5 78.5q0 206 157.5 333t407.5 127 q265 0 400 -172l-52 -53q-112 160 -352 160q-230 0 -357.5 -108t-127.5 -271q0 -35 8 -63t19.5 -49t37 -39.5t48.5 -31t68 -27t80 -24.5t99 -26q80 -21 129 -35.5t103 -36t84 -44t56.5 -54.5t37 -72.5t10.5 -93.5q0 -143 -76 -242.5t-202 -145.5t-291 -46q-169 0 -288.5 53 t-217.5 168z" />
<glyph unicode="&#x406;" horiz-adv-x="456" d="M371 1452h71l-309 -1452h-72z" />
<glyph unicode="&#x407;" horiz-adv-x="456" d="M307 1710l35 168h64l-35 -168h-64zM553 1710l35 168h63l-35 -168h-63zM371 1452h71l-309 -1452h-72z" />
<glyph unicode="&#x408;" horiz-adv-x="944" d="M-68 68l39 57q98 -84 262 -84q66 0 121 16t97 43.5t77.5 75t61 98t50 126t42.5 145.5t39 170l158 737h69l-157 -737q-20 -95 -36.5 -164t-39 -144.5t-46.5 -127.5t-56 -104.5t-70 -86t-85.5 -60.5t-106.5 -39t-130 -12q-167 0 -289 91z" />
<glyph unicode="&#x409;" horiz-adv-x="2105" d="M-29 0l15 68q68 0 125.5 28t116 96t112 180.5t108 283t109.5 401.5l94 397h781l-125 -588h262q115 0 198 -32t127 -89.5t60.5 -137.5t-2.5 -175q-15 -88 -57 -165t-107 -137t-159 -95t-204 -35h-372l295 1389h-646l-79 -340q-71 -304 -143 -508.5t-153 -323t-165.5 -168 t-190.5 -49.5zM1137 66h297q95 0 175 31t134.5 83.5t89 116.5t47.5 135q9 49 9 93.5t-10 86.5t-34.5 76t-62 59.5t-95 39.5t-131.5 14h-264z" />
<glyph unicode="&#x40a;" horiz-adv-x="2052" d="M63 0l308 1454h71l-137 -649h830l137 649h71l-135 -643h297q226 0 322.5 -108.5t64.5 -288.5q-14 -84 -55 -158t-105.5 -131.5t-158 -91t-203.5 -33.5h-405l157 739h-831l-156 -739h-72zM1049 66h327q99 0 180.5 29t134.5 79t86 111t44 129q10 42 8 83t-11 77.5t-35 67.5 t-63.5 53.5t-96 35t-132.5 12.5h-297z" />
<glyph unicode="&#x40b;" horiz-adv-x="1484" d="M930 879q236 0 329.5 -103.5t49.5 -324.5l-95 -451h-69l94 451q39 189 -37 277.5t-274 88.5q-108 0 -225.5 -26.5t-192.5 -65.5l-154 -725h-69l293 1389h-383l12 65h1016l-13 -65h-561l-125 -592q204 82 404 82z" />
<glyph unicode="&#x40c;" horiz-adv-x="1245" d="M809 1696l-43 26l156 162h90zM63 0l308 1454h71l-143 -678h258l655 678h91l-685 -704l449 -750h-82l-424 711h-276l-150 -711h-72z" />
<glyph unicode="&#x40d;" horiz-adv-x="1476" d="M774 1884h88l90 -162l-55 -26zM63 0l308 1454h71l-286 -1352l1239 1352h67l-309 -1454h-72l285 1333l-1225 -1333h-78z" />
<glyph unicode="&#x40e;" horiz-adv-x="1175" d="M862 1702q-138 0 -203.5 49.5t-52.5 124.5h62q-10 -50 39.5 -86.5t144.5 -36.5q124 0 191.5 32.5t78.5 90.5h58q-11 -75 -94.5 -124.5t-223.5 -49.5zM193 0l12 66h106q95 0 159 53t116 149l28 56l-421 1130h71l391 -1055l574 1055h76l-660 -1206q-68 -124 -147 -186 t-201 -62h-104z" />
<glyph unicode="&#x40f;" horiz-adv-x="1409" d="M483 -279l58 279h-478l308 1454h71l-292 -1388h878l293 1388h70l-308 -1454h-477l-57 -279h-66z" />
<glyph unicode="&#x410;" horiz-adv-x="1327" d="M819 1454h62l282 -1454h-76l-96 502h-688l-309 -502h-78zM983 563l-152 801l-495 -801h647z" />
<glyph unicode="&#x411;" horiz-adv-x="1337" d="M63 0l308 1454h936l-15 -65h-864l-123 -586h522q226 0 322.5 -106.5t64.5 -284.5q-29 -176 -166 -294t-352 -118h-633zM147 66h555q99 0 180 29t133.5 79t84.5 110t43 128q10 43 7.5 83.5t-11.5 77t-35 67t-63 52.5t-95.5 34.5t-132.5 12.5h-522z" />
<glyph unicode="&#x412;" horiz-adv-x="1294" d="M371 1454h628q115 0 180.5 -87.5t65.5 -209.5q0 -131 -78.5 -245t-201.5 -167q89 -30 138.5 -111t49.5 -185q0 -117 -65 -222t-168.5 -166t-212.5 -61h-646zM827 766q87 0 168.5 55t130 142t48.5 178q0 105 -54.5 176.5t-148.5 71.5h-543l-133 -623h532zM719 66 q89 0 173.5 55t136.5 143t52 180q0 107 -58.5 182.5t-154.5 75.5h-585l-138 -636h574z" />
<glyph unicode="&#x413;" horiz-adv-x="1013" d="M61 0l308 1454h790l-12 -65h-721l-293 -1389h-72z" />
<glyph unicode="&#x414;" horiz-adv-x="1556" d="M-63 -279l73 345h53q90 1 168 101t157 333t159 616l71 338h840l-293 -1388h168l-71 -345h-68l57 279h-1190l-57 -279h-67zM209 66h885l280 1323h-700l-76 -363q-94 -441 -190 -664.5t-199 -295.5z" />
<glyph unicode="&#x415;" horiz-adv-x="1200" d="M371 1454h897l-15 -65h-825l-131 -613h723l-14 -65h-721l-140 -645h844l-12 -66h-916z" />
<glyph unicode="&#x416;" horiz-adv-x="1925" d="M-57 0l700 748l-414 706h80l396 -678h243l144 678h69l-143 -678h237l641 678h86l-669 -704l432 -750h-80l-408 711h-251l-152 -711h-70l150 711h-242l-663 -711h-86z" />
<glyph unicode="&#x417;" horiz-adv-x="1071" d="M414 -20q-134 0 -233 60.5t-142 168.5l63 33q36 -95 121 -146t201 -51q171 0 288 92t142 248q24 150 -56 246t-237 96h-115l11 61h116q119 0 215.5 90t116.5 218q22 137 -52 225t-212 88q-102 0 -191 -49t-147 -139l-53 32q72 104 175.5 163t223.5 59q166 0 259 -106.5 t67 -268.5q-19 -114 -91 -205.5t-175 -132.5q123 -35 181 -138.5t36 -242.5q-30 -185 -166 -293t-346 -108z" />
<glyph unicode="&#x418;" horiz-adv-x="1476" d="M63 0l308 1454h71l-286 -1352l1239 1352h67l-309 -1454h-72l285 1333l-1225 -1333h-78z" />
<glyph unicode="&#x419;" horiz-adv-x="1476" d="M952 1702q-138 0 -203.5 49.5t-52.5 124.5h62q-10 -50 39.5 -86.5t144.5 -36.5q124 0 191.5 32.5t78.5 90.5h58q-11 -75 -94.5 -124.5t-223.5 -49.5zM63 0l308 1454h71l-286 -1352l1239 1352h67l-309 -1454h-72l285 1333l-1225 -1333h-78z" />
<glyph unicode="&#x41a;" horiz-adv-x="1245" d="M63 0l308 1454h71l-143 -678h258l655 678h91l-685 -704l449 -750h-82l-424 711h-276l-150 -711h-72z" />
<glyph unicode="&#x41b;" horiz-adv-x="1503" d="M-29 0l15 68q85 0 155 45.5t140.5 156.5t138 305t137.5 482l94 397h836l-307 -1454h-70l293 1389h-701l-79 -340q-58 -244 -117 -423t-118 -299.5t-126.5 -193t-137 -103t-153.5 -30.5z" />
<glyph unicode="&#x41c;" horiz-adv-x="1728" d="M371 1454h67l375 -1081l836 1081h65l-309 -1454h-70l279 1315l-797 -1032h-47l-356 1032l-281 -1315h-72z" />
<glyph unicode="&#x41d;" horiz-adv-x="1439" d="M371 1454h71l-145 -678h913l146 678h69l-309 -1454h-69l149 711h-911l-152 -711h-72z" />
<glyph unicode="&#x41e;" horiz-adv-x="1552" d="M696 -10q-118 1 -219.5 41.5t-173.5 111.5t-120 163.5t-64.5 201t-1.5 219.5q20 143 92.5 278t176.5 236t240.5 162t278.5 61q119 0 220.5 -40t173 -110t118.5 -162.5t63 -201.5t1 -223q-26 -202 -139.5 -371.5t-285 -267.5t-360.5 -98zM707 57q107 0 209 38t184 103 t148 150t107.5 182.5t55.5 196.5q25 183 -32 336.5t-185 243.5t-299 90q-133 0 -258 -58t-216.5 -152.5t-153 -214.5t-79.5 -245q-18 -130 11 -251.5t95.5 -214t174 -148.5t238.5 -56z" />
<glyph unicode="&#x41f;" horiz-adv-x="1441" d="M63 0l308 1454h1054l-307 -1454h-71l294 1389h-913l-293 -1389h-72z" />
<glyph unicode="&#x420;" horiz-adv-x="1220" d="M371 1454h555q99 0 174 -53.5t111 -135t36 -175.5q0 -128 -65.5 -250t-179.5 -200.5t-242 -78.5h-508l-119 -561h-72zM772 627q108 0 203.5 70.5t149 176t53.5 213.5q0 125 -72.5 213.5t-185.5 88.5h-492l-162 -762h506z" />
<glyph unicode="&#x421;" horiz-adv-x="1452" d="M694 -12q-116 0 -217.5 42t-172.5 115.5t-119 168t-64.5 204t-1.5 219.5q15 105 59 209t116 197t163.5 164t210 113t245.5 42q188 0 314.5 -86.5t175.5 -230.5l-64 -29q-38 99 -111 163.5t-155 90t-178 25.5q-141 0 -268 -58t-216 -153t-147.5 -212.5t-75.5 -240.5 q-24 -176 35.5 -331.5t189 -250t298.5 -94.5q151 0 303 75t248 220l59 -24q-95 -159 -272 -248.5t-355 -89.5z" />
<glyph unicode="&#x422;" horiz-adv-x="1179" d="M713 1389h-516l12 65h1106l-15 -65h-518l-295 -1389h-69z" />
<glyph unicode="&#x423;" horiz-adv-x="1175" d="M193 0l12 66h106q95 0 159 53t116 149l28 56l-421 1130h71l391 -1055l574 1055h76l-660 -1206q-68 -124 -147 -186t-201 -62h-104z" />
<glyph unicode="&#x424;" horiz-adv-x="1640" d="M1022 1397q138 -6 251 -51.5t190 -123.5t109 -194t9 -256q-31 -187 -149 -330t-293.5 -217.5t-380.5 -74.5l-31 -150h-70l33 150q-140 6 -254 51.5t-191 123.5t-109.5 193.5t-10.5 253.5q36 192 155.5 334t291.5 215t378 76l27 121h70zM707 213l231 1118 q-291 -5 -494 -154.5t-247 -404.5q-22 -130 9 -236t103.5 -174t174 -106t223.5 -43zM1511 772q21 131 -9.5 236.5t-101.5 173.5t-171.5 106t-222.5 43l-236 -1118q286 3 492.5 155t248.5 404z" />
<glyph unicode="&#x425;" horiz-adv-x="1214" d="M588 717l-393 737h84l362 -684l651 684h84l-706 -737l381 -717h-84l-349 664l-632 -664h-84z" />
<glyph unicode="&#x426;" horiz-adv-x="1486" d="M1126 -276l58 276h-1121l308 1454h71l-295 -1388h879l293 1388h72l-295 -1388h168l-72 -342h-66z" />
<glyph unicode="&#x427;" horiz-adv-x="1337" d="M1249 1454h70l-307 -1454h-70l139 653q-217 -82 -426 -82q-250 0 -349 105.5t-52 327.5l96 450h72l-96 -453q-40 -192 40 -278t293 -86q116 0 239 26t198 66z" />
<glyph unicode="&#x428;" horiz-adv-x="1855" d="M63 0l308 1454h71l-295 -1388h629l293 1388h72l-295 -1388h629l294 1388h70l-307 -1454h-1469z" />
<glyph unicode="&#x429;" horiz-adv-x="1937" d="M1575 -279l57 279h-1569l308 1454h71l-292 -1388h628l291 1388h72l-293 -1388h629l292 1388h70l-295 -1388h170l-74 -345h-65z" />
<glyph unicode="&#x42a;" horiz-adv-x="1456" d="M322 0l294 1389h-419l12 65h491l-125 -588h386q227 0 322 -118t60 -316q-15 -88 -56.5 -165t-106.5 -137t-158 -95t-203 -35h-497zM408 66h417q99 0 180.5 31t135 83.5t86.5 116t45 135.5q8 58 9 111.5t-20 100.5t-57 82t-101.5 55t-154.5 20h-387z" />
<glyph unicode="&#x42b;" horiz-adv-x="1558" d="M63 0l308 1454h71l-125 -588h299q115 0 198 -32t127 -89.5t60.5 -137.5t-2.5 -175q-15 -88 -56.5 -165t-106.5 -137t-158 -95t-203 -35h-412zM1473 1452h71l-309 -1452h-72zM147 66h334q99 0 180 31t134.5 83.5t86.5 116t46 135.5q9 49 9 93.5t-10 86.5t-34.5 76 t-62 59.5t-95 39.5t-131.5 14h-301z" />
<glyph unicode="&#x42c;" horiz-adv-x="1214" d="M63 0l308 1454h71l-125 -588h361q115 0 198 -32t127 -89.5t60.5 -137.5t-2.5 -175q-15 -88 -56.5 -165t-106.5 -137t-158 -95t-203 -35h-474zM147 66h396q99 0 180 31t134 83.5t86 116t46 135.5q9 50 9 93.5t-9.5 86t-34 76.5t-62 59.5t-95 39.5t-131.5 14h-363z" />
<glyph unicode="&#x42d;" horiz-adv-x="1452" d="M854 1462q94 0 174 -22t138 -61t104 -92.5t71.5 -117.5t41.5 -136t14 -147t-13 -151q-23 -141 -89.5 -273.5t-165 -238.5t-234.5 -170.5t-285 -64.5q-184 0 -328 90t-190 248l66 24q52 -146 174.5 -220.5t277.5 -74.5q104 0 202 34.5t178 96t145.5 143.5t110 179.5 t65.5 202.5h-762l12 65h758q29 285 -96 452t-375 167q-152 0 -288.5 -67.5t-235.5 -211.5l-58 29q96 145 246.5 231t341.5 86z" />
<glyph unicode="&#x42e;" horiz-adv-x="2033" d="M1386 1464q119 0 220.5 -40t173 -110t118.5 -162.5t63 -201.5t1 -223q-20 -151 -91.5 -287.5t-176 -235t-239.5 -156.5t-277 -58q-142 1 -260 60.5t-192 157.5t-109 224.5t-23 261.5h-313l-146 -694h-72l308 1454h71l-147 -692h309q26 138 99.5 266.5t176.5 224.5 t236 153.5t270 57.5zM1892 727q25 183 -32 336.5t-185 243.5t-299 90q-133 0 -257.5 -58t-216 -152.5t-153 -214.5t-79.5 -245q-18 -130 10.5 -251.5t95 -214t174 -148.5t238.5 -56q107 0 209 38t184 103t148 150t107.5 182.5t55.5 196.5z" />
<glyph unicode="&#x42f;" horiz-adv-x="1267" d="M41 0l520 639q-158 30 -230 144t-44 272q32 183 177 291t363 108h424l-307 -1454h-70l130 623h-318q-35 0 -51 2l-506 -625h-88zM686 688h334l147 701h-346q-187 0 -311.5 -89.5t-153.5 -250.5q-16 -74 -0.5 -139.5t53.5 -115t109.5 -78t167.5 -28.5z" />
<glyph unicode="&#x430;" horiz-adv-x="1198" d="M59 428q0 122 50 241.5t131.5 209.5t191 146t221.5 56q130 0 221 -72.5t132 -185.5l51 242h71l-202 -948q-4 -12 -4 -25q0 -26 28 -26l-14 -66h-29q-55 9 -55 63q0 9 29 154q-86 -107 -206 -172t-237 -65q-114 0 -202 64t-132.5 165t-44.5 219zM905 352l78 367 q-18 123 -109.5 210t-220.5 87q-132 0 -254.5 -87.5t-195 -222.5t-72.5 -272q0 -160 94 -274.5t234 -114.5q126 0 268 94t178 213z" />
<glyph unicode="&#x431;" horiz-adv-x="1189" d="M524 -20q-224 0 -319 155t-47 420q49 288 128.5 469t194 275.5t283.5 130.5q39 9 98.5 18t98 16t81 19t71 33t44.5 51l51 -21q-10 -33 -34 -57.5t-51.5 -40t-74 -28.5t-82 -20t-97.5 -18.5t-101 -19.5q-210 -45 -325.5 -193.5t-184.5 -447.5q72 132 190 204t261 72 q215 0 309.5 -139t58.5 -369q-37 -237 -182.5 -373t-370.5 -136zM535 43q190 0 314.5 119.5t158.5 324.5q32 202 -50.5 324.5t-269.5 122.5q-171 0 -302 -122.5t-167 -324.5q-12 -71 -9 -136t27.5 -121t63.5 -97.5t99.5 -65.5t134.5 -24z" />
<glyph unicode="&#x432;" horiz-adv-x="1112" d="M741 557q111 -24 165.5 -89t54.5 -159q0 -102 -59 -177.5t-158 -113t-224 -36.5q-238 2 -330 154t-34 448q46 241 190.5 371t364.5 130q141 0 220 -63t79 -176q0 -105 -69.5 -179.5t-199.5 -109.5zM705 1024q-185 0 -308.5 -111.5t-167.5 -318.5q123 -16 252 -16 q219 3 340 72.5t121 189.5q0 88 -61 136t-176 48zM524 41q159 -2 263 69.5t104 198.5q0 100 -68.5 158t-204.5 65q-63 -8 -151 -8q-121 0 -248 17q-44 -252 30.5 -374.5t274.5 -125.5z" />
<glyph unicode="&#x433;" horiz-adv-x="972" d="M444 -20q-176 0 -264.5 74t-73.5 206q12 107 94 173.5t271 127.5q170 59 236 112.5t75 141.5q10 101 -46.5 155t-172.5 54q-100 0 -180 -35t-127 -100l-53 37q58 76 152.5 117.5t213.5 41.5q147 0 221.5 -72t63.5 -200q-13 -115 -97 -181t-265 -128q-170 -54 -237 -106.5 t-77 -141.5q-12 -105 58 -160t217 -55q213 0 344 143l47 -43q-146 -161 -400 -161z" />
<glyph unicode="&#x434;" horiz-adv-x="1196" d="M496 -20q-132 0 -233 73.5t-147 196t-26 264.5q19 135 101.5 250.5t206 183.5t257.5 68q147 0 254.5 -89.5t134.5 -226.5q41 270 4 423.5t-153 226.5q-144 98 -483 82v63q348 19 516 -90q207 -125 207 -449q0 -207 -84 -520q-56 -195 -209 -325.5t-346 -130.5zM504 43 q114 0 222.5 65.5t182 174.5t90.5 231q17 118 -23.5 219.5t-127 161t-197.5 59.5q-175 0 -320 -130t-173 -314q-17 -127 23.5 -234.5t126 -170t196.5 -62.5z" />
<glyph unicode="&#x435;" horiz-adv-x="1110" d="M516 43q117 0 224 65t153 156l63 -20q-56 -107 -180 -185.5t-276 -78.5q-126 0 -221 65t-142.5 171.5t-46.5 236.5q-1 118 44.5 231.5t124 201.5t192 141.5t239.5 53.5q79 0 152 -30.5t125 -97t55 -154.5q5 -148 -129 -224.5t-408 -76.5q-111 0 -323 10q-2 -16 -2 -53 q-1 -115 39 -207.5t122.5 -148.5t194.5 -56zM678 1018q-180 0 -323 -132.5t-183 -316.5q208 -10 317 -10q128 0 219.5 17.5t144 50t75 75t20.5 97.5q-2 72 -45 123.5t-102 73.5t-123 22z" />
<glyph unicode="&#x436;" horiz-adv-x="1540" d="M-31 0q71 103 124 173.5t118.5 146.5t133 131.5t138.5 93.5l-270 520h74l256 -492l174 -2l104 494h70l-105 -494h187q121 68 219.5 179t237.5 315h79q-135 -196 -243.5 -321t-223.5 -199l308 -545h-82l-287 516h-207l-108 -516h-70l109 516h-144q-76 -34 -142.5 -83 t-132 -122.5t-114 -138t-123.5 -172.5h-80z" />
<glyph unicode="&#x437;" horiz-adv-x="944" d="M362 -10q-135 0 -225 54t-121 153l64 26q26 -82 102 -127t191 -45q141 0 238 68t116 182q19 102 -37.5 166t-171.5 65h-145l10 58h156q73 0 137.5 62t79.5 149q17 100 -39.5 157.5t-177.5 57.5q-195 0 -297 -160l-56 29q61 93 154.5 143.5t210.5 50.5q144 0 219 -75 t53 -201q-13 -78 -61 -141.5t-115 -94.5q88 -29 127.5 -101.5t22.5 -170.5q-24 -140 -144 -222.5t-291 -82.5z" />
<glyph unicode="&#x438;" horiz-adv-x="1138" d="M90 262q0 81 25 197l129 606h69l-127 -598q-24 -108 -24 -188q0 -234 205 -234q137 0 274 96t213 248l143 676h70l-193 -911q-12 -50 -12 -58q0 -30 31 -30l-16 -66q-25 0 -33 2q-49 9 -49 61q0 16 39 199q-94 -130 -227.5 -206t-268.5 -76q-248 0 -248 282z" />
<glyph unicode="&#x439;" horiz-adv-x="1138" d="M668 1264q-116 0 -168.5 39.5t-44.5 101.5h47q-5 -42 35 -70t135 -28q93 0 135.5 25t64.5 73h46q-6 -61 -69.5 -101t-180.5 -40zM90 262q0 81 25 197l129 606h69l-127 -598q-24 -108 -24 -188q0 -234 205 -234q137 0 274 96t213 248l143 676h70l-193 -911 q-12 -50 -12 -58q0 -30 31 -30l-16 -66q-25 0 -33 2q-49 9 -49 61q0 16 39 199q-94 -130 -227.5 -206t-268.5 -76q-248 0 -248 282z" />
<glyph unicode="&#x43a;" horiz-adv-x="964" d="M47 0l225 1065h70l-104 -492h186q119 68 224 186.5t233 305.5h80q-135 -197 -243 -321t-224 -199l305 -545h-80l-289 514h-207l-108 -514h-68z" />
<glyph unicode="&#x43b;" horiz-adv-x="1060" d="M-8 0q215 612 665 1065h66l168 -1065h-74l-147 985q-209 -211 -362 -469.5t-247 -515.5h-69z" />
<glyph unicode="&#x43c;" horiz-adv-x="1366" d="M47 0l225 1065h74l283 -791l610 791h80l-225 -1065h-68l201 956l-586 -766h-49l-275 771l-202 -961h-68z" />
<glyph unicode="&#x43d;" horiz-adv-x="1157" d="M47 0l225 1065h70l-104 -490h700l102 490h70l-225 -1065h-70l109 514h-699l-108 -514h-70z" />
<glyph unicode="&#x43e;" horiz-adv-x="1222" d="M526 -20q-141 0 -248.5 75t-156.5 200.5t-29 272.5t106.5 274.5t215.5 203t268 75.5q140 0 247.5 -75.5t158 -202.5t30.5 -275q-15 -110 -68 -210.5t-131 -175t-180.5 -118.5t-212.5 -44zM535 43q118 0 231 68.5t188.5 181t92.5 237.5q18 130 -26 242.5t-136.5 179 t-210.5 66.5q-181 0 -332 -145.5t-180 -346.5q-18 -131 25.5 -242t136 -176t211.5 -65z" />
<glyph unicode="&#x43f;" horiz-adv-x="1124" d="M47 0l225 1065h807l-227 -1065h-70l213 1004h-667l-211 -1004h-70z" />
<glyph unicode="&#x440;" horiz-adv-x="1191" d="M258 1065h64l-48 -221q86 106 206.5 171.5t234.5 65.5q87 0 160 -38t121 -101t74 -144t26 -169q0 -161 -80.5 -310.5t-219.5 -244t-296 -94.5q-125 0 -215 72.5t-133 185.5l-144 -674h-69zM1024 621q0 163 -93 279t-241 116q-74 0 -167 -42t-171.5 -115t-101.5 -150 l-78 -367q27 -129 116.5 -213t213.5 -84q137 0 259.5 87.5t192.5 220t70 268.5z" />
<glyph unicode="&#x441;" horiz-adv-x="1060" d="M59 430q0 171 87 322t231 240t305 89q133 0 222.5 -64t117.5 -177l-74 -25q-26 95 -97 148t-171 53q-103 0 -203 -46.5t-176 -124t-123 -184t-47 -219.5q0 -170 92 -283.5t236 -113.5q113 0 227 63t154 148l65 -20q-60 -110 -189 -183t-263 -73q-175 0 -284.5 129.5 t-109.5 320.5z" />
<glyph unicode="&#x442;" horiz-adv-x="1781" d="M256 1065h66l-56 -266q92 133 210.5 207.5t238.5 74.5q123 0 186 -81.5t53 -227.5q80 147 207 228t260 81q234 0 234 -266q0 -93 -27 -213l-127 -602h-69l124 594q23 106 23 194q0 228 -188 228q-131 0 -254 -97t-197 -255l-139 -664h-70l125 594q25 122 25 199 q0 114 -46.5 168.5t-142.5 54.5q-131 0 -252.5 -96t-197.5 -254l-142 -666h-69z" />
<glyph unicode="&#x443;" horiz-adv-x="935" d="M-76 -401q63 12 106.5 29.5t83 53.5t70 76t80.5 117l78 121l-236 1069h74l213 -991l109 174q187 298 268.5 463.5t134.5 353.5h70q-56 -200 -138 -366.5t-284 -487.5l-168 -264q-146 -231 -233.5 -310t-219.5 -96z" />
<glyph unicode="&#x444;" horiz-adv-x="1368" d="M428 -436l92 436h-41q-146 0 -249.5 72.5t-145 192.5t-16.5 263q19 108 73.5 205.5t133 169.5t182 115t213.5 43h75l93 434h67l-92 -434h39q145 -2 249 -74.5t146.5 -193.5t18.5 -265q-19 -107 -73 -203.5t-132 -168.5t-181.5 -114t-215.5 -42h-76l-92 -436h-68zM496 59 h39l200 942h-76q-191 0 -339 -138.5t-181 -336.5q-22 -128 14 -234t126 -169.5t217 -63.5zM598 59h76q193 0 340 135.5t180 331.5q22 129 -14.5 237.5t-126.5 173t-215 64.5h-39z" />
<glyph unicode="&#x445;" horiz-adv-x="948" d="M414 528l-285 537h82l246 -463l8 -27l18 21l447 469h80l-512 -537l284 -528h-82l-243 459l-11 24l-20 -22l-438 -461h-82z" />
<glyph unicode="&#x446;" horiz-adv-x="1200" d="M872 -242l54 242q-41 0 -66 11t-37.5 29.5t-13 53t5 72t19.5 96.5q-93 -130 -225.5 -206t-266.5 -76q-250 0 -250 284q0 92 23 195l129 606h69l-129 -606q-24 -105 -24 -185q0 -117 51 -173t156 -56q137 0 274 96t215 248l141 676h70l-174 -827q-11 -50 -15.5 -77.5 t-4 -50.5t12 -32.5t29.5 -14t50 -4.5h36l-61 -301h-68z" />
<glyph unicode="&#x447;" horiz-adv-x="1001" d="M657 0l103 477q-144 -65 -314 -65q-183 0 -256 90.5t-34 279.5l65 283h74l-66 -274q-35 -166 23.5 -243t208.5 -77q85 0 172 20t139 50l111 524h71l-225 -1065h-72z" />
<glyph unicode="&#x448;" horiz-adv-x="1781" d="M1526 0h-66l56 266q-92 -133 -210.5 -207.5t-238.5 -74.5q-123 0 -186.5 81.5t-53.5 227.5q-80 -147 -207 -228t-260 -81q-233 0 -233 266q0 93 27 213l127 602h69l-125 -594q-22 -102 -22 -195q0 -115 46.5 -171t141.5 -56q131 0 254 97t197 255l139 664h70l-125 -594 q-25 -122 -25 -199q0 -114 46.5 -168.5t142.5 -54.5q131 0 252.5 96t197.5 254l141 666h70z" />
<glyph unicode="&#x449;" horiz-adv-x="1845" d="M1520 -242l51 242q-95 1 -111.5 56t19.5 210q-98 -145 -206 -213.5t-237 -68.5q-259 0 -248 305q-76 -145 -202 -225t-258 -80q-238 0 -238 270q0 89 27 209l127 602h69l-125 -594q-24 -114 -24 -197q0 -225 190 -225q131 0 254 96.5t197 253.5l139 666h70l-125 -594 q-25 -108 -25 -199q0 -223 187 -223q132 0 254 95t198 253l142 668h69l-174 -825q-10 -51 -14 -78t-3.5 -51t10.5 -33t27 -14t48 -5h41l-62 -301h-67z" />
<glyph unicode="&#x44a;" horiz-adv-x="1132" d="M582 -12q-177 0 -260.5 77.5t-83.5 213.5q0 147 91.5 341.5t239.5 383.5h-444l12 61h549q-146 -176 -248 -373h209q195 0 289 -95.5t70 -260.5q-23 -165 -134 -256.5t-290 -91.5zM592 51q146 0 236.5 76t109.5 213q18 140 -57.5 215.5t-249.5 75.5q-38 0 -112 -1t-111 -1 q-90 -192 -93 -322q-6 -131 61.5 -193.5t215.5 -62.5z" />
<glyph unicode="&#x44b;" horiz-adv-x="1271" d="M451 692q188 0 277 -95.5t67 -260.5t-123.5 -256.5t-265.5 -91.5q-179 0 -260.5 108.5t-39.5 319.5q32 154 144 649h69q-14 -59 -41 -184t-42 -189h215zM1155 1065h70l-226 -1065h-69zM725 340q32 291 -289 291h-213q-38 -173 -47 -217q-36 -185 29 -275t211 -90 q129 0 209.5 76.5t99.5 214.5z" />
<glyph unicode="&#x44c;" horiz-adv-x="980" d="M492 692q198 0 293 -95.5t71 -260.5q-25 -165 -137 -256.5t-293 -91.5q-87 0 -155 26t-113.5 79.5t-59.5 134t8 188.5q32 154 144 649h69q-14 -59 -41 -184t-42 -189h256zM786 340q18 141 -56.5 216t-252.5 75h-254q-38 -173 -47 -217q-18 -95 -7.5 -164t48.5 -113.5 t93 -66t126 -21.5q148 0 239 76.5t111 214.5z" />
<glyph unicode="&#x44d;" horiz-adv-x="1169" d="M641 1081q81 0 150 -22t118 -60.5t86.5 -90.5t55 -112t23.5 -126t-7 -131q-18 -104 -72.5 -203.5t-133.5 -178.5t-185 -127t-217 -48q-137 0 -249.5 67t-146.5 184l64 25q38 -107 131 -161t205 -54q120 0 234 65t193 173t105 233h-563l12 59h560q17 200 -86 322.5 t-283 122.5q-108 0 -210 -48.5t-177 -154.5l-55 27q74 110 189 174.5t259 64.5z" />
<glyph unicode="&#x44e;" horiz-adv-x="1605" d="M1067 1081q140 0 247.5 -75.5t158 -202.5t30.5 -275q-15 -110 -68 -210.5t-131 -175t-180.5 -118.5t-212.5 -44q-141 0 -248.5 75t-156.5 200.5t-29 272.5t106.5 274.5t215.5 203t268 75.5zM1432 530q18 130 -26 242.5t-136.5 179t-210.5 66.5q-181 0 -332 -145.5 t-180 -346.5q-18 -131 25.5 -242t136 -176t211.5 -65q118 0 231 68.5t188.5 181t92.5 237.5zM344 971l27 -29l-125 -358l-6 8zM182 383l29 244l29 -35zM229 537l17 47l69 -90zM385 406l-70 88l113 -56zM162 221l-51 -94l71 256z" />
<glyph unicode="&#x44f;" horiz-adv-x="1073" d="M25 0l421 449q-122 14 -185 93t-42 208q19 144 133 229.5t303 85.5q40 0 79 -4t71 -11t60.5 -15t51 -17t37.5 -15.5t26 -12.5l11 -5l-211 -985h-69l92 436h-279l-411 -436h-88zM524 496h291l96 452q-12 6 -34 16t-91.5 26t-140.5 16q-150 0 -244 -70.5t-112 -185.5 q-20 -110 38.5 -182t196.5 -72z" />
<glyph unicode="&#x450;" horiz-adv-x="1110" d="M715 1333l-56 -26l-122 188h88zM516 43q117 0 224 65t153 156l63 -20q-56 -107 -180 -185.5t-276 -78.5q-126 0 -221 65t-142.5 171.5t-46.5 236.5q-1 118 44.5 231.5t124 201.5t192 141.5t239.5 53.5q79 0 152 -30.5t125 -97t55 -154.5q5 -148 -129 -224.5t-408 -76.5 q-111 0 -323 10q-2 -16 -2 -53q-1 -115 39 -207.5t122.5 -148.5t194.5 -56zM678 1018q-180 0 -323 -132.5t-183 -316.5q208 -10 317 -10q128 0 219.5 17.5t144 50t75 75t20.5 97.5q-2 72 -45 123.5t-102 73.5t-123 22z" />
<glyph unicode="&#x451;" horiz-adv-x="1110" d="M676 1493l-35 -168h-63l34 168h64zM922 1493l-35 -168h-64l35 168h64zM516 43q117 0 224 65t153 156l63 -20q-56 -107 -180 -185.5t-276 -78.5q-126 0 -221 65t-142.5 171.5t-46.5 236.5q-1 118 44.5 231.5t124 201.5t192 141.5t239.5 53.5q79 0 152 -30.5t125 -97 t55 -154.5q5 -148 -129 -224.5t-408 -76.5q-111 0 -323 10q-2 -16 -2 -53q-1 -115 39 -207.5t122.5 -148.5t194.5 -56zM678 1018q-180 0 -323 -132.5t-183 -316.5q208 -10 317 -10q128 0 219.5 17.5t144 50t75 75t20.5 97.5q-2 72 -45 123.5t-102 73.5t-123 22z" />
<glyph unicode="&#x452;" horiz-adv-x="1181" d="M721 940q145 0 221 -69.5t86 -203t-31 -327.5q-63 -285 -205.5 -466t-330.5 -181q-108 0 -230 86l60 39q85 -64 174 -64q104 0 197.5 78.5t159 204.5t102.5 282q68 281 15 417t-241 136q-284 0 -458 -297l-140 -575h-69l282 1167h-166l13 56h168l65 272h70l-66 -272h482 l-13 -56h-483l-113 -462q187 235 451 235z" />
<glyph unicode="&#x453;" horiz-adv-x="972" d="M610 1307l-43 26l156 162h90zM444 -20q-176 0 -264.5 74t-73.5 206q12 107 94 173.5t271 127.5q170 59 236 112.5t75 141.5q10 101 -46.5 155t-172.5 54q-100 0 -180 -35t-127 -100l-53 37q58 76 152.5 117.5t213.5 41.5q147 0 221.5 -72t63.5 -200q-13 -115 -97 -181 t-265 -128q-170 -54 -237 -106.5t-77 -141.5q-12 -105 58 -160t217 -55q213 0 344 143l47 -43q-146 -161 -400 -161z" />
<glyph unicode="&#x454;" horiz-adv-x="1122" d="M672 1016q-176 0 -315.5 -123.5t-190.5 -319.5h561l-12 -59h-561q-15 -126 23.5 -233.5t125 -171.5t201.5 -64q105 0 211 54.5t174 158.5l61 -22q-71 -119 -200 -186.5t-261 -67.5q-71 0 -133.5 22t-109 61t-83 92t-54.5 115t-24 130t7 137q16 100 66.5 195.5 t125.5 173.5t180.5 125.5t221.5 47.5q136 0 222.5 -64.5t125.5 -176.5l-67 -25q-42 104 -119.5 152.5t-175.5 48.5z" />
<glyph unicode="&#x455;" horiz-adv-x="931" d="M-29 147l47 48q127 -154 326 -154q161 0 266 75.5t105 198.5q0 29 -8 52t-27.5 41.5t-40.5 32t-58.5 27.5t-70 24t-86.5 24q-65 17 -100.5 27.5t-76 28.5t-59.5 37.5t-32 49t-13 68.5q0 112 61 194t158 121t216 39t199.5 -41.5t109.5 -109.5l-51 -35q-29 60 -102.5 92.5 t-170.5 32.5q-65 0 -126 -16.5t-112 -48.5t-81.5 -86.5t-30.5 -123.5q0 -30 10.5 -52t26.5 -37.5t49 -30t64.5 -24t87.5 -23.5q72 -19 115.5 -33t90.5 -35t72 -44t41 -57t16 -77q0 -164 -124.5 -258t-325.5 -94q-250 0 -365 167z" />
<glyph unicode="&#x456;" horiz-adv-x="391" d="M348 1495h70l-37 -172h-70zM256 1065h70l-226 -1065h-69z" />
<glyph unicode="&#x457;" horiz-adv-x="391" d="M193 1325l34 168h64l-35 -168h-63zM438 1325l35 168h64l-35 -168h-64zM256 1065h70l-226 -1065h-69z" />
<glyph unicode="&#x458;" horiz-adv-x="407" d="M362 1495h70l-37 -172h-69zM-420 -283l51 45q44 -51 144 -51q79 0 157.5 65t98.5 156l239 1133h70l-240 -1131q-27 -121 -128.5 -204.5t-204.5 -83.5q-132 0 -187 71z" />
<glyph unicode="&#x459;" horiz-adv-x="1468" d="M997 610q184 0 269 -88.5t59 -263.5q-15 -120 -103 -195t-223 -75q-45 0 -81 5.5t-64.5 19.5t-49.5 30t-38.5 46t-28.5 57.5t-22 74.5t-18 87t-17 104l-88 573q-180 -211 -313 -470t-216 -515h-71q190 609 588 1065h69l72 -467q184 12 276 12zM1255 272q19 140 -46 208.5 t-224 68.5q-114 0 -254 -10l19 -123q8 -53 13 -82.5t13 -69.5t15.5 -60.5t18 -47.5t23 -40t30 -28.5t38.5 -21.5t47.5 -10.5t59.5 -4.5q97 0 166 62t81 159z" />
<glyph unicode="&#x45a;" horiz-adv-x="1630" d="M1161 604q182 0 269.5 -83.5t64.5 -239.5q-22 -138 -125.5 -215.5t-267.5 -77.5q-179 0 -269 110.5t-47 315.5l27 131h-582l-114 -545h-70l225 1065h70l-98 -461h581l99 461h69l-96 -461h264zM1423 283q15 128 -51.5 194t-220.5 66h-268l-27 -131q-39 -180 34.5 -270.5 t219.5 -90.5q134 0 217 61t96 171z" />
<glyph unicode="&#x45b;" horiz-adv-x="1193" d="M731 940q186 0 258.5 -109t30.5 -315l-107 -516h-69l104 512q36 181 -18 270.5t-215 89.5q-153 0 -272.5 -75t-194.5 -217l-123 -580h-72l248 1167h-154l13 56h153l58 272h69l-57 -272h496l-13 -56h-495l-97 -458q174 231 457 231z" />
<glyph unicode="&#x45c;" horiz-adv-x="964" d="M612 1307l-43 26l156 162h90zM47 0l225 1065h70l-104 -492h186q119 68 224 186.5t233 305.5h80q-135 -197 -243 -321t-224 -199l305 -545h-80l-289 514h-207l-108 -514h-68z" />
<glyph unicode="&#x45d;" horiz-adv-x="1138" d="M516 1495h88l90 -162l-55 -26zM90 262q0 81 25 197l129 606h69l-127 -598q-24 -108 -24 -188q0 -234 205 -234q137 0 274 96t213 248l143 676h70l-193 -911q-12 -50 -12 -58q0 -30 31 -30l-16 -66q-25 0 -33 2q-49 9 -49 61q0 16 39 199q-94 -130 -227.5 -206t-268.5 -76 q-248 0 -248 282z" />
<glyph unicode="&#x45e;" horiz-adv-x="935" d="M621 1264q-116 0 -168.5 39.5t-44.5 101.5h47q-5 -42 35 -70t135 -28q93 0 135.5 25t64.5 73h45q-6 -61 -69 -101t-180 -40zM-76 -401q63 12 106.5 29.5t83 53.5t70 76t80.5 117l78 121l-236 1069h74l213 -991l109 174q187 298 268.5 463.5t134.5 353.5h70 q-56 -200 -138 -366.5t-284 -487.5l-168 -264q-146 -231 -233.5 -310t-219.5 -96z" />
<glyph unicode="&#x45f;" horiz-adv-x="1138" d="M90 262q0 81 25 197l129 606h69l-127 -598q-24 -108 -24 -188q0 -234 205 -234q137 0 274 96t213 248l143 676h70l-193 -911q-12 -50 -12 -58q0 -30 31 -30l-16 -66q-25 0 -33 2q-49 9 -49 61q0 16 39 199q-94 -130 -227.5 -206t-268.5 -76q-248 0 -248 282zM367 -283 l34 170h66l-35 -170h-65z" />
<glyph unicode="&#x462;" horiz-adv-x="1366" d="M829 866q226 0 320.5 -117.5t60.5 -316.5q-15 -88 -56.5 -165t-106 -137t-158 -95t-203.5 -35h-471l240 1137h-291l12 59h291l55 266h72l-57 -266h428l-13 -59h-426l-59 -271h362zM1141 432q9 49 9 93.5t-10 86.5t-34.5 76t-62 59.5t-95 39.5t-131.5 14h-364l-154 -735 h393q100 0 181 31t134.5 83.5t86.5 116t47 135.5z" />
<glyph unicode="&#x463;" horiz-adv-x="1470" d="M963 -12q-165 0 -245 111.5t-30 316.5l45 180q60 223 32 321.5t-142 98.5q-205 0 -357 -230l-166 -786h-69l225 1065h68l-39 -176q135 190 350 190q154 0 194.5 -120.5t-26.5 -358.5q132 12 201 12q180 0 266.5 -82.5t64.5 -236.5q-21 -145 -114.5 -225t-257.5 -80z M973 51q125 0 201.5 66.5t91.5 189.5q15 116 -51 179.5t-220 64.5q-102 0 -207 -12l-30 -127q-45 -177 19 -269t196 -92z" />
<glyph unicode="&#x46a;" horiz-adv-x="1927" d="M1972 1454l-661 -706l438 -748h-84l-414 709h-241l-152 -709h-70l150 709h-244l-661 -709h-86l698 748l-416 706h1743zM707 774h546l578 619h-1485z" />
<glyph unicode="&#x46b;" horiz-adv-x="1433" d="M-55 0l532 547l-266 518h1227l-480 -518l310 -547h-78l-289 512h-151l-109 -512h-70l109 512h-148l-501 -512h-86zM532 573h373l402 439h-996z" />
<glyph unicode="&#x472;" horiz-adv-x="1492" d="M905 1464q119 0 220.5 -40t173 -110t118.5 -162.5t63 -201.5t1 -223q-26 -202 -139.5 -371.5t-285 -267.5t-360.5 -98q-118 1 -219.5 41.5t-173.5 111.5t-120 163.5t-64.5 201t-1.5 219.5q20 143 92.5 278t176.5 236t240.5 162t278.5 61zM895 1397q-127 0 -246.5 -53 t-209.5 -140.5t-153.5 -200t-88.5 -231.5h1218q14 173 -46 315.5t-184.5 226t-289.5 83.5zM707 57q131 0 254 57t213.5 150t152.5 210.5t82 240.5h-1223q-16 -128 14 -247.5t97 -210.5t174 -145.5t236 -54.5z" />
<glyph unicode="&#x473;" horiz-adv-x="1200" d="M659 1081q140 0 248 -75.5t158.5 -202.5t30.5 -275q-15 -110 -68 -210.5t-131 -175t-180.5 -118.5t-212.5 -44q-141 0 -248.5 75t-156.5 200.5t-29 272.5t106 274.5t215 203t268 75.5zM651 1018q-170 0 -315.5 -129t-188.5 -316h881q11 185 -98.5 315t-278.5 130zM512 43 q175 0 326 141.5t184 329.5h-885q-22 -195 87.5 -333t287.5 -138z" />
<glyph unicode="&#x474;" horiz-adv-x="1357" d="M487 0l-282 1454h74l260 -1360l651 1123q82 139 144 188t157 49h61l-16 -65h-53q-71 0 -120.5 -43.5t-123.5 -169.5l-682 -1176h-70z" />
<glyph unicode="&#x475;" horiz-adv-x="940" d="M293 0l-166 1065h74l143 -975q132 149 246 340.5t178 355.5q65 164 131.5 230.5t167.5 66.5l-6 -63q-71 0 -123.5 -56.5t-106.5 -193.5q-74 -182 -207 -397.5t-284 -372.5h-47z" />
<glyph unicode="&#x490;" horiz-adv-x="1015" d="M63 0l308 1454h725l57 281h68l-74 -346h-721l-291 -1389h-72z" />
<glyph unicode="&#x491;" horiz-adv-x="870" d="M-76 -311q-55 0 -104 19t-74 50l45 47q19 -23 57 -38t80 -15q100 0 150 59.5t78 188.5l227 1065h494l53 242h65l-65 -303h-490l-215 -1004q-13 -58 -27.5 -100.5t-38 -84.5t-54.5 -68t-77 -42t-104 -16z" />
<glyph unicode="&#x492;" horiz-adv-x="1060" d="M1196 1389h-721l-135 -639h475l-4 -58h-483l-146 -692h-71l145 692h-236l5 58h243l150 704h790z" />
<glyph unicode="&#x493;" horiz-adv-x="854" d="M907 1004h-528l-103 -484h377l-12 -57h-377l-98 -463h-70l99 463h-170l10 57h172l115 545h596z" />
<glyph unicode="&#x494;" horiz-adv-x="1263" d="M1149 1389h-721l-131 -619q212 111 405 111q201 0 307.5 -126t69.5 -347q-39 -219 -168.5 -327t-328.5 -108q-70 0 -144 15l19 63q63 -14 131 -14q171 0 279 95.5t141 285.5q34 192 -57.5 296.5t-264.5 104.5q-188 0 -403 -117l-148 -702h-72l308 1454h790z" />
<glyph unicode="&#x495;" horiz-adv-x="1005" d="M539 721q198 0 281 -121.5t50 -323.5q-45 -287 -193 -459.5t-362 -172.5q-122 0 -188 59l55 39q49 -35 137 -35q171 0 306 157.5t172 393.5q31 187 -36.5 293t-242.5 106q-83 0 -148.5 -22.5t-131.5 -69.5l-121 -565h-70l225 1065h598l-14 -61h-526l-78 -369 q131 86 287 86z" />
<glyph unicode="&#x496;" horiz-adv-x="2011" d="M1313 750l395 -684h162l-72 -342h-65l57 276h-125l-408 711h-251l-152 -711h-70l150 711h-242l-663 -711h-86l700 748l-414 706h80l396 -678h243l144 678h69l-143 -678h237l641 678h86z" />
<glyph unicode="&#x497;" horiz-adv-x="1615" d="M1042 545l273 -482h112l-63 -305h-66l52 242h-82l-287 516h-207l-108 -516h-70l109 516h-144q-76 -34 -142.5 -83t-132 -122.5t-114 -138t-123.5 -172.5h-80q71 103 124 173.5t118.5 146.5t133 131.5t138.5 93.5l-270 520h74l256 -492l174 -2l104 494h70l-105 -494h187 q121 68 219.5 179t237.5 315h79q-135 -196 -243.5 -321t-223.5 -199z" />
<glyph unicode="&#x498;" horiz-adv-x="1071" d="M975 1100q-19 -114 -91 -205.5t-175 -132.5q123 -35 181 -138.5t36 -242.5q-26 -160 -134 -264t-276 -129l-53 -264h-66l54 256h-37q-134 0 -233 60.5t-142 168.5l63 33q36 -95 121 -146t201 -51q171 0 288 92t142 248q24 150 -56 246t-237 96h-115l11 61h116 q119 0 215.5 90t116.5 218q22 137 -52 225t-212 88q-102 0 -191 -49t-147 -139l-53 32q72 104 175.5 163t223.5 59q166 0 259 -106.5t67 -268.5z" />
<glyph unicode="&#x499;" horiz-adv-x="876" d="M823 803q-13 -78 -61 -141.5t-115 -94.5q88 -29 127.5 -101.5t22.5 -170.5q-24 -140 -144 -222.5t-291 -82.5h-12l-47 -232h-67l51 236q-104 14 -174.5 66t-96.5 137l64 26q26 -82 102 -127t191 -45q141 0 238 68t116 182q19 102 -37.5 166t-171.5 65h-145l10 58h156 q73 0 137.5 62t79.5 149q17 100 -39.5 157.5t-177.5 57.5q-195 0 -297 -160l-56 29q61 93 154.5 143.5t210.5 50.5q144 0 219 -75t53 -201z" />
<glyph unicode="&#x49a;" horiz-adv-x="1335" d="M618 750l410 -684h166l-72 -342h-65l57 276h-129l-424 711h-276l-150 -711h-72l308 1454h71l-143 -678h258l655 678h91z" />
<glyph unicode="&#x49b;" horiz-adv-x="1071" d="M494 545l270 -482h121l-64 -305h-67l53 242h-88l-289 514h-207l-108 -514h-68l225 1065h70l-104 -492h186q119 68 224 186.5t233 305.5h80q-135 -197 -243 -321t-224 -199z" />
<glyph unicode="&#x49c;" horiz-adv-x="1249" d="M1307 1454l-684 -704l448 -750h-86l-424 709h-37l-61 -263h-57l59 263h-180l-152 -709h-70l308 1454h69l-141 -678h182l60 262h59l-61 -262h20l655 678h93z" />
<glyph unicode="&#x49d;" horiz-adv-x="980" d="M975 1065q-131 -194 -241 -319.5t-226 -200.5l307 -545h-82l-289 516h-12l-51 -240h-55l51 240h-152l-110 -516h-68l225 1065h70l-106 -494h151l47 222h58l-48 -218q62 35 120.5 86t116 118t105.5 131.5t109 154.5h80z" />
<glyph unicode="&#x4a0;" horiz-adv-x="1413" d="M1468 1454l-684 -704l449 -750h-82l-424 711h-276l-150 -711h-72l293 1389h-325l12 65h399l-143 -678h258l655 678h90z" />
<glyph unicode="&#x4a1;" horiz-adv-x="1126" d="M1120 1065q-135 -197 -243 -321t-224 -199l305 -545h-79l-289 514h-207l-109 -514h-67l213 1004h-295l12 61h365l-105 -492h187q118 67 223 185.5t233 306.5h80z" />
<glyph unicode="&#x4a2;" horiz-adv-x="1560" d="M1425 1454l-295 -1388h207l-71 -342h-66l57 276h-210l149 711h-911l-152 -711h-72l310 1454h71l-145 -678h913l146 678h69z" />
<glyph unicode="&#x4a3;" horiz-adv-x="1241" d="M1110 1065l-211 -1002h145l-63 -305h-66l52 242h-152l12 63h2l95 451h-699l-108 -514h-70l225 1065h70l-104 -490h700l102 490h70z" />
<glyph unicode="&#x4a4;" horiz-adv-x="1998" d="M2144 1454l-12 -65h-721l-295 -1389h-69l149 711h-911l-152 -711h-72l310 1454h71l-145 -678h913l146 678h788z" />
<glyph unicode="&#x4a5;" horiz-adv-x="1572" d="M1638 1065l-12 -66h-528l-2 2l-211 -1001h-70l109 514h-699l-108 -514h-70l225 1065h70l-104 -490h700l102 490h598z" />
<glyph unicode="&#x4aa;" horiz-adv-x="1452" d="M895 1395q-141 0 -268 -58t-216 -153t-147.5 -212.5t-75.5 -240.5q-24 -176 35.5 -331.5t189 -250t298.5 -94.5q151 0 303 75t248 220l59 -24q-95 -159 -272 -248.5t-355 -89.5l-53 -264h-66l54 268q-130 14 -237 84t-171.5 173t-92 230.5t-9.5 257.5q15 105 59 209 t116 197t163.5 164t210 113t245.5 42q188 0 314.5 -86.5t175.5 -230.5l-64 -29q-38 99 -111 163.5t-155 90t-178 25.5z" />
<glyph unicode="&#x4ab;" horiz-adv-x="1060" d="M680 1016q-103 0 -203 -46.5t-176 -124t-123 -184t-47 -219.5q0 -170 92 -283.5t236 -113.5q113 0 227 63t154 148l65 -20q-58 -107 -182.5 -179t-255.5 -77l-47 -222h-68l49 226q-155 20 -248.5 145t-93.5 301q0 171 87 322t231 240t305 89q133 0 222.5 -64t117.5 -177 l-74 -25q-26 95 -97 148t-171 53z" />
<glyph unicode="&#x4ae;" horiz-adv-x="1224" d="M555 561l-360 893h79l332 -825l684 825h78l-743 -897l-119 -557h-70z" />
<glyph unicode="&#x4af;" horiz-adv-x="940" d="M199 -436l94 436l-166 1065h72l149 -983q181 209 314.5 467.5t216.5 515.5h65q-186 -608 -584 -1061l-92 -440h-69z" />
<glyph unicode="&#x4b0;" horiz-adv-x="1224" d="M625 557l-7 -27h240l-12 -57h-240l-100 -473h-70l101 473h-254l12 57h254l6 31l-360 893h79l332 -825l684 825h78z" />
<glyph unicode="&#x4b1;" horiz-adv-x="940" d="M944 1065q-176 -585 -559 -1032h205l-12 -58h-224l-86 -411h-69l88 411h-221l12 58h211l-162 1032h72l149 -983q181 209 314.5 467.5t216.5 515.5h65z" />
<glyph unicode="&#x4b6;" horiz-adv-x="1415" d="M1319 1454l-293 -1388h166l-72 -342h-65l57 276h-170l139 653q-217 -82 -426 -82q-250 0 -349 105.5t-52 327.5l96 450h72l-96 -453q-40 -192 40 -278t293 -86q116 0 239 26t198 66l153 725h70z" />
<glyph unicode="&#x4b7;" horiz-adv-x="1099" d="M954 1065l-211 -1002h160l-63 -305h-66l51 242h-168l103 477q-144 -65 -314 -65q-183 0 -256 90.5t-34 279.5l65 283h74l-66 -274q-35 -166 23.5 -243t208.5 -77q85 0 172 20t139 50l111 524h71z" />
<glyph unicode="&#x4b8;" horiz-adv-x="1337" d="M1249 1454h70l-307 -1454h-70l139 653q-206 -76 -397 -82l-61 -262h-58l60 262q-233 6 -325 111.5t-46 321.5l96 450h72l-96 -453q-38 -188 37.5 -274.5t277.5 -89.5l59 264h60l-62 -264q109 5 219 30t179 62z" />
<glyph unicode="&#x4b9;" horiz-adv-x="1005" d="M887 1065h71l-225 -1065h-71l102 477q-119 -54 -260 -63l-43 -203h-55l43 201h-3q-183 0 -256 90.5t-34 279.5l65 283h74l-66 -274q-35 -166 22.5 -243t207.5 -77h2l53 256h57l-55 -254q165 13 260 68z" />
<glyph unicode="&#x4ba;" horiz-adv-x="1337" d="M170 0h-70l308 1454h69l-139 -653q217 82 426 82q250 0 349 -105t52 -327l-96 -451h-72l97 453q40 192 -40 278t-294 86q-116 0 -238 -26t-198 -66z" />
<glyph unicode="&#x4bb;" horiz-adv-x="1118" d="M348 1495h70l-148 -696q89 129 217.5 205.5t257.5 76.5q242 0 242 -280q0 -97 -22 -199l-127 -602h-70l125 594q22 110 22 182q0 240 -198 240q-132 0 -269 -100.5t-206 -249.5l-142 -666h-69z" />
<glyph unicode="&#x4c0;" horiz-adv-x="456" d="M371 1452h71l-309 -1452h-72z" />
<glyph unicode="&#x4c1;" horiz-adv-x="1925" d="M1159 1702q-138 0 -203.5 49.5t-52.5 124.5h62q-10 -50 39.5 -86.5t144.5 -36.5q124 0 191.5 32.5t78.5 90.5h58q-11 -75 -94.5 -124.5t-223.5 -49.5zM-57 0l700 748l-414 706h80l396 -678h243l144 678h69l-143 -678h237l641 678h86l-669 -704l432 -750h-80l-408 711 h-251l-152 -711h-70l150 711h-242l-663 -711h-86z" />
<glyph unicode="&#x4c2;" horiz-adv-x="1540" d="M866 1264q-116 0 -168.5 39.5t-44.5 101.5h47q-5 -42 35 -70t135 -28q93 0 136 25t65 73h45q-6 -61 -69.5 -101t-180.5 -40zM-31 0q71 103 124 173.5t118.5 146.5t133 131.5t138.5 93.5l-270 520h74l256 -492l174 -2l104 494h70l-105 -494h187q121 68 219.5 179 t237.5 315h79q-135 -196 -243.5 -321t-223.5 -199l308 -545h-82l-287 516h-207l-108 -516h-70l109 516h-144q-76 -34 -142.5 -83t-132 -122.5t-114 -138t-123.5 -172.5h-80z" />
<glyph unicode="&#x4cb;" horiz-adv-x="1337" d="M1249 1454h70l-307 -1454h-181l-57 -276h-65l71 342h176l125 587q-217 -82 -426 -82q-250 0 -349 105.5t-52 327.5l96 450h72l-96 -453q-40 -192 40 -278t293 -86q116 0 239 26t198 66z" />
<glyph unicode="&#x4cc;" horiz-adv-x="1120" d="M1006 1065l-213 -1010h16l-12 -55h-133l-58 -276h-67l69 331h113l90 422q-144 -65 -313 -65q-184 0 -257 91t-34 279l65 283h74l-65 -274q-35 -166 23 -243t208 -77q85 0 172 20t139 50l111 524h72z" />
<glyph unicode="&#x4cf;" horiz-adv-x="391" d="M256 1065h70l-226 -1065h-69z" />
<glyph unicode="&#x4d0;" horiz-adv-x="1327" d="M889 1702q-138 0 -203.5 49.5t-52.5 124.5h61q-10 -50 40 -86.5t145 -36.5q124 0 191.5 32.5t78.5 90.5h57q-11 -75 -94 -124.5t-223 -49.5zM819 1454h62l282 -1454h-76l-96 502h-688l-309 -502h-78zM983 563l-152 801l-495 -801h647z" />
<glyph unicode="&#x4d1;" horiz-adv-x="1198" d="M733 1264q-116 0 -168.5 39.5t-44.5 101.5h47q-5 -42 35 -70t135 -28q93 0 136 25t65 73h45q-6 -61 -69.5 -101t-180.5 -40zM59 428q0 122 50 241.5t131.5 209.5t191 146t221.5 56q130 0 221 -72.5t132 -185.5l51 242h71l-202 -948q-4 -12 -4 -25q0 -26 28 -26l-14 -66 h-29q-55 9 -55 63q0 9 29 154q-86 -107 -206 -172t-237 -65q-114 0 -202 64t-132.5 165t-44.5 219zM905 352l78 367q-18 123 -109.5 210t-220.5 87q-132 0 -254.5 -87.5t-195 -222.5t-72.5 -272q0 -160 94 -274.5t234 -114.5q126 0 268 94t178 213z" />
<glyph unicode="&#x4d2;" horiz-adv-x="1327" d="M752 1714l34 168h64l-35 -168h-63zM997 1714l35 168h64l-35 -168h-64zM819 1454h62l282 -1454h-76l-96 502h-688l-309 -502h-78zM983 563l-152 801l-495 -801h647z" />
<glyph unicode="&#x4d3;" horiz-adv-x="1198" d="M623 1325l34 168h64l-35 -168h-63zM868 1325l35 168h64l-35 -168h-64zM59 428q0 122 50 241.5t131.5 209.5t191 146t221.5 56q130 0 221 -72.5t132 -185.5l51 242h71l-202 -948q-4 -12 -4 -25q0 -26 28 -26l-14 -66h-29q-55 9 -55 63q0 9 29 154q-86 -107 -206 -172 t-237 -65q-114 0 -202 64t-132.5 165t-44.5 219zM905 352l78 367q-18 123 -109.5 210t-220.5 87q-132 0 -254.5 -87.5t-195 -222.5t-72.5 -272q0 -160 94 -274.5t234 -114.5q126 0 268 94t178 213z" />
<glyph unicode="&#x4d4;" horiz-adv-x="1888" d="M1042 1454h912l-15 -65h-823l-129 -613h717l-14 -65h-717l-137 -645h839l-14 -66h-909l106 502h-532l-414 -502h-82zM870 567l166 791l-659 -791h493z" />
<glyph unicode="&#x4d5;" horiz-adv-x="1810" d="M0 248q0 162 142 265t352 103q136 0 264 -41q16 64 82 197q0 114 -66 182t-182 68q-155 0 -359 -131l-20 51q225 139 395 139q120 0 198 -63t93 -178q89 110 208 175.5t243 65.5q172 0 283.5 -118.5t111.5 -298.5q0 -98 -27 -164h-909q-4 -54 -4 -80q0 -166 92.5 -273.5 t243.5 -107.5q112 0 220.5 60t168.5 155l59 -16q-66 -112 -197 -185t-268 -73q-125 0 -218.5 65.5t-137.5 177.5q-83 -120 -225 -181.5t-264 -61.5q-132 0 -205.5 76.5t-73.5 191.5zM1663 557q10 44 10 107q0 151 -88 253.5t-246 102.5q-172 0 -318.5 -131.5t-199.5 -331.5 h842zM748 289q-15 53 -15 114q0 57 12 115q-116 43 -253 43q-186 0 -305 -82.5t-119 -216.5q0 -94 59.5 -158.5t175.5 -64.5q83 0 176 32t169.5 91t99.5 127z" />
<glyph unicode="&#x4d6;" horiz-adv-x="1200" d="M836 1702q-138 0 -203.5 49.5t-52.5 124.5h61q-10 -50 39.5 -86.5t144.5 -36.5q124 0 192 33t79 90h57q-11 -75 -94 -124.5t-223 -49.5zM371 1454h897l-15 -65h-825l-131 -613h723l-14 -65h-721l-140 -645h844l-12 -66h-916z" />
<glyph unicode="&#x4d7;" horiz-adv-x="1110" d="M688 1264q-116 0 -168.5 39.5t-44.5 101.5h47q-5 -42 35 -70t135 -28q93 0 136 25t65 73h45q-6 -61 -69.5 -101t-180.5 -40zM516 43q117 0 224 65t153 156l63 -20q-56 -107 -180 -185.5t-276 -78.5q-126 0 -221 65t-142.5 171.5t-46.5 236.5q-1 118 44.5 231.5t124 201.5 t192 141.5t239.5 53.5q79 0 152 -30.5t125 -97t55 -154.5q5 -148 -129 -224.5t-408 -76.5q-111 0 -323 10q-2 -16 -2 -53q-1 -115 39 -207.5t122.5 -148.5t194.5 -56zM678 1018q-180 0 -323 -132.5t-183 -316.5q208 -10 317 -10q128 0 219.5 17.5t144 50t75 75t20.5 97.5 q-2 72 -45 123.5t-102 73.5t-123 22z" />
<glyph unicode="&#x4d8;" horiz-adv-x="1447" d="M63 545q0 104 31 209h1206q9 92 9 120q0 229 -123.5 375t-321.5 146q-152 0 -301.5 -85.5t-230.5 -222.5l-62 31q89 149 264 247.5t347 98.5q150 0 267 -81t179 -218t62 -305q0 -173 -70 -336.5t-183 -281.5t-261.5 -189t-299.5 -71q-228 0 -370 158t-142 405zM1286 686 h-1132q-17 -80 -17 -143q0 -96 27.5 -182.5t81 -156.5t141 -111.5t197.5 -41.5q159 0 306.5 83.5t253 229t142.5 322.5z" />
<glyph unicode="&#x4d9;" horiz-adv-x="1181" d="M473 -20q-175 0 -282 118t-107 301q0 108 20 160h906q6 44 6 82q0 165 -92.5 272t-239.5 107q-112 0 -221.5 -59.5t-169.5 -153.5l-57 16q65 111 196 184.5t268 73.5q114 0 203 -60.5t136.5 -163t47.5 -228.5q0 -127 -52 -247t-136.5 -207.5t-197 -141t-228.5 -53.5z M485 39q169 0 315 132.5t197 330.5h-835q-6 -46 -6 -90q0 -167 89.5 -270t239.5 -103z" />
<glyph unicode="&#x4dc;" horiz-adv-x="1925" d="M1022 1714l35 168h63l-35 -168h-63zM1268 1714l35 168h63l-35 -168h-63zM-57 0l700 748l-414 706h80l396 -678h243l144 678h69l-143 -678h237l641 678h86l-669 -704l432 -750h-80l-408 711h-251l-152 -711h-70l150 711h-242l-663 -711h-86z" />
<glyph unicode="&#x4dd;" horiz-adv-x="1540" d="M756 1325l35 168h63l-35 -168h-63zM1001 1325l35 168h64l-35 -168h-64zM-31 0q71 103 124 173.5t118.5 146.5t133 131.5t138.5 93.5l-270 520h74l256 -492l174 -2l104 494h70l-105 -494h187q121 68 219.5 179t237.5 315h79q-135 -196 -243.5 -321t-223.5 -199l308 -545 h-82l-287 516h-207l-108 -516h-70l109 516h-144q-76 -34 -142.5 -83t-132 -122.5t-114 -138t-123.5 -172.5h-80z" />
<glyph unicode="&#x4de;" horiz-adv-x="1071" d="M582 1714l34 168h64l-35 -168h-63zM827 1714l35 168h64l-35 -168h-64zM414 -20q-134 0 -233 60.5t-142 168.5l63 33q36 -95 121 -146t201 -51q171 0 288 92t142 248q24 150 -56 246t-237 96h-115l11 61h116q119 0 215.5 90t116.5 218q22 137 -52 225t-212 88 q-102 0 -191 -49t-147 -139l-53 32q72 104 175.5 163t223.5 59q166 0 259 -106.5t67 -268.5q-19 -114 -91 -205.5t-175 -132.5q123 -35 181 -138.5t36 -242.5q-30 -185 -166 -293t-346 -108z" />
<glyph unicode="&#x4df;" horiz-adv-x="944" d="M459 1325l35 168h63l-35 -168h-63zM705 1325l34 168h64l-35 -168h-63zM362 -10q-135 0 -225 54t-121 153l64 26q26 -82 102 -127t191 -45q141 0 238 68t116 182q19 102 -37.5 166t-171.5 65h-145l10 58h156q73 0 137.5 62t79.5 149q17 100 -39.5 157.5t-177.5 57.5 q-195 0 -297 -160l-56 29q61 93 154.5 143.5t210.5 50.5q144 0 219 -75t53 -201q-13 -78 -61 -141.5t-115 -94.5q88 -29 127.5 -101.5t22.5 -170.5q-24 -140 -144 -222.5t-291 -82.5z" />
<glyph unicode="&#x4e2;" horiz-adv-x="1476" d="M709 1780l12 57h551l-12 -57h-551zM63 0l308 1454h71l-286 -1352l1239 1352h67l-309 -1454h-72l285 1333l-1225 -1333h-78z" />
<glyph unicode="&#x4e3;" horiz-adv-x="1138" d="M451 1391l12 57h551l-13 -57h-550zM90 262q0 81 25 197l129 606h69l-127 -598q-24 -108 -24 -188q0 -234 205 -234q137 0 274 96t213 248l143 676h70l-193 -911q-12 -50 -12 -58q0 -30 31 -30l-16 -66q-25 0 -33 2q-49 9 -49 61q0 16 39 199q-94 -130 -227.5 -206 t-268.5 -76q-248 0 -248 282z" />
<glyph unicode="&#x4e4;" horiz-adv-x="1476" d="M815 1714l35 168h63l-34 -168h-64zM1061 1714l35 168h63l-35 -168h-63zM63 0l308 1454h71l-286 -1352l1239 1352h67l-309 -1454h-72l285 1333l-1225 -1333h-78z" />
<glyph unicode="&#x4e5;" horiz-adv-x="1138" d="M557 1325l35 168h63l-34 -168h-64zM803 1325l35 168h63l-35 -168h-63zM90 262q0 81 25 197l129 606h69l-127 -598q-24 -108 -24 -188q0 -234 205 -234q137 0 274 96t213 248l143 676h70l-193 -911q-12 -50 -12 -58q0 -30 31 -30l-16 -66q-25 0 -33 2q-49 9 -49 61 q0 16 39 199q-94 -130 -227.5 -206t-268.5 -76q-248 0 -248 282z" />
<glyph unicode="&#x4e6;" horiz-adv-x="1552" d="M852 1714l35 168h63l-35 -168h-63zM1098 1714l35 168h63l-35 -168h-63zM696 -10q-118 1 -219.5 41.5t-173.5 111.5t-120 163.5t-64.5 201t-1.5 219.5q20 143 92.5 278t176.5 236t240.5 162t278.5 61q119 0 220.5 -40t173 -110t118.5 -162.5t63 -201.5t1 -223 q-26 -202 -139.5 -371.5t-285 -267.5t-360.5 -98zM707 57q107 0 209 38t184 103t148 150t107.5 182.5t55.5 196.5q25 183 -32 336.5t-185 243.5t-299 90q-133 0 -258 -58t-216.5 -152.5t-153 -214.5t-79.5 -245q-18 -130 11 -251.5t95.5 -214t174 -148.5t238.5 -56z" />
<glyph unicode="&#x4e7;" horiz-adv-x="1222" d="M616 1323l35 168h64l-35 -168h-64zM862 1323l35 168h64l-35 -168h-64zM526 -20q-141 0 -248.5 75t-156.5 200.5t-29 272.5t106.5 274.5t215.5 203t268 75.5q140 0 247.5 -75.5t158 -202.5t30.5 -275q-15 -110 -68 -210.5t-131 -175t-180.5 -118.5t-212.5 -44zM535 43 q118 0 231 68.5t188.5 181t92.5 237.5q18 130 -26 242.5t-136.5 179t-210.5 66.5q-181 0 -332 -145.5t-180 -346.5q-18 -131 25.5 -242t136 -176t211.5 -65z" />
<glyph unicode="&#x4e8;" horiz-adv-x="1492" d="M905 1464q119 0 220.5 -40t173 -110t118.5 -162.5t63 -201.5t1 -223q-26 -202 -139.5 -371.5t-285 -267.5t-360.5 -98q-118 1 -219.5 41.5t-173.5 111.5t-120 163.5t-64.5 201t-1.5 219.5q20 143 92.5 278t176.5 236t240.5 162t278.5 61zM895 1397q-127 0 -246.5 -53 t-209.5 -140.5t-153.5 -200t-88.5 -231.5h1218q14 173 -46 315.5t-184.5 226t-289.5 83.5zM707 57q131 0 254 57t213.5 150t152.5 210.5t82 240.5h-1223q-16 -128 14 -247.5t97 -210.5t174 -145.5t236 -54.5z" />
<glyph unicode="&#x4e9;" horiz-adv-x="1200" d="M659 1081q140 0 248 -75.5t158.5 -202.5t30.5 -275q-15 -110 -68 -210.5t-131 -175t-180.5 -118.5t-212.5 -44q-141 0 -248.5 75t-156.5 200.5t-29 272.5t106 274.5t215 203t268 75.5zM651 1018q-170 0 -315.5 -129t-188.5 -316h881q11 185 -98.5 315t-278.5 130zM512 43 q175 0 326 141.5t184 329.5h-885q-22 -195 87.5 -333t287.5 -138z" />
<glyph unicode="&#x4ee;" horiz-adv-x="1175" d="M618 1780l13 57h551l-13 -57h-551zM193 0l12 66h106q95 0 159 53t116 149l28 56l-421 1130h71l391 -1055l574 1055h76l-660 -1206q-68 -124 -147 -186t-201 -62h-104z" />
<glyph unicode="&#x4ef;" horiz-adv-x="935" d="M403 1391l13 57h551l-13 -57h-551zM-76 -401q63 12 106.5 29.5t83 53.5t70 76t80.5 117l78 121l-236 1069h74l213 -991l109 174q187 298 268.5 463.5t134.5 353.5h70q-56 -200 -138 -366.5t-284 -487.5l-168 -264q-146 -231 -233.5 -310t-219.5 -96z" />
<glyph unicode="&#x4f0;" horiz-adv-x="1175" d="M725 1714l35 168h63l-35 -168h-63zM971 1714l35 168h63l-35 -168h-63zM193 0l12 66h106q95 0 159 53t116 149l28 56l-421 1130h71l391 -1055l574 1055h76l-660 -1206q-68 -124 -147 -186t-201 -62h-104z" />
<glyph unicode="&#x4f1;" horiz-adv-x="935" d="M510 1325l35 168h63l-35 -168h-63zM756 1325l35 168h63l-35 -168h-63zM-76 -401q63 12 106.5 29.5t83 53.5t70 76t80.5 117l78 121l-236 1069h74l213 -991l109 174q187 298 268.5 463.5t134.5 353.5h70q-56 -200 -138 -366.5t-284 -487.5l-168 -264 q-146 -231 -233.5 -310t-219.5 -96z" />
<glyph unicode="&#x4f2;" horiz-adv-x="1175" d="M750 1696l-39 26l153 162h86zM961 1696l-39 26l153 162h86zM193 0l12 66h106q95 0 159 53t116 149l28 56l-421 1130h71l391 -1055l574 1055h76l-660 -1206q-68 -124 -147 -186t-201 -62h-104z" />
<glyph unicode="&#x4f3;" horiz-adv-x="935" d="M535 1307l-39 26l153 162h86zM745 1307l-38 26l153 162h86zM-76 -401q63 12 106.5 29.5t83 53.5t70 76t80.5 117l78 121l-236 1069h74l213 -991l109 174q187 298 268.5 463.5t134.5 353.5h70q-56 -200 -138 -366.5t-284 -487.5l-168 -264q-146 -231 -233.5 -310 t-219.5 -96z" />
<glyph unicode="&#x4f4;" horiz-adv-x="1337" d="M748 1714l34 168h64l-35 -168h-63zM993 1714l35 168h64l-35 -168h-64zM1249 1454h70l-307 -1454h-70l139 653q-217 -82 -426 -82q-250 0 -349 105.5t-52 327.5l96 450h72l-96 -453q-40 -192 40 -278t293 -86q116 0 239 26t198 66z" />
<glyph unicode="&#x4f5;" horiz-adv-x="1001" d="M524 1325l35 168h64l-35 -168h-64zM770 1325l35 168h63l-34 -168h-64zM657 0l103 477q-144 -65 -314 -65q-183 0 -256 90.5t-34 279.5l65 283h74l-66 -274q-35 -166 23.5 -243t208.5 -77q85 0 172 20t139 50l111 524h71l-225 -1065h-72z" />
<glyph unicode="&#x4f6;" horiz-adv-x="1013" d="M369 1454h790l-12 -65h-721l-279 -1323h160l-71 -342h-66l57 276h-166z" />
<glyph unicode="&#x4f7;" horiz-adv-x="972" d="M492 504q-170 -54 -237 -106.5t-77 -141.5q-12 -105 58 -160t217 -55q213 0 344 143l47 -43q-3 -4 -10.5 -11t-10.5 -11l-57 -271h-66l45 211q-125 -79 -301 -79t-264.5 74t-73.5 206q12 107 94 173.5t271 127.5q170 59 236 112.5t75 141.5q10 101 -46.5 155t-172.5 54 q-100 0 -180 -35t-127 -100l-53 37q58 76 152.5 117.5t213.5 41.5q147 0 221.5 -72t63.5 -200q-13 -115 -97 -181t-265 -128z" />
<glyph unicode="&#x4f8;" horiz-adv-x="1558" d="M840 1714l34 168h64l-35 -168h-63zM1085 1714l35 168h64l-35 -168h-64zM63 0l308 1454h71l-125 -588h299q115 0 198 -32t127 -89.5t60.5 -137.5t-2.5 -175q-15 -88 -56.5 -165t-106.5 -137t-158 -95t-203 -35h-412zM1473 1452h71l-309 -1452h-72zM147 66h334q99 0 180 31 t134.5 83.5t86.5 116t46 135.5q9 49 9 93.5t-10 86.5t-34.5 76t-62 59.5t-95 39.5t-131.5 14h-301z" />
<glyph unicode="&#x4f9;" horiz-adv-x="1271" d="M750 1493l-35 -168h-64l35 168h64zM995 1493l-34 -168h-64l35 168h63zM451 692q188 0 277 -95.5t67 -260.5t-123.5 -256.5t-265.5 -91.5q-179 0 -260.5 108.5t-39.5 319.5q32 154 144 649h69q-14 -59 -41 -184t-42 -189h215zM1155 1065h70l-226 -1065h-69zM725 340 q32 291 -289 291h-213q-38 -173 -47 -217q-36 -185 29 -275t211 -90q129 0 209.5 76.5t99.5 214.5z" />
<glyph unicode="&#x51a;" horiz-adv-x="1482" d="M1427 866q0 -202 -88 -385t-237 -309l96 -172h-78l-73 131q-200 -141 -426 -141q-104 0 -191 32.5t-147 88t-101.5 131.5t-60.5 162t-19 180q0 172 66 334t175.5 281.5t258.5 192t307 72.5q105 0 192 -33t146.5 -89.5t100.5 -133.5t60 -163t19 -179zM633 57 q204 0 383 129l-121 213h78l96 -170q133 116 211 286t78 349q0 108 -28 202.5t-82 169t-144 118t-205 43.5q-148 0 -284 -69.5t-231.5 -182t-152.5 -259.5t-57 -298q0 -108 28 -202t82 -168.5t144 -117.5t205 -43z" />
<glyph unicode="&#x51b;" horiz-adv-x="1189" d="M57 420q0 125 53.5 247t139 212.5t198 146t226.5 55.5q115 0 206.5 -67t131.5 -170l45 221h65l-293 -1389l-4 -16q0 -28 29 -31l-12 -63q-24 -3 -49 8q-41 16 -41 64q0 8 4 20l123 580q-223 -258 -459 -258q-114 0 -198 62.5t-124.5 161t-40.5 216.5zM899 338l84 383 q-18 126 -102 210.5t-211 84.5q-138 0 -265 -86.5t-202.5 -222.5t-75.5 -277q0 -162 87 -273.5t232 -111.5q129 0 247.5 82.5t205.5 210.5z" />
<glyph unicode="&#x51c;" horiz-adv-x="2025" d="M203 1454h78l262 -1370l469 756l-119 602h72l100 -537l330 537h71l-372 -602l149 -756l842 1370h78l-906 -1454h-67l-152 774l-481 -774h-68z" />
<glyph unicode="&#x51d;" horiz-adv-x="1499" d="M121 1065h72l178 -987q197 218 356 522l-92 465h74l67 -369q86 176 148 369h67q-71 -234 -194 -469l98 -518q189 213 329.5 475.5t219.5 511.5h67q-186 -598 -600 -1065h-69l-97 506q-150 -275 -360 -506h-70z" />
<glyph unicode="&#x524;" horiz-adv-x="1562" d="M1425 1454l-292 -1388h204l-71 -342h-66l57 276h-210l294 1389h-913l-293 -1389h-72l308 1454h1054z" />
<glyph unicode="&#x525;" horiz-adv-x="1230" d="M1079 1065l-213 -1002h170l-63 -305h-66l51 242h-176l213 1004h-667l-211 -1004h-70l225 1065h807z" />
<glyph unicode="&#x1e08;" horiz-adv-x="1353" d="M1130 1884l-202 -188l-43 26l155 162h90zM915 1395q-126 0 -242.5 -47.5t-205.5 -128.5t-156 -184t-102 -218.5t-35 -228.5q0 -144 54 -264t161.5 -194.5t249.5 -74.5q139 0 282 74t246 221l58 -24q-103 -161 -268 -249.5t-330 -88.5q63 -66 63 -140q0 -94 -60.5 -144 t-158.5 -50q-105 0 -188 53l32 45q45 -24 78 -34.5t80 -10.5q74 0 120 39.5t46 99.5q0 78 -92 148q-104 16 -189.5 72.5t-140 138.5t-84 181t-29.5 204q0 101 28 206t78.5 201.5t125 181.5t163 147.5t198 99t225.5 36.5q185 0 298 -86t148 -231l-65 -29q-79 279 -388 279z " />
<glyph unicode="&#x1e09;" horiz-adv-x="1060" d="M936 1495l-203 -188l-43 26l156 162h90zM680 1016q-103 0 -203 -46.5t-176 -124t-123 -184t-47 -219.5q0 -170 92 -283.5t236 -113.5q113 0 227 63t154 148l65 -20q-52 -94 -156.5 -162.5t-222.5 -87.5q62 -62 62 -138q0 -94 -60.5 -144t-158.5 -50q-106 0 -189 53l33 45 q45 -24 78 -34.5t80 -10.5q74 0 120 39.5t46 99.5q0 69 -74 134h-10q-175 0 -284.5 129.5t-109.5 320.5q0 171 87 322t231 240t305 89q133 0 222.5 -64t117.5 -177l-74 -25q-26 95 -97 148t-171 53z" />
<glyph unicode="&#x1e0c;" horiz-adv-x="1404" d="M371 1454h452q130 0 231 -42.5t163 -118.5t94 -175.5t32 -218.5q0 -190 -62.5 -357t-172 -286t-263.5 -187.5t-331 -68.5h-453zM528 66q136 0 255 43.5t207.5 121t152.5 180.5t96.5 224.5t32.5 251.5q0 227 -119.5 364.5t-343.5 137.5h-381l-283 -1323h383zM412 -283 l34 170h66l-35 -170h-65z" />
<glyph unicode="&#x1e0d;" horiz-adv-x="1198" d="M59 430q0 162 84 313t223 244.5t291 93.5q126 0 217 -73t132 -185l141 672h72l-295 -1380q-2 -8 -2 -21q0 -28 28 -28l-14 -66q-25 0 -33 2q-51 9 -51 64q0 15 29 151q-85 -106 -205.5 -171.5t-233.5 -65.5q-117 0 -205.5 64t-133 165t-44.5 221zM905 352l78 367 q-17 122 -114.5 209.5t-215.5 87.5q-103 0 -201 -52t-167.5 -134.5t-111.5 -186t-42 -203.5q0 -165 93.5 -280t240.5 -115q75 0 168 41t171 114t101 152zM395 -283l35 170h66l-35 -170h-66z" />
<glyph unicode="&#x1e0e;" horiz-adv-x="1404" d="M371 1454h452q130 0 231 -42.5t163 -118.5t94 -175.5t32 -218.5q0 -190 -62.5 -357t-172 -286t-263.5 -187.5t-331 -68.5h-453zM528 66q136 0 255 43.5t207.5 121t152.5 180.5t96.5 224.5t32.5 251.5q0 227 -119.5 364.5t-343.5 137.5h-381l-283 -1323h383zM195 -215 l12 57h526l-12 -57h-526z" />
<glyph unicode="&#x1e0f;" horiz-adv-x="1198" d="M59 430q0 162 84 313t223 244.5t291 93.5q126 0 217 -73t132 -185l141 672h72l-295 -1380q-2 -8 -2 -21q0 -28 28 -28l-14 -66q-25 0 -33 2q-51 9 -51 64q0 15 29 151q-85 -106 -205.5 -171.5t-233.5 -65.5q-117 0 -205.5 64t-133 165t-44.5 221zM905 352l78 367 q-17 122 -114.5 209.5t-215.5 87.5q-103 0 -201 -52t-167.5 -134.5t-111.5 -186t-42 -203.5q0 -165 93.5 -280t240.5 -115q75 0 168 41t171 114t101 152zM178 -215l12 57h527l-12 -57h-527z" />
<glyph unicode="&#x1e14;" horiz-adv-x="1200" d="M739 2267h88l91 -162l-56 -26zM592 1780l12 57h551l-12 -57h-551zM371 1454h897l-15 -65h-825l-131 -613h723l-14 -65h-721l-140 -645h844l-12 -66h-916z" />
<glyph unicode="&#x1e15;" horiz-adv-x="1075" d="M799 1716l-56 -26l-122 188h88zM485 1448h551l-12 -57h-551zM684 1081q59 0 116 -18.5t103.5 -52.5t75.5 -89t29 -122q0 -299 -547 -299q-133 0 -324 12q-6 -40 -6 -80q0 -109 37 -196.5t115.5 -142t187.5 -54.5q111 0 222.5 63.5t168.5 165.5l62 -18 q-70 -121 -199.5 -195.5t-269.5 -74.5q-121 0 -212.5 61t-137.5 162.5t-46 226.5q0 122 48 240t130 208.5t199.5 146.5t247.5 56zM467 559q473 0 473 242q0 73 -42.5 124.5t-100.5 73t-123 21.5q-189 0 -335 -131t-192 -318q191 -12 320 -12z" />
<glyph unicode="&#x1e16;" horiz-adv-x="1200" d="M932 2079l-43 26l155 162h91zM592 1780l12 57h551l-12 -57h-551zM371 1454h897l-15 -65h-825l-131 -613h723l-14 -65h-721l-140 -645h844l-12 -66h-916z" />
<glyph unicode="&#x1e17;" horiz-adv-x="1075" d="M1016 1878l-203 -188l-43 26l156 162h90zM485 1448h551l-12 -57h-551zM684 1081q59 0 116 -18.5t103.5 -52.5t75.5 -89t29 -122q0 -299 -547 -299q-133 0 -324 12q-6 -40 -6 -80q0 -109 37 -196.5t115.5 -142t187.5 -54.5q111 0 222.5 63.5t168.5 165.5l62 -18 q-70 -121 -199.5 -195.5t-269.5 -74.5q-121 0 -212.5 61t-137.5 162.5t-46 226.5q0 122 48 240t130 208.5t199.5 146.5t247.5 56zM467 559q473 0 473 242q0 73 -42.5 124.5t-100.5 73t-123 21.5q-189 0 -335 -131t-192 -318q191 -12 320 -12z" />
<glyph unicode="&#x1e1c;" horiz-adv-x="1200" d="M854 1712q-57 0 -93 39t-36 98q0 11 4 35h53q-4 -16 -4 -24q0 -42 24 -72.5t60 -30.5q40 0 80 37.5t55 89.5h52q-15 -70 -73.5 -121t-121.5 -51zM1253 1389h-825l-131 -613h723l-14 -65h-721l-140 -645h844l-12 -66h-440q75 -69 75 -152q0 -94 -60.5 -144t-158.5 -50 q-105 0 -188 53l33 45q45 -24 77.5 -34.5t79.5 -10.5q74 0 120 39.5t46 99.5q0 79 -100 154h-400l310 1454h897z" />
<glyph unicode="&#x1e1d;" horiz-adv-x="1075" d="M735 1323q-57 0 -93 39t-36 98q0 11 4 35h54q-5 -20 -5 -25q0 -42 24 -72t60 -30q40 0 80.5 37.5t55.5 89.5h51q-15 -70 -73.5 -121t-121.5 -51zM461 500q-133 0 -324 12q-6 -40 -6 -80q0 -109 37 -196.5t115.5 -142t187.5 -54.5q111 0 222.5 63.5t168.5 165.5l62 -18 q-63 -106 -171.5 -177.5t-232.5 -88.5q60 -63 60 -136q0 -93 -61 -143.5t-159 -50.5q-105 0 -188 53l33 45q45 -24 77.5 -34.5t79.5 -10.5q74 0 120 39.5t46 99.5q0 70 -73 134q-121 0 -212.5 61t-137.5 162.5t-46 226.5q0 122 48 240t130 208.5t199.5 146.5t247.5 56 q59 0 116 -18.5t103.5 -52.5t75.5 -89t29 -122q0 -299 -547 -299zM674 1020q-189 0 -335 -131t-192 -318q191 -12 320 -12q473 0 473 242q0 73 -42.5 124.5t-100.5 73t-123 21.5z" />
<glyph unicode="&#x1e20;" horiz-adv-x="1409" d="M1264 1831l-13 -57h-551l13 57h551zM913 637l13 61h383l-150 -698h-63l51 238q-260 -248 -535 -248q-120 0 -218.5 51.5t-160.5 138t-95.5 194.5t-33.5 226q0 130 41 258.5t116.5 236.5t175.5 191.5t226 130.5t259 47q187 0 299 -85.5t149 -231.5l-67 -31 q-78 281 -390 281q-154 0 -293.5 -70t-236 -182.5t-153 -255.5t-56.5 -287q0 -148 55.5 -271.5t162.5 -198.5t245 -75q253 0 528 269l66 311h-318z" />
<glyph unicode="&#x1e21;" horiz-adv-x="1189" d="M479 1391l13 57h550l-12 -57h-551zM-51 -207l57 29q35 -109 127.5 -163t218.5 -54q168 0 299 94.5t168 267.5l55 250q-86 -105 -205.5 -170t-232.5 -65q-115 0 -203 64t-132 165t-44 219q0 119 49.5 237.5t130.5 209t192.5 147.5t227.5 57q232 0 351 -258l51 242h63 l-233 -1098q-21 -103 -76 -185.5t-130 -134t-163 -78t-180 -26.5q-170 0 -261.5 64.5t-129.5 185.5zM903 352l78 367q-19 129 -113 213t-217 84q-106 0 -205 -54t-167 -137.5t-109 -185.5t-41 -199q0 -165 93 -280t241 -115q87 0 182 46.5t165 117.5t93 143z" />
<glyph unicode="&#x1e24;" horiz-adv-x="1439" d="M371 1454h71l-145 -678h913l146 678h69l-309 -1454h-69l149 711h-911l-152 -711h-72zM516 -283l35 170h65l-34 -170h-66z" />
<glyph unicode="&#x1e25;" horiz-adv-x="1118" d="M348 1495h70l-148 -696q89 129 217.5 205.5t257.5 76.5q242 0 242 -280q0 -97 -22 -199l-127 -602h-70l125 594q22 110 22 182q0 240 -198 240q-132 0 -269 -100.5t-206 -249.5l-142 -666h-69zM354 -283l35 170h66l-35 -170h-66z" />
<glyph unicode="&#x1e2a;" horiz-adv-x="1439" d="M371 1454h71l-145 -678h913l146 678h69l-309 -1454h-69l149 711h-911l-152 -711h-72zM551 -264q-56 0 -86.5 51.5t-15.5 120.5h47q-11 -48 9 -86.5t58 -38.5q34 0 70 36.5t53 88.5h43q-15 -69 -68 -120.5t-110 -51.5z" />
<glyph unicode="&#x1e2b;" horiz-adv-x="1118" d="M348 1495h70l-148 -696q89 129 217.5 205.5t257.5 76.5q242 0 242 -280q0 -97 -22 -199l-127 -602h-70l125 594q22 110 22 182q0 240 -198 240q-132 0 -269 -100.5t-206 -249.5l-142 -666h-69zM389 -264q-56 0 -86.5 51.5t-15.5 120.5h47q-11 -48 9 -86.5t58 -38.5 q34 0 70 36.5t53 88.5h43q-15 -69 -68 -120.5t-110 -51.5z" />
<glyph unicode="&#x1e2e;" horiz-adv-x="456" d="M551 2120l-43 26l156 162h90zM307 1710l35 168h64l-35 -168h-64zM553 1710l35 168h63l-35 -168h-63zM371 1452h71l-309 -1452h-72z" />
<glyph unicode="&#x1e2f;" horiz-adv-x="391" d="M436 1735l-43 26l156 162h90zM193 1325l34 168h64l-35 -168h-63zM438 1325l35 168h64l-35 -168h-64zM256 1065h70l-226 -1065h-69z" />
<glyph unicode="&#x1e36;" horiz-adv-x="1132" d="M371 1454h71l-297 -1388h846l-14 -66h-916zM428 -283l35 170h65l-34 -170h-66z" />
<glyph unicode="&#x1e37;" horiz-adv-x="483" d="M70 121q0 31 4 47l282 1327h70l-281 -1313q-4 -24 -4 -35q0 -44 28 -69t77 -25t110 21l4 -58q-80 -26 -157 -26q-61 0 -97 35.5t-36 95.5zM102 -283l35 170h66l-35 -170h-66z" />
<glyph unicode="&#x1e3a;" horiz-adv-x="1132" d="M371 1454h71l-297 -1388h846l-14 -66h-916zM211 -215l12 57h527l-13 -57h-526z" />
<glyph unicode="&#x1e3b;" horiz-adv-x="483" d="M70 121q0 31 4 47l282 1327h70l-281 -1313q-4 -24 -4 -35q0 -44 28 -69t77 -25t110 21l4 -58q-80 -26 -157 -26q-61 0 -97 35.5t-36 95.5zM-115 -215l13 57h526l-12 -57h-527z" />
<glyph unicode="&#x1e42;" horiz-adv-x="1728" d="M371 1454h67l375 -1081l836 1081h65l-309 -1454h-70l279 1315l-797 -1032h-47l-356 1032l-281 -1315h-72zM659 -283l35 170h66l-35 -170h-66z" />
<glyph unicode="&#x1e43;" horiz-adv-x="1781" d="M256 1065h66l-56 -266q92 133 210.5 207.5t238.5 74.5q123 0 186 -81.5t53 -227.5q80 147 207 228t260 81q234 0 234 -266q0 -93 -27 -213l-127 -602h-69l124 594q23 106 23 194q0 228 -188 228q-131 0 -254 -97t-197 -255l-139 -664h-70l125 594q25 122 25 199 q0 114 -46.5 168.5t-142.5 54.5q-131 0 -252.5 -96t-197.5 -254l-142 -666h-69zM686 -283l35 170h65l-34 -170h-66z" />
<glyph unicode="&#x1e44;" horiz-adv-x="1519" d="M987 1708l35 170h65l-34 -170h-66zM371 1454h55l725 -1341l283 1339h71l-309 -1452h-68l-714 1319l-281 -1319h-72z" />
<glyph unicode="&#x1e45;" horiz-adv-x="1118" d="M727 1325l35 170h65l-34 -170h-66zM256 1065h66l-56 -266q88 126 226.5 204t273.5 78q116 0 170.5 -64t54.5 -194q0 -85 -26 -221l-127 -602h-70l125 594q25 125 25 205q0 217 -181 217q-90 0 -186.5 -45t-179 -125.5t-129.5 -179.5l-142 -666h-69z" />
<glyph unicode="&#x1e46;" horiz-adv-x="1519" d="M371 1454h55l725 -1341l283 1339h71l-309 -1452h-68l-714 1319l-281 -1319h-72zM557 -283l35 170h65l-34 -170h-66z" />
<glyph unicode="&#x1e47;" horiz-adv-x="1118" d="M256 1065h66l-56 -266q88 126 226.5 204t273.5 78q116 0 170.5 -64t54.5 -194q0 -85 -26 -221l-127 -602h-70l125 594q25 125 25 205q0 217 -181 217q-90 0 -186.5 -45t-179 -125.5t-129.5 -179.5l-142 -666h-69zM358 -283l35 170h66l-35 -170h-66z" />
<glyph unicode="&#x1e48;" horiz-adv-x="1519" d="M371 1454h55l725 -1341l283 1339h71l-309 -1452h-68l-714 1319l-281 -1319h-72zM340 -215l12 57h527l-13 -57h-526z" />
<glyph unicode="&#x1e49;" horiz-adv-x="1118" d="M256 1065h66l-56 -266q88 126 226.5 204t273.5 78q116 0 170.5 -64t54.5 -194q0 -85 -26 -221l-127 -602h-70l125 594q25 125 25 205q0 217 -181 217q-90 0 -186.5 -45t-179 -125.5t-129.5 -179.5l-142 -666h-69zM141 -215l13 57h526l-12 -57h-527z" />
<glyph unicode="&#x1e4c;" horiz-adv-x="1484" d="M1083 2120l-43 26l156 162h90zM885 1804q-29 0 -53 -13t-38 -32.5t-20.5 -31.5t-9.5 -21h-51q1 10 11.5 32t31 51t58.5 50t85 21q43 0 79 -20t71.5 -40t76.5 -20q29 0 53.5 9.5t38.5 22.5t25 28.5t14.5 24t4.5 13.5h51q-2 -9 -8 -24t-22 -38t-37.5 -42.5t-57 -33.5 t-76.5 -14q-39 0 -73 12t-54 27t-47 27t-53 12zM102 584q0 172 66 334t175.5 281.5t258.5 192t307 72.5q105 0 192 -33t146.5 -89.5t100.5 -133.5t60 -163t19 -179q0 -114 -30 -226t-83 -208t-128.5 -178t-163.5 -140t-191.5 -91t-209.5 -33q-104 0 -191 32.5t-147 88 t-101.5 131.5t-60.5 162t-19 180zM1358 864q0 108 -28 202.5t-82 169t-144 118t-205 43.5q-148 0 -284 -69.5t-231.5 -182t-152.5 -259.5t-57 -298q0 -108 28 -202t82 -168.5t144 -117.5t205 -43q120 0 232.5 45t200.5 123.5t154.5 180t102 220t35.5 238.5z" />
<glyph unicode="&#x1e4d;" horiz-adv-x="1157" d="M817 1737l-43 26l156 162h90zM618 1421q-29 0 -53 -13t-38 -32.5t-20 -31.5t-9 -21h-52q1 7 7 23t21 39t35 43t53 34.5t71 14.5q43 0 79 -20t71.5 -40t76.5 -20q29 0 53.5 9.5t38.5 22.5t24.5 28.5t14 24t4.5 13.5h52q-2 -9 -8 -24t-22 -38t-37.5 -42.5t-57 -33.5 t-76.5 -14q-49 0 -89 19.5t-73.5 39t-65.5 19.5zM57 422q0 135 51.5 258t135.5 210.5t195.5 139t228.5 51.5q127 0 217.5 -61t133 -160t42.5 -225q0 -177 -84.5 -328.5t-224.5 -239t-299 -87.5q-191 0 -293.5 124.5t-102.5 317.5zM991 623q0 110 -36.5 197.5t-114 141.5 t-185.5 54q-99 0 -195 -45.5t-169 -123t-117.5 -186.5t-44.5 -229q0 -170 87.5 -278.5t248.5 -108.5q99 0 195 45t169 121t117.5 184.5t44.5 227.5z" />
<glyph unicode="&#x1e4e;" horiz-adv-x="1484" d="M932 2138l35 168h63l-35 -168h-63zM1178 2138l34 168h64l-35 -168h-63zM885 1804q-29 0 -53 -13t-38 -32.5t-20.5 -31.5t-9.5 -21h-51q1 10 11.5 32t31 51t58.5 50t85 21q43 0 79 -20t71.5 -40t76.5 -20q29 0 53.5 9.5t38.5 22.5t25 28.5t14.5 24t4.5 13.5h51 q-2 -9 -8 -24t-22 -38t-37.5 -42.5t-57 -33.5t-76.5 -14q-39 0 -73 12t-54 27t-47 27t-53 12zM102 584q0 172 66 334t175.5 281.5t258.5 192t307 72.5q105 0 192 -33t146.5 -89.5t100.5 -133.5t60 -163t19 -179q0 -114 -30 -226t-83 -208t-128.5 -178t-163.5 -140 t-191.5 -91t-209.5 -33q-104 0 -191 32.5t-147 88t-101.5 131.5t-60.5 162t-19 180zM1358 864q0 108 -28 202.5t-82 169t-144 118t-205 43.5q-148 0 -284 -69.5t-231.5 -182t-152.5 -259.5t-57 -298q0 -108 28 -202t82 -168.5t144 -117.5t205 -43q120 0 232.5 45 t200.5 123.5t154.5 180t102 220t35.5 238.5z" />
<glyph unicode="&#x1e4f;" horiz-adv-x="1157" d="M666 1755l34 168h64l-35 -168h-63zM911 1755l35 168h64l-35 -168h-64zM618 1421q-29 0 -53 -13t-38 -32.5t-20 -31.5t-9 -21h-52q1 7 7 23t21 39t35 43t53 34.5t71 14.5q43 0 79 -20t71.5 -40t76.5 -20q29 0 53.5 9.5t38.5 22.5t24.5 28.5t14 24t4.5 13.5h52 q-2 -9 -8 -24t-22 -38t-37.5 -42.5t-57 -33.5t-76.5 -14q-49 0 -89 19.5t-73.5 39t-65.5 19.5zM57 422q0 135 51.5 258t135.5 210.5t195.5 139t228.5 51.5q127 0 217.5 -61t133 -160t42.5 -225q0 -177 -84.5 -328.5t-224.5 -239t-299 -87.5q-191 0 -293.5 124.5 t-102.5 317.5zM991 623q0 110 -36.5 197.5t-114 141.5t-185.5 54q-99 0 -195 -45.5t-169 -123t-117.5 -186.5t-44.5 -229q0 -170 87.5 -278.5t248.5 -108.5q99 0 195 45t169 121t117.5 184.5t44.5 227.5z" />
<glyph unicode="&#x1e50;" horiz-adv-x="1484" d="M881 2261h88l90 -162l-55 -26zM733 1774l12 57h551l-12 -57h-551zM102 584q0 172 66 334t175.5 281.5t258.5 192t307 72.5q105 0 192 -33t146.5 -89.5t100.5 -133.5t60 -163t19 -179q0 -114 -30 -226t-83 -208t-128.5 -178t-163.5 -140t-191.5 -91t-209.5 -33 q-104 0 -191 32.5t-147 88t-101.5 131.5t-60.5 162t-19 180zM1358 864q0 108 -28 202.5t-82 169t-144 118t-205 43.5q-148 0 -284 -69.5t-231.5 -182t-152.5 -259.5t-57 -298q0 -108 28 -202t82 -168.5t144 -117.5t205 -43q120 0 232.5 45t200.5 123.5t154.5 180t102 220 t35.5 238.5z" />
<glyph unicode="&#x1e51;" horiz-adv-x="1157" d="M614 1878h88l91 -162l-56 -26zM467 1391l12 57h551l-12 -57h-551zM57 422q0 135 51.5 258t135.5 210.5t195.5 139t228.5 51.5q127 0 217.5 -61t133 -160t42.5 -225q0 -177 -84.5 -328.5t-224.5 -239t-299 -87.5q-191 0 -293.5 124.5t-102.5 317.5zM991 623 q0 110 -36.5 197.5t-114 141.5t-185.5 54q-99 0 -195 -45.5t-169 -123t-117.5 -186.5t-44.5 -229q0 -170 87.5 -278.5t248.5 -108.5q99 0 195 45t169 121t117.5 184.5t44.5 227.5z" />
<glyph unicode="&#x1e52;" horiz-adv-x="1484" d="M1073 2073l-43 26l156 162h90zM733 1774l12 57h551l-12 -57h-551zM102 584q0 172 66 334t175.5 281.5t258.5 192t307 72.5q105 0 192 -33t146.5 -89.5t100.5 -133.5t60 -163t19 -179q0 -114 -30 -226t-83 -208t-128.5 -178t-163.5 -140t-191.5 -91t-209.5 -33 q-104 0 -191 32.5t-147 88t-101.5 131.5t-60.5 162t-19 180zM1358 864q0 108 -28 202.5t-82 169t-144 118t-205 43.5q-148 0 -284 -69.5t-231.5 -182t-152.5 -259.5t-57 -298q0 -108 28 -202t82 -168.5t144 -117.5t205 -43q120 0 232.5 45t200.5 123.5t154.5 180t102 220 t35.5 238.5z" />
<glyph unicode="&#x1e53;" horiz-adv-x="1157" d="M807 1690l-43 26l156 162h90zM467 1391l12 57h551l-12 -57h-551zM57 422q0 135 51.5 258t135.5 210.5t195.5 139t228.5 51.5q127 0 217.5 -61t133 -160t42.5 -225q0 -177 -84.5 -328.5t-224.5 -239t-299 -87.5q-191 0 -293.5 124.5t-102.5 317.5zM991 623 q0 110 -36.5 197.5t-114 141.5t-185.5 54q-99 0 -195 -45.5t-169 -123t-117.5 -186.5t-44.5 -229q0 -170 87.5 -278.5t248.5 -108.5q99 0 195 45t169 121t117.5 184.5t44.5 227.5z" />
<glyph unicode="&#x1e5a;" horiz-adv-x="1269" d="M61 0l310 1454h569q95 0 167.5 -53.5t108 -136t35.5 -177.5q0 -186 -131 -342.5t-309 -175.5l223 -569h-82l-221 561h-479l-119 -561h-72zM776 627q107 0 202 68.5t148.5 172t53.5 209.5q0 128 -72 220t-184 92h-496l-162 -762h510zM416 -283l35 170h65l-35 -170h-65z " />
<glyph unicode="&#x1e5b;" horiz-adv-x="665" d="M256 1065h68l-58 -270q80 119 187.5 189t216.5 79q23 3 43 0l-15 -64q-142 -6 -263 -93t-193 -236l-142 -670h-69zM-20 -283l34 170h66l-35 -170h-65z" />
<glyph unicode="&#x1e5e;" horiz-adv-x="1269" d="M61 0l310 1454h569q95 0 167.5 -53.5t108 -136t35.5 -177.5q0 -186 -131 -342.5t-309 -175.5l223 -569h-82l-221 561h-479l-119 -561h-72zM776 627q107 0 202 68.5t148.5 172t53.5 209.5q0 128 -72 220t-184 92h-496l-162 -762h510zM199 -215l12 57h526l-12 -57h-526z " />
<glyph unicode="&#x1e5f;" horiz-adv-x="665" d="M256 1065h68l-58 -270q80 119 187.5 189t216.5 79q23 3 43 0l-15 -64q-142 -6 -263 -93t-193 -236l-142 -670h-69zM-238 -215l13 57h526l-12 -57h-527z" />
<glyph unicode="&#x1e60;" horiz-adv-x="1189" d="M827 1749l35 170h66l-35 -170h-66zM-6 211l51 53q83 -102 196 -156.5t273 -54.5q218 0 347.5 94.5t129.5 260.5q0 38 -8.5 69.5t-22.5 55.5t-40.5 44.5t-53.5 35.5t-71.5 30t-84.5 26.5t-102 26.5q-66 16 -103 26t-85.5 26.5t-74.5 31t-55.5 37t-43.5 48t-23.5 61 t-9.5 78.5q0 206 157.5 333t407.5 127q265 0 400 -172l-52 -53q-112 160 -352 160q-230 0 -357.5 -108t-127.5 -271q0 -35 8 -63t19.5 -49t37 -39.5t48.5 -31t68 -27t80 -24.5t99 -26q80 -21 129 -35.5t103 -36t84 -44t56.5 -54.5t37 -72.5t10.5 -93.5q0 -143 -76 -242.5 t-202 -145.5t-291 -46q-169 0 -288.5 53t-217.5 168z" />
<glyph unicode="&#x1e61;" horiz-adv-x="931" d="M600 1325l35 170h65l-34 -170h-66zM-29 147l47 48q127 -154 326 -154q161 0 266 75.5t105 198.5q0 29 -8 52t-27.5 41.5t-40.5 32t-58.5 27.5t-70 24t-86.5 24q-65 17 -100.5 27.5t-76 28.5t-59.5 37.5t-32 49t-13 68.5q0 112 61 194t158 121t216 39t199.5 -41.5 t109.5 -109.5l-51 -35q-29 60 -102.5 92.5t-170.5 32.5q-65 0 -126 -16.5t-112 -48.5t-81.5 -86.5t-30.5 -123.5q0 -30 10.5 -52t26.5 -37.5t49 -30t64.5 -24t87.5 -23.5q72 -19 115.5 -33t90.5 -35t72 -44t41 -57t16 -77q0 -164 -124.5 -258t-325.5 -94q-250 0 -365 167z " />
<glyph unicode="&#x1e62;" horiz-adv-x="1189" d="M-6 211l51 53q83 -102 196 -156.5t273 -54.5q218 0 347.5 94.5t129.5 260.5q0 38 -8.5 69.5t-22.5 55.5t-40.5 44.5t-53.5 35.5t-71.5 30t-84.5 26.5t-102 26.5q-66 16 -103 26t-85.5 26.5t-74.5 31t-55.5 37t-43.5 48t-23.5 61t-9.5 78.5q0 206 157.5 333t407.5 127 q265 0 400 -172l-52 -53q-112 160 -352 160q-230 0 -357.5 -108t-127.5 -271q0 -35 8 -63t19.5 -49t37 -39.5t48.5 -31t68 -27t80 -24.5t99 -26q80 -21 129 -35.5t103 -36t84 -44t56.5 -54.5t37 -72.5t10.5 -93.5q0 -143 -76 -242.5t-202 -145.5t-291 -46q-169 0 -288.5 53 t-217.5 168zM397 -283l35 170h66l-35 -170h-66z" />
<glyph unicode="&#x1e63;" horiz-adv-x="931" d="M-29 147l47 48q127 -154 326 -154q161 0 266 75.5t105 198.5q0 29 -8 52t-27.5 41.5t-40.5 32t-58.5 27.5t-70 24t-86.5 24q-65 17 -100.5 27.5t-76 28.5t-59.5 37.5t-32 49t-13 68.5q0 112 61 194t158 121t216 39t199.5 -41.5t109.5 -109.5l-51 -35q-29 60 -102.5 92.5 t-170.5 32.5q-65 0 -126 -16.5t-112 -48.5t-81.5 -86.5t-30.5 -123.5q0 -30 10.5 -52t26.5 -37.5t49 -30t64.5 -24t87.5 -23.5q72 -19 115.5 -33t90.5 -35t72 -44t41 -57t16 -77q0 -164 -124.5 -258t-325.5 -94q-250 0 -365 167zM266 -283l35 170h66l-35 -170h-66z" />
<glyph unicode="&#x1e64;" horiz-adv-x="1189" d="M856 2179l35 170h65l-34 -170h-66zM856 1731l-43 26l156 162h90zM-6 211l51 53q83 -102 196 -156.5t273 -54.5q218 0 347.5 94.5t129.5 260.5q0 38 -8.5 69.5t-22.5 55.5t-40.5 44.5t-53.5 35.5t-71.5 30t-84.5 26.5t-102 26.5q-66 16 -103 26t-85.5 26.5t-74.5 31 t-55.5 37t-43.5 48t-23.5 61t-9.5 78.5q0 206 157.5 333t407.5 127q265 0 400 -172l-52 -53q-112 160 -352 160q-230 0 -357.5 -108t-127.5 -271q0 -35 8 -63t19.5 -49t37 -39.5t48.5 -31t68 -27t80 -24.5t99 -26q80 -21 129 -35.5t103 -36t84 -44t56.5 -54.5t37 -72.5 t10.5 -93.5q0 -143 -76 -242.5t-202 -145.5t-291 -46q-169 0 -288.5 53t-217.5 168z" />
</font>
</defs>
</svg>
