<?xml version="1.0" standalone="no"?>
<!DOCTYPE svg PUBLIC "-//W3C//DTD SVG 1.1//EN" "http://www.w3.org/Graphics/SVG/1.1/DTD/svg11.dtd" >
<svg xmlns="http://www.w3.org/2000/svg" xmlns:xlink="http://www.w3.org/1999/xlink" version="1.1">
<metadata></metadata>
<defs>
<font id="rawlineitalic" horiz-adv-x="0" >
<font-face units-per-em="2048" ascent="1638" descent="-410" />
<missing-glyph horiz-adv-x="509" />
<glyph unicode="fi" horiz-adv-x="991" d="M266 956h-139l23 111h141l4 29q15 77 53 150t94 134t136 98.5t170 37.5q162 0 276 -97l-84 -100q-29 32 -86 53t-125 21q-114 0 -191 -88t-102 -205l-6 -33h508l-227 -1067h-140l203 956h-368l-203 -956h-140z" />
<glyph unicode="fl" horiz-adv-x="1144" d="M662 137q0 19 10 74l205 958q8 40 8 64q0 70 -40.5 115t-129.5 45q-108 0 -180.5 -83.5t-100.5 -215.5l-4 -27h209l-23 -111h-210l-203 -956h-140l203 956h-139l23 111h141l8 39q40 186 154 298t286 112q144 0 217.5 -64.5t73.5 -175.5q0 -41 -8 -80l-203 -956 q-4 -20 -4 -33q0 -39 21.5 -66.5t62.5 -27.5q13 0 30.5 2.5t33 5.5t29 6l22.5 5l8 3l-2 -115q-3 -3 -31 -10t-75.5 -14.5t-88.5 -7.5q-79 0 -121 41.5t-42 107.5z" />
<glyph unicode="&#xd;" />
<glyph unicode=" "  horiz-adv-x="509" />
<glyph unicode="&#x09;" horiz-adv-x="509" />
<glyph unicode="&#xa0;" horiz-adv-x="509" />
<glyph unicode="!" horiz-adv-x="507" d="M154 467l211 1001h139l-211 -1001h-139zM53 0l49 229h142l-51 -229h-140z" />
<glyph unicode="&#x22;" horiz-adv-x="587" d="M229 1069l84 397h123l-84 -397h-123zM420 1069l86 397h121l-84 -397h-123z" />
<glyph unicode="#" horiz-adv-x="1335" d="M1327 936h-254l-176 -401h260l-22 -111h-287l-186 -424h-119l190 424h-362l-187 -424h-118l190 424h-219l22 111h248l174 401h-254l25 104h278l183 414h116l-184 -414h363l180 414h119l-185 -414h228zM780 535l178 401h-360l-176 -401h358z" />
<glyph unicode="$" horiz-adv-x="1216" d="M1118 1182q-41 68 -124.5 109.5t-196.5 45.5l-117 -544q2 -1 7 -2.5t7 -2.5q99 -23 166.5 -48t123.5 -63t83 -92.5t27 -127.5q0 -112 -44 -201.5t-122.5 -146.5t-182.5 -88t-227 -33l-43 -199h-74l43 201q-284 18 -454 209l96 116q53 -79 156.5 -133.5t234.5 -64.5 l117 547q-2 1 -7 2t-7 2q-191 48 -280 114.5t-89 190.5q0 143 72.5 252.5t195 169t277.5 67.5l45 207h73l-43 -205q242 -9 379 -168zM367 1018q0 -83 60 -128t198 -83l112 530q-187 -9 -278.5 -95t-91.5 -224zM936 414q0 90 -69 142t-218 93l-114 -534q188 0 294.5 78 t106.5 221z" />
<glyph unicode="%" horiz-adv-x="1409" d="M197 1128q0 91 52 171.5t135.5 128t174.5 47.5q104 0 170 -70t66 -174q0 -136 -111.5 -240t-251.5 -104q-103 0 -169 69t-66 172zM14 55l684 688l686 719l58 -61l-694 -705l-676 -704zM688 1221q0 73 -41.5 122.5t-105.5 49.5q-90 0 -164 -78t-74 -174q0 -73 41.5 -123.5 t106.5 -50.5q89 0 163 78.5t74 175.5zM662 223q0 136 112 240t250 104q104 0 170 -69t66 -172q0 -91 -51.5 -171.5t-135 -127.5t-174.5 -47q-103 0 -170 69.5t-67 173.5zM1155 313q0 73 -42.5 123.5t-106.5 50.5q-90 0 -165 -79t-75 -175q0 -73 42 -122.5t107 -49.5 q90 0 165 77.5t75 174.5z" />
<glyph unicode="&#x26;" horiz-adv-x="1374" d="M1315 739h-201q-63 -229 -186 -409l231 -330h-176l-145 213q-102 -112 -220.5 -172.5t-238.5 -60.5q-151 0 -246.5 94.5t-95.5 242.5q0 80 28 151.5t83.5 133t120.5 112t155 105.5q-62 95 -88.5 162t-26.5 125q0 98 58.5 183t156.5 134.5t209 49.5q110 0 196.5 -58 t129.5 -158l-96 -86q-33 86 -101 139.5t-151 53.5q-107 0 -189 -72t-82 -166q0 -98 125 -276l295 -422q109 188 152 424h327zM408 94q95 0 190 55.5t176 155.5l-289 424q-155 -95 -233 -188.5t-78 -206.5q0 -110 66 -175t168 -65z" />
<glyph unicode="'" horiz-adv-x="395" d="M229 1067l84 399h123l-84 -399h-123z" />
<glyph unicode="(" horiz-adv-x="538" d="M557 1513l94 -51q-70 -83 -137 -180.5t-136.5 -221.5t-112 -259.5t-42.5 -253.5q0 -130 29.5 -284.5t81.5 -282.5l-115 -56q-60 141 -94.5 301t-34.5 307q0 105 25.5 210.5t63 194t104 195t125.5 186.5t149 195z" />
<glyph unicode=")" horiz-adv-x="538" d="M27 -76l-93 56q201 241 310.5 459.5t109.5 428.5q0 152 -32.5 322t-75.5 272l119 51q124 -339 124 -628q0 -124 -33 -247t-98.5 -244.5t-144 -231.5t-186.5 -238z" />
<glyph unicode="*" horiz-adv-x="641" d="M276 1118l111 127l-123 45l37 74l125 -53l27 149h84l-37 -149l149 53l4 -74l-143 -45l59 -127l-73 -45l-54 133l-112 -133z" />
<glyph unicode="+" horiz-adv-x="847" d="M762 784v-114h-254v-277h-129v277h-254v114h254v277h129v-277h254z" />
<glyph unicode="," horiz-adv-x="425" d="M8 -166l72 172h-47l41 195h133l-41 -195l-86 -172h-72z" />
<glyph unicode="-" horiz-adv-x="829" d="M104 494l27 129h569l-26 -129h-570z" />
<glyph unicode="." horiz-adv-x="385" d="M4 0l43 201h119l-43 -201h-119z" />
<glyph unicode="/" horiz-adv-x="1226" d="M1333 1454l-1229 -1454h-157l1231 1454h155z" />
<glyph unicode="0" horiz-adv-x="1347" d="M102 563q0 120 38 248t109 241.5t162.5 204.5t206.5 144t234 53q89 0 163 -35t123.5 -92.5t83.5 -134.5t49 -159t15 -167q0 -100 -27 -206.5t-75 -204t-118 -184.5t-151 -151.5t-178.5 -102t-197.5 -37.5q-88 0 -162 34t-124 91.5t-84.5 133.5t-50.5 157.5t-16 166.5z M1141 856q0 90 -19.5 172t-57 149.5t-99.5 107.5t-140 40q-83 0 -161.5 -36t-140.5 -96t-114 -139t-86.5 -165.5t-53.5 -174t-19 -165.5q0 -89 18 -166t54.5 -139.5t99 -98.5t143.5 -36q97 0 189 48.5t160.5 128t120.5 177.5t79 200t27 193z" />
<glyph unicode="1" horiz-adv-x="815" d="M27 127h262l252 1190q-46 -53 -158 -114.5t-184 -61.5l26 131q61 0 148.5 50.5t140 95t61.5 55.5h142l-285 -1346h246l-27 -127h-651z" />
<glyph unicode="2" horiz-adv-x="1138" d="M483 666q31 14 84 35t87.5 34.5t82 36.5t78.5 44t65 52t53.5 65t32.5 80t13 99q0 100 -61 164.5t-179 64.5q-91 0 -181.5 -37t-145.5 -79.5t-101 -91.5l-71 90q24 24 44 42.5t78 61t114 71t139.5 52t166.5 23.5q117 0 198.5 -47t118 -121t36.5 -168q0 -67 -15 -125 t-40 -102.5t-62.5 -84t-77.5 -68.5t-90.5 -56.5t-95.5 -48.5t-98 -44l-42 -18q-115 -49 -196.5 -102.5t-130.5 -112.5t-75.5 -117t-41.5 -131h760l-27 -127h-936q27 140 73 246.5t113 184.5t145.5 132.5t184.5 102.5z" />
<glyph unicode="3" horiz-adv-x="1142" d="M29 319l100 78q0 -128 82 -206t231 -78q107 0 201 41t151.5 115t57.5 163q0 120 -101.5 185t-285.5 65h-66l25 121h68q215 0 339.5 80t124.5 225q0 111 -72 175.5t-192 64.5q-117 0 -222.5 -58.5t-160.5 -148.5l-76 94q77 109 212.5 173.5t277.5 64.5q173 0 278 -96 t105 -249q0 -139 -90 -239t-258 -141q111 -23 174 -106.5t63 -199.5q0 -134 -85 -241.5t-215 -163t-273 -55.5q-180 0 -286.5 90.5t-106.5 246.5z" />
<glyph unicode="4" horiz-adv-x="1118" d="M598 0l82 389h-674l29 125l915 940h97l-199 -938h172l-29 -127h-172l-82 -389h-139zM721 516l153 721l-690 -721h537z" />
<glyph unicode="5" horiz-adv-x="1099" d="M8 260l107 70q33 -102 114.5 -163t190.5 -61t206 54.5t156.5 151.5t59.5 212q0 123 -71.5 200t-188.5 77q-90 0 -179.5 -43.5t-154.5 -120.5h-129q13 30 95 235t156.5 393.5t75.5 188.5h670l-29 -129h-563l-207 -522q130 121 306 121q162 0 263 -104t101 -269 q0 -120 -50 -227.5t-132.5 -182t-190 -118t-221.5 -43.5q-146 0 -248.5 75.5t-136.5 204.5z" />
<glyph unicode="6" horiz-adv-x="1204" d="M1094 567q0 173 -106 288.5t-275 115.5q-129 0 -248.5 -72t-188.5 -192q65 297 203 465.5t309 168.5q107 0 182 -62t95 -167l106 82q-31 126 -125 198t-229 72q-125 0 -238.5 -54.5t-200 -152t-150.5 -226t-97 -282t-33 -315.5q0 -211 104 -332.5t285 -121.5 q115 0 226 48t194.5 127t135 188t51.5 224zM231 414q0 113 64.5 216.5t167 164.5t211.5 61q124 0 203 -89t79 -222q0 -115 -64 -218t-166.5 -164t-211.5 -61q-123 0 -203 90t-80 222z" />
<glyph unicode="7" horiz-adv-x="1021" d="M940 1325h-737l26 129h961l-1010 -1454h-155z" />
<glyph unicode="8" horiz-adv-x="1167" d="M444 -16q-178 0 -286.5 102t-108.5 256q0 81 33 155t87.5 127.5t115.5 92t125 61.5q-74 35 -120 102t-46 152q0 95 48.5 177t125 134.5t167 81.5t177.5 29q70 0 134.5 -20.5t116 -58.5t82.5 -98t31 -132q0 -124 -88 -220t-215 -147q91 -36 148 -119t57 -190 q0 -104 -50 -196t-132 -154.5t-187 -98.5t-215 -36zM629 829q58 0 118.5 20t113.5 56t86.5 93t33.5 124q0 94 -71.5 149.5t-176.5 55.5q-86 0 -165.5 -34.5t-132 -102.5t-52.5 -152q0 -95 74.5 -152t171.5 -57zM602 719q-70 0 -142 -26.5t-131 -72.5t-96.5 -114t-37.5 -144 q0 -114 84.5 -183.5t197.5 -69.5q94 0 187.5 43.5t158 127.5t64.5 185q0 115 -85.5 184.5t-199.5 69.5z" />
<glyph unicode="9" horiz-adv-x="1204" d="M539 473q128 0 247.5 72t186.5 192q-65 -298 -202.5 -465.5t-309.5 -167.5q-107 0 -182.5 62.5t-94.5 165.5l-104 -80q31 -127 125 -199.5t229 -72.5q125 0 238 55t199.5 152.5t150.5 226.5t97.5 282t33.5 314q0 212 -104.5 333t-284.5 121q-115 0 -226.5 -47.5 t-195 -126.5t-135 -188t-51.5 -225q0 -173 106 -288.5t277 -115.5zM1022 1030q0 -113 -65 -216.5t-168 -164.5t-211 -61q-124 0 -204.5 90t-80.5 221q0 115 64.5 218.5t167 164.5t210.5 61q125 0 206 -90.5t81 -222.5z" />
<glyph unicode=":" horiz-adv-x="378" d="M180 860l43 201h119l-43 -201h-119zM-2 0l45 201h117l-43 -201h-119z" />
<glyph unicode=";" horiz-adv-x="389" d="M184 860l41 201h119l-43 -201h-117zM-20 -166l69 172h-47l41 195h133l-41 -195l-86 -172h-69z" />
<glyph unicode="&#x3c;" horiz-adv-x="1116" d="M61 565l859 516v-149l-656 -402l656 -399v-154l-859 512v76z" />
<glyph unicode="=" horiz-adv-x="964" d="M162 633v100h616v-100h-616zM162 397v101h616v-101h-616z" />
<glyph unicode="&#x3e;" horiz-adv-x="1116" d="M1016 489l-858 -512v154l655 399l-655 402v149l858 -516v-76z" />
<glyph unicode="?" horiz-adv-x="937" d="M254 414q29 132 85 212.5t153 135.5q21 12 71 37.5t80 42t72 48.5t65.5 64.5t41.5 82t18 108.5q0 100 -60 155.5t-151 55.5q-98 0 -194.5 -59t-158.5 -150l-81 61q78 123 204.5 194t255.5 71q134 0 223 -81t89 -229q0 -77 -20.5 -140t-44 -101.5t-78.5 -80t-86.5 -59.5 t-104.5 -56q-11 -6 -17 -9q-33 -17 -52 -28t-47 -30t-46 -40t-38 -50t-35 -68t-25 -87h-119zM170 0l47 219h117l-45 -219h-119z" />
<glyph unicode="@" horiz-adv-x="1644" d="M1446 616q0 110 -35.5 209t-100.5 175t-165 120.5t-221 44.5q-119 0 -237 -42t-218.5 -120t-178.5 -180t-122.5 -229.5t-44.5 -261.5q0 -159 61.5 -286t178.5 -201t270 -74q144 0 311 77l10 -65q-171 -82 -342 -82q-247 0 -404 175t-157 450q0 126 36.5 247t99.5 219.5 t149.5 182t184.5 140.5t206 88.5t213 31.5q131 0 241 -48.5t183 -131t113.5 -190.5t40.5 -228q0 -74 -14 -160.5t-46 -177.5t-77 -164.5t-112.5 -120.5t-146.5 -47q-129 0 -129 131q0 38 4 58q-69 -68 -160 -109t-180 -41q-141 0 -227 105.5t-86 263.5q0 142 69.5 271.5 t184 207.5t240.5 78q101 0 171.5 -51.5t102.5 -139.5l37 181h92l-154 -719q-10 -46 -10 -80q0 -80 70 -80q83 0 154 96.5t108 227t37 249.5zM1024 319l59 316q-30 104 -95.5 157.5t-153.5 53.5q-95 0 -185 -60t-148.5 -164.5t-58.5 -222.5q0 -134 73.5 -221.5t182.5 -87.5 q98 0 194.5 68t131.5 161z" />
<glyph unicode="A" horiz-adv-x="1333" d="M791 1454h122l263 -1454h-152l-80 455h-612l-271 -455h-153zM936 567l-119 719l-432 -719h551z" />
<glyph unicode="B" horiz-adv-x="1312" d="M358 1454h668q115 0 180.5 -87.5t65.5 -209.5q0 -130 -78 -244t-203 -168q90 -30 139.5 -109t49.5 -185q0 -95 -41 -180t-107.5 -143.5t-153.5 -93t-178 -34.5h-651zM829 793q114 0 204.5 99.5t90.5 225.5q0 90 -46.5 150.5t-123.5 60.5h-481l-115 -536h471zM727 125 q119 0 215 101t96 227q0 94 -49 158.5t-131 64.5h-524l-117 -551h510z" />
<glyph unicode="C" horiz-adv-x="1343" d="M96 592q0 122 37.5 247t110 236t169.5 198t226.5 138t271.5 51q190 0 306 -86.5t153 -230.5l-121 -66q-73 254 -356 254q-121 0 -227.5 -43.5t-183 -117t-132 -167.5t-83 -197t-27.5 -204q0 -134 46.5 -243.5t140.5 -176.5t220 -67q125 0 252.5 68.5t216.5 201.5l107 -61 q-69 -110 -173 -188.5t-212.5 -114t-216.5 -35.5q-125 0 -226.5 51.5t-165.5 137t-98.5 192.5t-34.5 223z" />
<glyph unicode="D" horiz-adv-x="1413" d="M358 1454h471q132 0 235 -43t167 -119t96.5 -176t32.5 -219q0 -253 -109 -458.5t-301.5 -322t-429.5 -116.5h-471zM547 127q150 0 277 61.5t211 165t130.5 238t46.5 282.5q0 205 -106.5 329t-304.5 124h-328l-256 -1200h330z" />
<glyph unicode="E" horiz-adv-x="1191" d="M358 1454h912l-27 -127h-770l-113 -524h672l-24 -121h-672l-119 -555h789l-27 -127h-930z" />
<glyph unicode="F" horiz-adv-x="1171" d="M358 1454h906l-27 -127h-764l-113 -534h646l-27 -119h-645l-144 -674h-141z" />
<glyph unicode="G" horiz-adv-x="1406" d="M870 604l23 111h426l-152 -715h-123l46 213q-235 -223 -486 -223q-117 0 -214.5 51t-161 136t-98 194t-34.5 227q0 163 67.5 321.5t178 278t262.5 193t311 73.5q190 0 304 -85t153 -232l-127 -74q-35 130 -127 196t-231 66q-105 0 -205 -41.5t-178.5 -113t-138.5 -163.5 t-92.5 -198.5t-32.5 -212.5q0 -134 48 -244t141 -176.5t214 -66.5q235 0 479 241l52 244h-304z" />
<glyph unicode="H" horiz-adv-x="1452" d="M358 1454h142l-138 -647h809l138 647h143l-309 -1454h-144l146 680h-809l-146 -680h-141z" />
<glyph unicode="I" horiz-adv-x="501" d="M358 1452h142l-310 -1452h-141z" />
<glyph unicode="J" horiz-adv-x="958" d="M-76 68l64 114q39 -34 103 -56t145 -22q46 0 85.5 8.5t72.5 23.5t61 40.5t50.5 54t43 70t36.5 82.5t32 98t29 110t28 124l157 737h144l-158 -737q-23 -106 -43 -183t-48.5 -159t-60.5 -138t-76.5 -108t-98.5 -83t-124.5 -49t-156.5 -18q-170 0 -285 91z" />
<glyph unicode="K" horiz-adv-x="1259" d="M358 1452h142l-181 -844l932 846h160l-700 -639l419 -815h-157l-369 731l-317 -285l-97 -446h-141z" />
<glyph unicode="L" horiz-adv-x="1140" d="M358 1454h142l-283 -1327h795l-27 -127h-936z" />
<glyph unicode="M" horiz-adv-x="1720" d="M358 1454h148l321 -995l746 995h147l-309 -1454h-143l254 1194l-693 -924h-84l-299 924l-256 -1194h-141z" />
<glyph unicode="N" horiz-adv-x="1515" d="M358 1454h111l647 -1210l256 1208h141l-309 -1452h-121l-641 1188l-252 -1188h-141z" />
<glyph unicode="O" horiz-adv-x="1478" d="M94 588q0 166 69 327t181.5 281t264 194t309.5 74q123 0 222.5 -50.5t161.5 -135.5t95 -192t33 -224q0 -165 -68.5 -325t-180 -280t-262.5 -193.5t-309 -73.5q-123 0 -223 49.5t-163 133.5t-96.5 190.5t-33.5 224.5zM1286 852q0 97 -25.5 183t-73.5 153t-125 106t-173 39 q-106 0 -206 -41.5t-179 -114t-139 -165t-92.5 -199.5t-32.5 -213q0 -98 25.5 -183.5t74 -152.5t125.5 -106t174 -39q106 0 206 42t178.5 115t138.5 165.5t92 199t32 211.5z" />
<glyph unicode="P" horiz-adv-x="1226" d="M358 1454h570q99 0 175.5 -55t114 -140t37.5 -182t-41 -194.5t-109 -173.5t-162.5 -124t-194.5 -48h-443l-115 -537h-141zM766 664q91 0 171.5 59t126.5 151.5t46 190.5q0 112 -60.5 187t-154.5 75h-422l-141 -663h434z" />
<glyph unicode="Q" horiz-adv-x="1476" d="M1430 862q0 -188 -85.5 -364.5t-230.5 -304.5l117 -193h-144l-71 119q-190 -129 -406 -129q-123 0 -223 49.5t-163 133.5t-96.5 190.5t-33.5 224.5q0 166 69 327t181.5 281t264 194t309.5 74q123 0 222.5 -50.5t161.5 -135.5t95 -192t33 -224zM639 119q166 0 315 102 l-135 225h142l88 -147q110 108 173.5 255.5t63.5 297.5q0 97 -25.5 183.5t-73.5 154t-125 106.5t-173 39q-131 0 -253 -65t-208 -169t-137 -236.5t-51 -264.5q0 -98 25.5 -183.5t74 -152.5t125.5 -106t174 -39z" />
<glyph unicode="R" horiz-adv-x="1286" d="M49 0l309 1454h584q99 0 174.5 -55t113.5 -140.5t38 -183.5q0 -175 -121 -327.5t-289 -186.5l219 -561h-162l-208 537h-402l-115 -537h-141zM780 664q90 0 169.5 59t125 150t45.5 186q0 111 -60 189.5t-153 78.5h-434l-141 -663h448z" />
<glyph unicode="S" horiz-adv-x="1198" d="M-18 199l96 116q62 -85 179.5 -142.5t268.5 -57.5q185 0 293.5 79t108.5 216q0 45 -16.5 80t-42.5 59.5t-75 46.5t-97.5 37t-125.5 35q-78 21 -130 39t-101 43.5t-76.5 56t-44 73t-16.5 97.5q0 147 78 259t211 170t299 58q262 0 411 -168l-92 -114q-44 70 -135.5 112.5 t-210.5 42.5q-198 0 -302 -88.5t-104 -228.5q0 -41 14 -71.5t36.5 -52.5t67.5 -41.5t89.5 -33.5t120.5 -33q83 -21 139.5 -39.5t109 -46t83.5 -61t49 -80.5t18 -108q0 -115 -46 -205t-126.5 -146t-185.5 -85t-229 -29q-323 0 -516 211z" />
<glyph unicode="T" horiz-adv-x="1191" d="M672 1327h-488l27 127h1120l-26 -127h-490l-283 -1327h-141z" />
<glyph unicode="U" horiz-adv-x="1482" d="M154 471q0 116 28 250l156 733h141l-155 -733q-27 -132 -27 -227q0 -82 17.5 -147.5t55.5 -118t104.5 -81t158.5 -28.5q100 0 186 34.5t147 92t110 137t79 162.5t49 176l156 733h141l-153 -733q-26 -121 -68 -227t-106 -199.5t-144.5 -160.5t-188 -105.5t-231.5 -38.5 t-214 37t-142 104.5t-76 151.5t-24 188z" />
<glyph unicode="V" horiz-adv-x="1327" d="M199 1454h149l217 -1276l756 1276h149l-880 -1454h-127z" />
<glyph unicode="W" horiz-adv-x="2041" d="M195 1454h153l221 -1288l400 657l-109 621h135l82 -516l305 516h136l-373 -621l121 -657l766 1288h157l-895 -1454h-123l-135 719l-442 -719h-125z" />
<glyph unicode="X" horiz-adv-x="1236" d="M561 717l-373 737h162l314 -635l581 635h158l-686 -737l360 -717h-157l-302 614l-561 -614h-161z" />
<glyph unicode="Y" horiz-adv-x="1243" d="M526 545l-340 909h158l281 -782l614 782h156l-729 -913l-115 -541h-141z" />
<glyph unicode="Z" horiz-adv-x="1220" d="M-49 113l1188 1214h-914l27 127h1081l-24 -113l-1176 -1214h916l-27 -127h-1096z" />
<glyph unicode="[" horiz-adv-x="514" d="M29 -82l340 1598h237l-24 -117h-109l-291 -1364h111l-25 -117h-239z" />
<glyph unicode="\" horiz-adv-x="1093" d="M377 1454l536 -1454h-155l-539 1454h158z" />
<glyph unicode="]" horiz-adv-x="512" d="M-51 -82l24 117h109l291 1364h-109l25 117h237l-338 -1598h-239z" />
<glyph unicode="^" horiz-adv-x="1107" d="M106 621l406 833h119l403 -833h-123l-340 702l-346 -702h-119z" />
<glyph unicode="_" horiz-adv-x="1007" d="M-29 -127l27 127h741l-26 -127h-742z" />
<glyph unicode="`" horiz-adv-x="466" d="M307 1495h144l77 -190l-100 -35z" />
<glyph unicode="a" horiz-adv-x="1224" d="M51 426q0 166 83 319t220.5 246.5t288.5 93.5q123 0 208.5 -67.5t123.5 -173.5l49 223h139l-188 -885q-4 -16 -4 -26q0 -33 39 -33l-27 -123q-10 -1 -28.5 -3.5t-26.5 -2.5q-45 3 -69.5 25t-24.5 57q0 18 22 131q-82 -104 -197.5 -165.5t-228.5 -61.5q-115 0 -203 62 t-132 162.5t-44 221.5zM874 367l68 329q-14 110 -96.5 188.5t-190.5 78.5q-118 0 -225.5 -77.5t-170 -197t-62.5 -242.5q0 -144 81 -244t209 -100q105 0 227 80t160 185z" />
<glyph unicode="b" horiz-adv-x="1212" d="M186 207l-45 -207h-123l318 1495h139l-139 -651q204 241 432 241q87 0 157 -36.5t113.5 -98t66.5 -139t23 -162.5q0 -130 -52.5 -254t-137 -214.5t-195.5 -145.5t-223 -55q-124 0 -210.5 62.5t-123.5 164.5zM981 625q0 140 -75 239t-204 99q-108 0 -210 -72.5 t-187 -188.5l-74 -354q6 -105 89 -175.5t196 -70.5q116 0 224.5 74.5t174.5 196.5t66 252z" />
<glyph unicode="c" horiz-adv-x="1077" d="M51 432q0 170 85 320.5t232.5 241.5t319.5 91q145 0 239 -67.5t124 -186.5l-144 -43q-26 85 -88 130t-151 45t-175.5 -41t-152 -109.5t-105.5 -164t-40 -197.5q0 -151 78.5 -250t203.5 -99q97 0 195 54.5t135 128.5l129 -41q-66 -116 -198.5 -190t-276.5 -74 q-188 0 -299 129t-111 323z" />
<glyph unicode="d" horiz-adv-x="1224" d="M51 426q0 166 83 319t221 246.5t290 93.5q120 0 206.5 -67.5t123.5 -173.5l139 651h139l-278 -1313q-4 -20 -4 -24q0 -35 39 -35l-27 -123q-54 -4 -57 -4q-43 1 -67.5 24t-24.5 58q0 26 22 129q-81 -104 -197 -165.5t-227 -61.5q-116 0 -204 62t-132.5 162.5t-44.5 221.5 zM874 367l68 329q-13 110 -98.5 188.5t-188.5 78.5q-120 0 -227 -77t-169 -196t-62 -241q0 -146 81 -246.5t211 -100.5q66 0 145 35.5t147 97.5t93 132z" />
<glyph unicode="e" horiz-adv-x="1093" d="M465 481q-81 0 -268 11q-4 -40 -4 -60q0 -149 76 -247.5t218 -98.5q100 0 198.5 55t150.5 144l114 -35q-74 -121 -208 -195.5t-279 -74.5q-191 0 -301.5 128.5t-110.5 323.5q0 125 49 243.5t133 209t204 145.5t253 55q148 0 246 -75t98 -211q0 -318 -569 -318zM680 977 q-118 0 -216 -56t-158 -140.5t-89 -188.5q163 -10 254 -10q436 0 436 219q0 88 -64 132t-163 44z" />
<glyph unicode="f" horiz-adv-x="659" d="M266 956h-139l23 111h141l4 29q38 194 144.5 307t246.5 113q120 0 201 -68l-64 -100q-21 21 -58.5 34t-76.5 13q-92 0 -156.5 -76t-95.5 -219l-6 -33h277l-23 -111h-278l-295 -1390h-140z" />
<glyph unicode="g" horiz-adv-x="1212" d="M-68 -215l99 68q37 -98 124 -148.5t205 -50.5q155 0 276.5 89t156.5 253l45 211q-77 -101 -192 -161t-226 -60q-113 0 -199 62t-129 161t-43 217q0 123 49.5 243.5t130.5 211.5t192.5 147.5t229.5 56.5q231 0 338 -241l47 223h123l-227 -1071q-22 -108 -80 -195.5 t-138.5 -143t-176.5 -85t-199 -29.5q-167 0 -264 62.5t-142 179.5zM872 367l70 329q-17 115 -99.5 191t-189.5 76q-123 0 -231 -80t-168.5 -198.5t-60.5 -235.5q0 -145 81.5 -246t210.5 -101q114 0 231 82t156 183z" />
<glyph unicode="h" horiz-adv-x="1144" d="M336 1495h139l-143 -670q86 120 208 190t246 70q244 0 244 -272q0 -92 -22 -188l-131 -625h-140l127 596q19 112 19 156q0 206 -174 206q-110 0 -231 -88t-183 -217l-137 -653h-140z" />
<glyph unicode="i" horiz-adv-x="436" d="M336 1495h139l-43 -205h-139zM244 1067h139l-225 -1067h-140z" />
<glyph unicode="j" horiz-adv-x="450" d="M348 1495h139l-45 -205h-139zM-418 -291l88 94q39 -49 131 -49q68 0 134 56t83 135l240 1122h139l-237 -1114q-30 -138 -140.5 -231t-230.5 -93q-141 0 -207 80z" />
<glyph unicode="k" horiz-adv-x="1097" d="M1049 872q0 -133 -98.5 -240.5t-280.5 -168.5l239 -463h-151l-254 522q198 41 307 132.5t109 199.5q0 60 -35 89.5t-97 29.5q-132 0 -274 -120t-242 -314l-114 -539h-140l318 1495h139l-156 -731q242 323 504 323q111 0 168.5 -57t57.5 -158z" />
<glyph unicode="l" horiz-adv-x="540" d="M57 137q0 13 9 58l274 1300h139l-266 -1253q-4 -28 -4 -37q0 -43 25 -66.5t71 -23.5q55 0 113 22l-4 -112q-40 -15 -97 -26t-98 -11q-75 0 -118.5 39.5t-43.5 109.5z" />
<glyph unicode="m" horiz-adv-x="1798" d="M244 1067h129l-54 -242q87 121 203.5 190.5t235.5 69.5q120 0 183 -73t60 -205q88 134 206 206t243 72q238 0 238 -262q0 -82 -25 -198l-133 -625h-139l125 596q20 90 20 166q0 196 -162 196q-113 0 -220.5 -85t-172.5 -222l-137 -651h-139l124 596q23 112 23 170 q0 192 -162 192q-113 0 -220 -83.5t-175 -221.5l-137 -653h-140z" />
<glyph unicode="n" horiz-adv-x="1144" d="M244 1067h129l-54 -242q87 117 219 188.5t265 71.5q231 0 231 -254q0 -79 -26 -206l-131 -625h-140l127 596q21 119 21 174q0 188 -160 188q-117 0 -241.5 -87.5t-188.5 -217.5l-137 -653h-140z" />
<glyph unicode="o" horiz-adv-x="1173" d="M49 428q0 176 85.5 328t230 240.5t309.5 88.5q101 0 180.5 -35t130 -97t76.5 -143t26 -175q0 -176 -84.5 -327t-228.5 -239.5t-311 -88.5q-102 0 -182 35t-130 96.5t-76 142t-26 174.5zM944 614q0 154 -77.5 251.5t-217.5 97.5q-86 0 -168.5 -40t-146 -108t-102.5 -165 t-39 -204q0 -154 76.5 -249t217.5 -95q87 0 170 39.5t146 106.5t102 163t39 203z" />
<glyph unicode="p" horiz-adv-x="1214" d="M246 1067h123l-43 -207q84 102 197.5 163.5t226.5 61.5q115 0 202.5 -63t131.5 -163.5t44 -221.5q0 -123 -48 -243t-127.5 -211t-189 -147t-226.5 -56q-122 0 -207.5 66.5t-124.5 174.5l-139 -657h-140zM983 614q0 146 -81.5 247.5t-211.5 101.5q-65 0 -145 -36 t-147.5 -98t-92.5 -131l-69 -327q22 -117 100 -193t188 -76q120 0 227.5 77t169.5 195.5t62 239.5z" />
<glyph unicode="q" horiz-adv-x="1212" d="M842 221q-200 -241 -436 -241q-165 0 -261 126.5t-96 311.5q0 171 89 326.5t231.5 248t294.5 92.5q115 0 202 -63t125 -164l43 209h125l-317 -1503h-140zM870 354l72 340q-3 108 -83 188.5t-191 80.5q-120 0 -231 -77t-176.5 -198.5t-65.5 -247.5q0 -144 76 -241t204 -97 q110 0 212.5 70t182.5 182z" />
<glyph unicode="r" horiz-adv-x="702" d="M244 1067h131l-56 -256q80 116 183 185t205 73q25 0 49 -4l-27 -121q-133 -5 -248.5 -78.5t-183.5 -201.5l-139 -664h-140z" />
<glyph unicode="s" horiz-adv-x="958" d="M-41 139l82 94q134 -143 330 -143q138 0 224.5 61.5t86.5 161.5q0 22 -6.5 40t-14.5 31.5t-28.5 26.5t-36 21.5t-49.5 19.5t-56 17.5t-69 19.5q-69 19 -107 32t-79 32t-60.5 40.5t-32 53.5t-12.5 74q0 109 61 192.5t163.5 127.5t228.5 44q117 0 205 -39t135 -106l-86 -82 q-83 119 -267 119q-129 0 -216 -57.5t-87 -165.5q0 -64 44 -92t171 -62q72 -20 119.5 -35.5t93 -38.5t71 -48.5t41 -61.5t15.5 -82q0 -157 -128.5 -255.5t-336.5 -98.5q-127 0 -231 41t-168 118z" />
<glyph unicode="t" horiz-adv-x="657" d="M98 141q0 25 6 52l162 763h-141l25 111h139l78 360h139l-78 -360h234l-25 -111h-231l-148 -694q-10 -48 -10 -57q0 -43 27.5 -65.5t70.5 -22.5q79 0 164 47l12 -113q-31 -22 -101 -42.5t-145 -20.5q-80 0 -129 39.5t-49 113.5z" />
<glyph unicode="u" horiz-adv-x="1165" d="M76 254q0 73 22 186l135 627h138l-127 -602q-21 -91 -21 -160q0 -203 176 -203q116 0 232.5 80t189.5 213l144 672h139l-186 -870q-1 -8 -4 -22t-3 -17q0 -35 39 -35l-26 -123q-55 -4 -58 -4q-42 1 -65 22.5t-23 57.5t29 166q-93 -124 -220.5 -193t-260.5 -69 q-250 0 -250 274z" />
<glyph unicode="v" horiz-adv-x="1005" d="M119 1067h145l131 -938q176 226 302 468t188 470h135q-154 -538 -582 -1067h-149z" />
<glyph unicode="w" horiz-adv-x="1546" d="M109 1067h143l172 -938q153 181 281 406l-123 532h143l78 -354q86 177 137 354h133q-75 -259 -229 -530l88 -408q177 226 304.5 467.5t190.5 470.5h136q-157 -538 -588 -1067h-150l-82 377q-133 -211 -276 -377h-150z" />
<glyph unicode="x" horiz-adv-x="985" d="M397 530l-272 537h149l209 -418l9 -31l22 29l389 420h150l-500 -537l272 -530h-149l-209 416l-12 28l-21 -26l-385 -418h-151z" />
<glyph unicode="y" horiz-adv-x="993" d="M-74 -346q127 20 189.5 64t140.5 165l68 101l-220 1083h146l172 -938l84 137q178 290 256 453t127 348h137q-56 -200 -138 -366.5t-284 -489.5l-166 -264q-142 -228 -245 -313.5t-248 -92.5z" />
<glyph unicode="z" horiz-adv-x="954" d="M-53 94l858 869h-658l23 104h813l-18 -94l-854 -869h669l-24 -104h-828z" />
<glyph unicode="{" horiz-adv-x="514" d="M477 1399l-115 -535q-14 -75 -79 -127q28 -30 28 -92q0 -25 -2 -35l-119 -557h107l-25 -116h-190q-33 0 -33 38q0 15 2 23l123 575q2 10 2 33q0 32 -14 54.5t-41 25.5l22 107q37 0 66 37.5t35 70.5l116 553q7 33 25.5 47.5t32.5 14.5h190l-24 -117h-107z" />
<glyph unicode="|" horiz-adv-x="589" d="M244 -266v1853h123v-1853h-123z" />
<glyph unicode="}" horiz-adv-x="512" d="M264 1399l23 117h190q11 0 23 -10t12 -33q0 -13 -2 -19l-119 -553q-4 -16 -4 -27q0 -33 13.5 -57t43.5 -24l-22 -107q-37 -4 -64.5 -37.5t-35.5 -75.5l-121 -575q-7 -32 -25 -46.5t-35 -14.5h-190l24 116h109l119 557q6 29 26 65.5t52 61.5q-29 39 -29 90q0 17 4 37 l115 535h-107z" />
<glyph unicode="~" horiz-adv-x="1007" d="M352 705q41 0 83.5 -18.5t72.5 -41t69.5 -41t75.5 -18.5q29 0 55 10t43.5 24.5t30.5 30t19 26.5t6 15h86q-1 -6 -10.5 -25.5t-32 -49.5t-51 -57t-72.5 -46.5t-92 -19.5q-44 0 -88.5 18.5t-74.5 40.5t-67 40.5t-69 18.5q-42 0 -77.5 -29.5t-50.5 -56t-15 -32.5h-89 q2 10 12.5 32t32.5 53.5t49.5 59t68.5 47t85 19.5z" />
<glyph unicode="&#xa1;" horiz-adv-x="505" d="M502 1464l-47 -229h-144l51 229h140zM403 997l-213 -1001h-139l213 1001h139z" />
<glyph unicode="&#xa2;" horiz-adv-x="1105" d="M360 -246l50 228q-160 13 -255.5 145t-95.5 305q0 113 45 225.5t121.5 202t186 150.5t231.5 73l51 238h74l-51 -238q275 -9 344 -252l-143 -43q-51 160 -228 170l-180 -854q83 5 178 56.5t129 124.5l129 -41q-47 -83 -133 -145.5t-171.5 -90.5t-158.5 -28l-49 -226h-74z M436 111l178 843q-113 -11 -209.5 -91.5t-149 -193t-52.5 -223.5q0 -127 63.5 -222t169.5 -113z" />
<glyph unicode="&#xa3;" horiz-adv-x="978" d="M694 1464q105 0 187.5 -57.5t122.5 -157.5l-99 -86q-29 85 -94 135t-145 50q-109 0 -195 -86.5t-86 -204.5q0 -42 10 -88.5t29 -109.5t27 -97h348l-25 -111h-307q2 -12 2 -35q0 -87 -21 -151.5t-86.5 -149.5t-193.5 -204q74 18 145 18q56 0 140 -18.5t129 -18.5 q68 0 180 37l12 -106q-114 -54 -225 -54q-57 0 -156 24.5t-160 24.5q-100 0 -219 -34l-14 102q205 178 273.5 282.5t68.5 233.5q0 33 -2 49h-225l24 111h180q-6 25 -25.5 91t-28.5 111t-9 89q0 108 63 204t164.5 151.5t210.5 55.5z" />
<glyph unicode="&#xa4;" horiz-adv-x="1150" d="M358 983q93 80 230 80q128 0 231 -80l144 145l69 -67l-147 -148q71 -96 71 -225q0 -127 -73 -225l149 -148l-61 -59l-152 141q-96 -80 -231 -80q-131 0 -234 80l-147 -141l-60 59l146 146q-74 104 -74 227q0 130 72 227l-144 146l68 67zM588 416q104 0 178 80t74 194 q0 115 -73.5 194t-178.5 79t-178.5 -80.5t-73.5 -196.5q0 -112 74 -191t178 -79z" />
<glyph unicode="&#xa5;" horiz-adv-x="1331" d="M872 750h164l-20 -99h-219l-88 -110l-13 -56h285l-20 -98h-285l-82 -387h-143l81 387h-280l22 98h281l12 60l-39 106h-219l21 99h168l-267 704h156l279 -782l614 782h158z" />
<glyph unicode="&#xa6;" horiz-adv-x="577" d="M360 1587v-833h-122v833h122zM360 567v-833h-122v833h122z" />
<glyph unicode="&#xa7;" horiz-adv-x="1001" d="M827 254q0 -85 -31.5 -158t-82 -122.5t-114 -85t-128.5 -52t-125 -16.5q-222 0 -350 186l110 86q56 -71 119 -105t144 -34q73 0 143 31t119 93.5t49 141.5q0 35 -12.5 61t-31.5 41.5t-48 25.5t-55 14t-60 6q-149 8 -235 76.5t-86 193.5q0 70 29 133t69 104 q-26 23 -41.5 70.5t-15.5 104.5q0 89 42.5 168t110 132t150 84t163.5 31q135 0 208.5 -53.5t111.5 -140.5l-119 -51q-19 62 -80.5 90t-140.5 28q-72 0 -140.5 -31.5t-115.5 -94.5t-47 -142q0 -161 213 -164q65 0 122.5 -14.5t105.5 -44t76 -81.5t28 -120q0 -70 -32 -138 t-75 -108q53 -39 53 -145zM653 440q39 28 65.5 79.5t26.5 103.5q0 59 -34.5 98.5t-80.5 54.5t-100 15q-98 0 -159 28q-35 -30 -59.5 -79t-24.5 -103q0 -58 27 -94t72 -50.5t91.5 -20.5t98 -13t77.5 -19z" />
<glyph unicode="&#xa8;" horiz-adv-x="618" d="M264 1296l41 193h119l-41 -193h-119zM559 1296l41 193h117l-39 -193h-119z" />
<glyph unicode="&#xa9;" horiz-adv-x="1730" d="M135 727q0 156 57 293t156.5 234.5t239 153.5t299.5 56t300 -56t240 -153.5t157.5 -234.5t57.5 -293q0 -157 -57.5 -294.5t-157.5 -235.5t-240 -154.5t-300 -56.5t-299.5 56.5t-239 154.5t-156.5 235.5t-57 294.5zM1571 723q0 143 -52 268t-142.5 214.5t-217.5 140.5 t-272 51q-193 0 -349 -87t-244.5 -241t-88.5 -344q0 -189 88 -343t244 -241.5t350 -87.5q191 0 347 84t246.5 237.5t90.5 348.5zM424 727q0 70 17.5 138t55.5 129.5t92 108.5t131.5 75t168.5 28q137 0 242.5 -59.5t150.5 -167.5l-133 -43q-20 43 -52 73.5t-69.5 45.5 t-71 21.5t-67.5 6.5q-78 0 -141 -31t-101.5 -82.5t-59 -114t-20.5 -128.5q0 -81 30.5 -149.5t78.5 -112t105.5 -68t113.5 -24.5q79 0 157.5 43t110.5 112l133 -39q-32 -87 -141.5 -162t-253.5 -75q-125 0 -233 57.5t-176 167.5t-68 250z" />
<glyph unicode="&#xaa;" horiz-adv-x="847" d="M154 893q0 115 98.5 189.5t243.5 74.5q115 0 188 -37l12 58q6 30 6 51q0 65 -39 102t-110 37q-103 0 -240 -84l-22 76q155 94 289 94q116 0 178.5 -53.5t62.5 -153.5q0 -43 -8 -82l-63 -293q-2 -6 -2 -16q0 -26 30 -29l-22 -106q-49 -3 -60 10q-63 0 -63 49l8 62 q-61 -64 -139 -98.5t-160 -34.5q-84 0 -136 52.5t-52 131.5zM645 942l23 107q-60 32 -168 32q-99 0 -164.5 -45t-65.5 -116q0 -52 34 -85.5t89 -33.5q81 0 160.5 43t91.5 98z" />
<glyph unicode="&#xab;" horiz-adv-x="1132" d="M74 565l561 365l-25 -121l-430 -279l312 -274l-27 -121l-408 354zM510 565l563 365l-26 -121l-431 -279l314 -274l-27 -121l-407 354z" />
<glyph unicode="&#xac;" horiz-adv-x="1150" d="M1036 745l-106 -487h-119l76 360h-740l29 127h860z" />
<glyph unicode="&#xad;" horiz-adv-x="1122" d="M104 494l27 129h860l-26 -129h-861z" />
<glyph unicode="&#xae;" horiz-adv-x="1730" d="M135 727q0 156 57 293t156.5 234.5t239 153.5t299.5 56t300 -56t240 -153.5t157.5 -234.5t57.5 -293q0 -157 -57.5 -294.5t-157.5 -235.5t-240 -154.5t-300 -56.5t-299.5 56.5t-239 154.5t-156.5 235.5t-57 294.5zM1569 725q0 189 -88 343t-244 241.5t-350 87.5 q-192 0 -347.5 -87.5t-243 -241t-87.5 -341.5q0 -190 87 -344.5t242.5 -243t348.5 -88.5q191 0 346.5 84t245.5 238.5t90 351.5zM575 1188h392q116 0 195 -90.5t79 -202.5q0 -101 -58 -179.5t-151 -97.5l228 -358h-119l-219 344h-240v-344h-107v928zM965 698q82 0 127 55 t45 142q0 84 -51 139.5t-128 55.5h-276v-392h283z" />
<glyph unicode="&#xaf;" horiz-adv-x="768" d="M276 1356l21 96h563l-20 -96h-564z" />
<glyph unicode="&#xb0;" horiz-adv-x="530" d="M240 1276q0 79 60.5 143t143.5 64q59 0 95 -38.5t36 -98.5q0 -83 -61 -143t-143 -60q-58 0 -94.5 37t-36.5 96zM496 1329q0 33 -18.5 52.5t-49.5 19.5q-41 0 -73.5 -31.5t-32.5 -73.5q0 -34 18 -53.5t49 -19.5q38 0 72.5 32.5t34.5 73.5z" />
<glyph unicode="&#xb1;" horiz-adv-x="991" d="M799 805v-117h-267v-287h-126v287h-267v117h267v287h126v-287h267zM139 125v117h660v-117h-660z" />
<glyph unicode="&#xb2;" horiz-adv-x="765" d="M119 834q33 153 109 237t216 137q18 7 53.5 19.5t56 20t51.5 21t50 24.5t41.5 28t34.5 34.5t20.5 41t8.5 49.5q0 57 -38 91t-118 34q-88 0 -162.5 -37t-119.5 -82l-48 70q14 15 40 34.5t70.5 45t108 42.5t130.5 17q118 0 178.5 -54t60.5 -143q0 -63 -23 -112t-70 -85 t-103 -62t-136 -52q-218 -72 -251 -231h473l-19 -88h-614z" />
<glyph unicode="&#xb3;" horiz-adv-x="765" d="M152 1006l65 47q0 -60 57.5 -105t157.5 -45q104 0 182 51.5t78 122.5q0 63 -68.5 98t-189.5 35h-45l17 84h45q138 0 216 40.5t78 117.5q0 56 -51 90.5t-125 34.5q-80 0 -145.5 -31t-104.5 -84l-47 70q47 59 133.5 94t180.5 35q116 0 188 -55t72 -140q0 -81 -57 -135 t-164 -76q74 -12 116.5 -60t42.5 -114q0 -78 -53.5 -138t-136.5 -90t-178 -30q-120 0 -191.5 49t-72.5 134z" />
<glyph unicode="&#xb4;" horiz-adv-x="464" d="M350 1270l-86 35l156 190h145z" />
<glyph unicode="&#xb5;" horiz-adv-x="1224" d="M262 1067h139l-129 -602q-20 -102 -20 -160q0 -203 178 -203q115 0 232 80.5t190 212.5l143 672h140l-189 -887q-4 -16 -4 -22q0 -35 41 -35l-29 -123q-49 -3 -67 12q-37 2 -58 20.5t-20 47.5q8 70 29 162q-77 -112 -200.5 -187t-240.5 -75q-89 0 -139 47t-59 127 l-117 -588h-139z" />
<glyph unicode="&#xb6;" horiz-adv-x="1185" d="M799 1454h473l-25 -111h-135l-321 -1507h-121l135 637h-141l-136 -637h-122l137 637q-195 3 -303.5 105t-108.5 278q0 270 181.5 434t486.5 164zM565 584l162 759q-145 -1 -253.5 -61t-164 -163.5t-55.5 -235.5q0 -141 85.5 -216t225.5 -83zM991 1343h-141l-164 -759h141 z" />
<glyph unicode="&#xb7;" horiz-adv-x="380" d="M106 504l48 229h118l-47 -229h-119z" />
<glyph unicode="&#xb8;" horiz-adv-x="602" d="M115 -369q-108 0 -193 58l58 80q37 -23 66.5 -34t68.5 -11q68 0 108.5 35.5t40.5 95.5q0 73 -88 145l62 39q110 -88 110 -193q0 -99 -64 -157t-169 -58z" />
<glyph unicode="&#xb9;" horiz-adv-x="532" d="M559 924l-20 -93h-396l21 93h158l133 632q-30 -30 -97 -65t-110 -35l20 92q37 0 88.5 27.5t85 54t35.5 31.5h92l-157 -737h147z" />
<glyph unicode="&#xba;" horiz-adv-x="882" d="M176 1010q0 115 59.5 217.5t161.5 164.5t217 62q130 0 206.5 -86t76.5 -215q0 -113 -59 -215.5t-161.5 -165.5t-219.5 -63q-129 0 -205 87t-76 214zM780 1137q0 93 -52 155t-134 62q-115 0 -208 -99t-93 -231q0 -93 51 -154t133 -61q116 0 209.5 99t93.5 229z" />
<glyph unicode="&#xbb;" horiz-adv-x="1132" d="M584 489l-561 -354l26 121l430 274l-311 279l25 121l405 -365zM1020 489l-559 -354l24 121l428 274l-309 279l25 121l407 -365z" />
<glyph unicode="&#xbc;" horiz-adv-x="1605" d="M524 760l-20 -92h-395l20 92h158l133 633q-31 -31 -97.5 -66t-109.5 -35l20 92q37 0 88.5 27.5t85 54t35.5 31.5h93l-158 -737h147zM0 55l680 684l690 723l57 -61l-700 -709l-670 -700zM1255 211h-444l18 86l582 520h64l-111 -516h115l-21 -90h-112l-46 -211h-90z M1278 301l82 391l-430 -391h348z" />
<glyph unicode="&#xbd;" horiz-adv-x="1599" d="M524 760l-20 -92h-395l20 92h158l133 633q-31 -31 -97.5 -66t-109.5 -35l20 92q37 0 88.5 27.5t85 54t35.5 31.5h93l-158 -737h147zM0 55l680 684l690 723l57 -61l-700 -709l-670 -700zM795 0q30 153 105 238.5t212 138.5q17 6 52 18.5t54.5 19.5t50 20.5t49 24t40 27.5 t33.5 34.5t20 41t8 49.5q0 58 -36.5 92.5t-114.5 34.5q-86 0 -158 -37t-121 -84l-43 72q12 14 38.5 34t69 45t104 41.5t126.5 16.5q114 0 174 -54t60 -142q0 -119 -81.5 -189t-240.5 -123q-212 -72 -246 -229h461l-18 -90h-598z" />
<glyph unicode="&#xbe;" horiz-adv-x="1839" d="M117 840l65 47q0 -56 58 -102t157 -46q104 0 182 51t78 123q0 63 -69 98.5t-189 35.5h-45l17 81h45q138 0 216.5 40.5t78.5 117.5q0 56 -51 90.5t-125 34.5q-80 0 -145.5 -31t-104.5 -84l-47 70q47 59 133 94t180 35q116 0 188 -54t72 -138q0 -81 -57 -135.5t-164 -77.5 q74 -12 117 -59.5t43 -112.5q0 -79 -54 -139.5t-137 -91t-178 -30.5q-112 0 -187.5 48.5t-76.5 134.5zM233 55l680 684l691 723l57 -61l-700 -709l-670 -700zM1489 211h-445l19 86l582 520h63l-111 -516h115l-20 -90h-113l-45 -211h-90zM1511 301l82 391l-430 -391h348z" />
<glyph unicode="&#xbf;" horiz-adv-x="927" d="M721 1036l-47 -219h-117l45 219h119zM637 623q-29 -133 -85 -213.5t-153 -135.5q-21 -12 -71 -37.5t-80 -42t-72 -48.5t-65.5 -64.5t-41.5 -82t-18 -108.5q0 -100 60 -155t151 -55q98 0 194 58.5t158 149.5l82 -61q-78 -123 -204.5 -193.5t-255.5 -70.5q-134 0 -223 80.5 t-89 228.5q0 65 11.5 118t36.5 94t52 72t70 59.5t77 48t87 46.5q11 5 16 8q39 20 62 33.5t55.5 39.5t53 54.5t41 74t32.5 102.5h119z" />
<glyph unicode="&#xc0;" horiz-adv-x="1333" d="M688 1882h143l78 -190l-100 -35zM791 1454h122l263 -1454h-152l-80 455h-612l-271 -455h-153zM936 567l-119 719l-432 -719h551z" />
<glyph unicode="&#xc1;" horiz-adv-x="1333" d="M928 1657l-86 35l155 190h146zM791 1454h122l263 -1454h-152l-80 455h-612l-271 -455h-153zM936 567l-119 719l-432 -719h551z" />
<glyph unicode="&#xc2;" horiz-adv-x="1333" d="M664 1690l231 174h100l156 -174l-86 -41l-139 129l-193 -129zM791 1454h122l263 -1454h-152l-80 455h-612l-271 -455h-153zM936 567l-119 719l-432 -719h551z" />
<glyph unicode="&#xc3;" horiz-adv-x="1333" d="M795 1776q-38 0 -66.5 -24t-38.5 -44t-12 -31h-86q2 11 11 31t27.5 48.5t42.5 53t61.5 41.5t78.5 17q46 0 83.5 -21.5t72 -43t73.5 -21.5q29 0 53 10t38 23t24.5 29t14 24.5t4.5 13.5h86q-3 -15 -17.5 -41.5t-41 -61.5t-74 -60t-103.5 -25q-39 0 -73 13t-54.5 28t-48 28 t-55.5 13zM791 1454h122l263 -1454h-152l-80 455h-612l-271 -455h-153zM936 567l-119 719l-432 -719h551z" />
<glyph unicode="&#xc4;" horiz-adv-x="1333" d="M698 1683l41 193h119l-41 -193h-119zM993 1683l41 193h117l-39 -193h-119zM791 1454h122l263 -1454h-152l-80 455h-612l-271 -455h-153zM936 567l-119 719l-432 -719h551z" />
<glyph unicode="&#xc5;" horiz-adv-x="1333" d="M948 1882q56 0 87.5 -29t31.5 -79q0 -69 -51.5 -114.5t-126.5 -45.5q-54 0 -86.5 29.5t-32.5 78.5q0 69 52 114.5t126 45.5zM840 1733q0 -27 17.5 -45.5t45.5 -18.5q35 0 66.5 27.5t31.5 66.5q0 29 -18 46.5t-47 17.5q-38 0 -67 -27t-29 -67zM791 1454h122l263 -1454 h-152l-80 455h-612l-271 -455h-153zM936 567l-119 719l-432 -719h551z" />
<glyph unicode="&#xc6;" horiz-adv-x="1890" d="M1030 1454h940l-28 -127h-760l-109 -522h653l-28 -127h-654l-116 -551h776l-27 -127h-917l96 455h-500l-366 -455h-156zM874 582l150 700l-575 -700h425z" />
<glyph unicode="&#xc7;" horiz-adv-x="1343" d="M893 1333q-121 0 -227.5 -43.5t-183 -117t-132 -167.5t-83 -197t-27.5 -204q0 -134 46.5 -243.5t140.5 -176.5t220 -67q125 0 252.5 68.5t216.5 201.5l107 -61q-101 -161 -263.5 -248t-328.5 -90q57 -67 57 -142q0 -99 -64 -157t-169 -58q-108 0 -193 58l57 80 q72 -45 136 -45q68 0 108.5 35.5t40.5 95.5q0 73 -84 141q-134 26 -232.5 117.5t-145 215.5t-46.5 263q0 122 37.5 247t110 236t169.5 198t226.5 138t271.5 51q190 0 306 -86.5t153 -230.5l-121 -66q-73 254 -356 254z" />
<glyph unicode="&#xc8;" horiz-adv-x="1191" d="M623 1882h143l78 -190l-101 -35zM358 1454h912l-27 -127h-770l-113 -524h672l-24 -121h-672l-119 -555h789l-27 -127h-930z" />
<glyph unicode="&#xc9;" horiz-adv-x="1191" d="M862 1657l-86 35l156 190h145zM358 1454h912l-27 -127h-770l-113 -524h672l-24 -121h-672l-119 -555h789l-27 -127h-930z" />
<glyph unicode="&#xca;" horiz-adv-x="1191" d="M598 1690l231 174h101l155 -174l-86 -41l-139 129l-192 -129zM358 1454h912l-27 -127h-770l-113 -524h672l-24 -121h-672l-119 -555h789l-27 -127h-930z" />
<glyph unicode="&#xcb;" horiz-adv-x="1191" d="M633 1683l41 193h119l-41 -193h-119zM928 1683l41 193h116l-38 -193h-119zM358 1454h912l-27 -127h-770l-113 -524h672l-24 -121h-672l-119 -555h789l-27 -127h-930z" />
<glyph unicode="&#xcc;" horiz-adv-x="501" d="M260 1880h143l78 -190l-100 -35zM358 1452h142l-310 -1452h-141z" />
<glyph unicode="&#xcd;" horiz-adv-x="501" d="M500 1655l-86 35l155 190h146zM358 1452h142l-310 -1452h-141z" />
<glyph unicode="&#xce;" horiz-adv-x="501" d="M236 1688l231 174h100l156 -174l-86 -41l-139 129l-193 -129zM358 1452h142l-310 -1452h-141z" />
<glyph unicode="&#xcf;" horiz-adv-x="501" d="M270 1681l41 193h119l-41 -193h-119zM565 1681l41 193h117l-39 -193h-119zM358 1452h142l-310 -1452h-141z" />
<glyph unicode="&#xd0;" horiz-adv-x="1427" d="M844 1454q132 0 235 -43t166.5 -119.5t96 -176t32.5 -218.5q0 -190 -64 -356.5t-175 -285t-266.5 -187t-333.5 -68.5h-472l144 676h-119l25 110h118l142 668h471zM561 127q150 0 277 61.5t211 165t131 238t47 282.5q0 205 -107 329t-305 124h-328l-114 -541h327l-22 -110 h-330l-117 -549h330z" />
<glyph unicode="&#xd1;" horiz-adv-x="1515" d="M903 1772q-38 0 -66.5 -24t-38.5 -44t-12 -31h-86q3 15 17.5 42.5t40 63t69.5 60.5t95 25q46 0 83.5 -21.5t72 -43t73.5 -21.5q29 0 53 10t37.5 22.5t24 29t14 25t4.5 13.5h86q-2 -11 -10.5 -30t-28 -47.5t-45 -52.5t-65.5 -41t-86 -17q-49 0 -89 20.5t-74.5 41 t-68.5 20.5zM358 1454h111l647 -1210l256 1208h141l-309 -1452h-121l-641 1188l-252 -1188h-141z" />
<glyph unicode="&#xd2;" horiz-adv-x="1478" d="M762 1878h143l78 -190l-100 -35zM94 588q0 166 69 327t181.5 281t264 194t309.5 74q123 0 222.5 -50.5t161.5 -135.5t95 -192t33 -224q0 -165 -68.5 -325t-180 -280t-262.5 -193.5t-309 -73.5q-123 0 -223 49.5t-163 133.5t-96.5 190.5t-33.5 224.5zM1286 852 q0 97 -25.5 183t-73.5 153t-125 106t-173 39q-106 0 -206 -41.5t-179 -114t-139 -165t-92.5 -199.5t-32.5 -213q0 -98 25.5 -183.5t74 -152.5t125.5 -106t174 -39q106 0 206 42t178.5 115t138.5 165.5t92 199t32 211.5z" />
<glyph unicode="&#xd3;" horiz-adv-x="1478" d="M1001 1653l-86 35l156 190h146zM94 588q0 166 69 327t181.5 281t264 194t309.5 74q123 0 222.5 -50.5t161.5 -135.5t95 -192t33 -224q0 -165 -68.5 -325t-180 -280t-262.5 -193.5t-309 -73.5q-123 0 -223 49.5t-163 133.5t-96.5 190.5t-33.5 224.5zM1286 852 q0 97 -25.5 183t-73.5 153t-125 106t-173 39q-106 0 -206 -41.5t-179 -114t-139 -165t-92.5 -199.5t-32.5 -213q0 -98 25.5 -183.5t74 -152.5t125.5 -106t174 -39q106 0 206 42t178.5 115t138.5 165.5t92 199t32 211.5z" />
<glyph unicode="&#xd4;" horiz-adv-x="1478" d="M737 1686l232 174h100l156 -174l-86 -41l-140 129l-192 -129zM94 588q0 166 69 327t181.5 281t264 194t309.5 74q123 0 222.5 -50.5t161.5 -135.5t95 -192t33 -224q0 -165 -68.5 -325t-180 -280t-262.5 -193.5t-309 -73.5q-123 0 -223 49.5t-163 133.5t-96.5 190.5 t-33.5 224.5zM1286 852q0 97 -25.5 183t-73.5 153t-125 106t-173 39q-106 0 -206 -41.5t-179 -114t-139 -165t-92.5 -199.5t-32.5 -213q0 -98 25.5 -183.5t74 -152.5t125.5 -106t174 -39q106 0 206 42t178.5 115t138.5 165.5t92 199t32 211.5z" />
<glyph unicode="&#xd5;" horiz-adv-x="1478" d="M868 1772q-29 0 -52.5 -13.5t-36.5 -32.5t-19.5 -32.5t-7.5 -20.5h-86q2 11 11 31t27.5 48.5t42.5 53t61.5 41.5t78.5 17q46 0 83.5 -21.5t72 -43t73.5 -21.5q29 0 53 10t37.5 22.5t24 29t14 25t4.5 13.5h86q-2 -11 -10.5 -30t-28 -47.5t-45 -52.5t-65.5 -41t-86 -17 q-49 0 -89 20.5t-74.5 41t-68.5 20.5zM94 588q0 166 69 327t181.5 281t264 194t309.5 74q123 0 222.5 -50.5t161.5 -135.5t95 -192t33 -224q0 -165 -68.5 -325t-180 -280t-262.5 -193.5t-309 -73.5q-123 0 -223 49.5t-163 133.5t-96.5 190.5t-33.5 224.5zM1286 852 q0 97 -25.5 183t-73.5 153t-125 106t-173 39q-106 0 -206 -41.5t-179 -114t-139 -165t-92.5 -199.5t-32.5 -213q0 -98 25.5 -183.5t74 -152.5t125.5 -106t174 -39q106 0 206 42t178.5 115t138.5 165.5t92 199t32 211.5z" />
<glyph unicode="&#xd6;" horiz-adv-x="1478" d="M772 1679l41 193h119l-41 -193h-119zM1067 1679l41 193h117l-39 -193h-119zM94 588q0 166 69 327t181.5 281t264 194t309.5 74q123 0 222.5 -50.5t161.5 -135.5t95 -192t33 -224q0 -165 -68.5 -325t-180 -280t-262.5 -193.5t-309 -73.5q-123 0 -223 49.5t-163 133.5 t-96.5 190.5t-33.5 224.5zM1286 852q0 97 -25.5 183t-73.5 153t-125 106t-173 39q-106 0 -206 -41.5t-179 -114t-139 -165t-92.5 -199.5t-32.5 -213q0 -98 25.5 -183.5t74 -152.5t125.5 -106t174 -39q106 0 206 42t178.5 115t138.5 165.5t92 199t32 211.5z" />
<glyph unicode="&#xd7;" horiz-adv-x="958" d="M803 309l-90 -88l-250 248l-248 -248l-88 90l246 246l-244 248l90 88l244 -246l248 248l88 -90l-246 -248z" />
<glyph unicode="&#xd8;" horiz-adv-x="1478" d="M1460 1454l-153 -182q123 -166 123 -410q0 -165 -68.5 -325t-180 -280t-262.5 -193.5t-309 -73.5q-176 0 -303 100l-76 -90h-157l147 176q-127 165 -127 412q0 166 69 327t181.5 281t264 194t309.5 74q181 0 307 -104l80 94h155zM240 600q0 -181 79 -309l811 958 q-97 84 -241 84q-106 0 -206 -41.5t-179 -114t-139 -165t-92.5 -199.5t-32.5 -213zM1286 852q0 173 -78 305l-809 -956q101 -82 240 -82q106 0 206 42t178.5 115t138.5 165.5t92 199t32 211.5z" />
<glyph unicode="&#xd9;" horiz-adv-x="1482" d="M741 1878h144l78 -190l-101 -35zM154 471q0 116 28 250l156 733h141l-155 -733q-27 -132 -27 -227q0 -82 17.5 -147.5t55.5 -118t104.5 -81t158.5 -28.5q100 0 186 34.5t147 92t110 137t79 162.5t49 176l156 733h141l-153 -733q-26 -121 -68 -227t-106 -199.5 t-144.5 -160.5t-188 -105.5t-231.5 -38.5t-214 37t-142 104.5t-76 151.5t-24 188z" />
<glyph unicode="&#xda;" horiz-adv-x="1482" d="M981 1653l-86 35l156 190h145zM154 471q0 116 28 250l156 733h141l-155 -733q-27 -132 -27 -227q0 -82 17.5 -147.5t55.5 -118t104.5 -81t158.5 -28.5q100 0 186 34.5t147 92t110 137t79 162.5t49 176l156 733h141l-153 -733q-26 -121 -68 -227t-106 -199.5 t-144.5 -160.5t-188 -105.5t-231.5 -38.5t-214 37t-142 104.5t-76 151.5t-24 188z" />
<glyph unicode="&#xdb;" horiz-adv-x="1482" d="M717 1686l231 174h101l155 -174l-86 -41l-139 129l-193 -129zM154 471q0 116 28 250l156 733h141l-155 -733q-27 -132 -27 -227q0 -82 17.5 -147.5t55.5 -118t104.5 -81t158.5 -28.5q100 0 186 34.5t147 92t110 137t79 162.5t49 176l156 733h141l-153 -733 q-26 -121 -68 -227t-106 -199.5t-144.5 -160.5t-188 -105.5t-231.5 -38.5t-214 37t-142 104.5t-76 151.5t-24 188z" />
<glyph unicode="&#xdc;" horiz-adv-x="1482" d="M752 1679l41 193h118l-41 -193h-118zM1047 1679l40 193h117l-39 -193h-118zM154 471q0 116 28 250l156 733h141l-155 -733q-27 -132 -27 -227q0 -82 17.5 -147.5t55.5 -118t104.5 -81t158.5 -28.5q100 0 186 34.5t147 92t110 137t79 162.5t49 176l156 733h141l-153 -733 q-26 -121 -68 -227t-106 -199.5t-144.5 -160.5t-188 -105.5t-231.5 -38.5t-214 37t-142 104.5t-76 151.5t-24 188z" />
<glyph unicode="&#xdd;" horiz-adv-x="1243" d="M838 1653l-86 35l155 190h146zM526 545l-340 909h158l281 -782l614 782h156l-729 -913l-115 -541h-141z" />
<glyph unicode="&#xde;" horiz-adv-x="1185" d="M358 1454h142l-62 -289h396q99 0 174 -54.5t112 -140t37 -184.5q0 -130 -68.5 -254.5t-187.5 -204t-252 -79.5h-405l-54 -248h-141zM672 377q91 0 171 59.5t125.5 150.5t45.5 185q0 111 -60 188.5t-155 77.5h-387l-142 -661h402z" />
<glyph unicode="&#xdf;" horiz-adv-x="1083" d="M362 117q214 3 340.5 101t126.5 282q0 116 -69.5 185t-190.5 69h-37l29 127h35q118 0 202.5 80t84.5 196q0 85 -54.5 133.5t-140.5 48.5q-121 0 -204.5 -85.5t-112.5 -219.5l-219 -1034h-134l224 1055q38 181 172 294t307 113q135 0 218 -75t83 -195q0 -123 -85.5 -231.5 t-193.5 -135.5q111 -26 170.5 -111.5t59.5 -205.5q0 -159 -83 -276t-225.5 -177.5t-330.5 -66.5z" />
<glyph unicode="&#xe0;" horiz-adv-x="1224" d="M557 1495h143l78 -190l-100 -35zM51 426q0 166 83 319t220.5 246.5t288.5 93.5q123 0 208.5 -67.5t123.5 -173.5l49 223h139l-188 -885q-4 -16 -4 -26q0 -33 39 -33l-27 -123q-10 -1 -28.5 -3.5t-26.5 -2.5q-45 3 -69.5 25t-24.5 57q0 18 22 131q-82 -104 -197.5 -165.5 t-228.5 -61.5q-115 0 -203 62t-132 162.5t-44 221.5zM874 367l68 329q-14 110 -96.5 188.5t-190.5 78.5q-118 0 -225.5 -77.5t-170 -197t-62.5 -242.5q0 -144 81 -244t209 -100q105 0 227 80t160 185z" />
<glyph unicode="&#xe1;" horiz-adv-x="1224" d="M797 1270l-86 35l155 190h146zM51 426q0 166 83 319t220.5 246.5t288.5 93.5q123 0 208.5 -67.5t123.5 -173.5l49 223h139l-188 -885q-4 -16 -4 -26q0 -33 39 -33l-27 -123q-10 -1 -28.5 -3.5t-26.5 -2.5q-45 3 -69.5 25t-24.5 57q0 18 22 131q-82 -104 -197.5 -165.5 t-228.5 -61.5q-115 0 -203 62t-132 162.5t-44 221.5zM874 367l68 329q-14 110 -96.5 188.5t-190.5 78.5q-118 0 -225.5 -77.5t-170 -197t-62.5 -242.5q0 -144 81 -244t209 -100q105 0 227 80t160 185z" />
<glyph unicode="&#xe2;" horiz-adv-x="1224" d="M532 1303l232 174h100l156 -174l-86 -41l-139 129l-193 -129zM51 426q0 166 83 319t220.5 246.5t288.5 93.5q123 0 208.5 -67.5t123.5 -173.5l49 223h139l-188 -885q-4 -16 -4 -26q0 -33 39 -33l-27 -123q-10 -1 -28.5 -3.5t-26.5 -2.5q-45 3 -69.5 25t-24.5 57 q0 18 22 131q-82 -104 -197.5 -165.5t-228.5 -61.5q-115 0 -203 62t-132 162.5t-44 221.5zM874 367l68 329q-14 110 -96.5 188.5t-190.5 78.5q-118 0 -225.5 -77.5t-170 -197t-62.5 -242.5q0 -144 81 -244t209 -100q105 0 227 80t160 185z" />
<glyph unicode="&#xe3;" horiz-adv-x="1224" d="M664 1389q-38 0 -66.5 -24t-38.5 -44t-12 -31h-86q2 11 11 31t27.5 48.5t42.5 53t61.5 41.5t78.5 17q46 0 83.5 -21.5t72 -43t73.5 -21.5q29 0 53 10t37.5 22.5t24 29t14 25t4.5 13.5h86q-2 -11 -10.5 -30t-28 -47.5t-45 -52.5t-65.5 -41t-86 -17q-39 0 -73 13t-54.5 28 t-48 28t-55.5 13zM51 426q0 166 83 319t220.5 246.5t288.5 93.5q123 0 208.5 -67.5t123.5 -173.5l49 223h139l-188 -885q-4 -16 -4 -26q0 -33 39 -33l-27 -123q-10 -1 -28.5 -3.5t-26.5 -2.5q-45 3 -69.5 25t-24.5 57q0 18 22 131q-82 -104 -197.5 -165.5t-228.5 -61.5 q-115 0 -203 62t-132 162.5t-44 221.5zM874 367l68 329q-14 110 -96.5 188.5t-190.5 78.5q-118 0 -225.5 -77.5t-170 -197t-62.5 -242.5q0 -144 81 -244t209 -100q105 0 227 80t160 185z" />
<glyph unicode="&#xe4;" horiz-adv-x="1224" d="M567 1296l41 193h119l-41 -193h-119zM862 1296l41 193h117l-39 -193h-119zM51 426q0 166 83 319t220.5 246.5t288.5 93.5q123 0 208.5 -67.5t123.5 -173.5l49 223h139l-188 -885q-4 -16 -4 -26q0 -33 39 -33l-27 -123q-10 -1 -28.5 -3.5t-26.5 -2.5q-45 3 -69.5 25 t-24.5 57q0 18 22 131q-82 -104 -197.5 -165.5t-228.5 -61.5q-115 0 -203 62t-132 162.5t-44 221.5zM874 367l68 329q-14 110 -96.5 188.5t-190.5 78.5q-118 0 -225.5 -77.5t-170 -197t-62.5 -242.5q0 -144 81 -244t209 -100q105 0 227 80t160 185z" />
<glyph unicode="&#xe5;" horiz-adv-x="1224" d="M817 1495q56 0 87.5 -29.5t31.5 -79.5q0 -69 -51 -114t-127 -45q-54 0 -86.5 29.5t-32.5 78.5q0 69 52 114.5t126 45.5zM709 1346q0 -27 17.5 -45.5t45.5 -18.5q35 0 66.5 27.5t31.5 66.5q0 29 -18 46.5t-47 17.5q-38 0 -67 -27t-29 -67zM51 426q0 166 83 319 t220.5 246.5t288.5 93.5q123 0 208.5 -67.5t123.5 -173.5l49 223h139l-188 -885q-4 -16 -4 -26q0 -33 39 -33l-27 -123q-10 -1 -28.5 -3.5t-26.5 -2.5q-45 3 -69.5 25t-24.5 57q0 18 22 131q-82 -104 -197.5 -165.5t-228.5 -61.5q-115 0 -203 62t-132 162.5t-44 221.5z M874 367l68 329q-14 110 -96.5 188.5t-190.5 78.5q-118 0 -225.5 -77.5t-170 -197t-62.5 -242.5q0 -144 81 -244t209 -100q105 0 227 80t160 185z" />
<glyph unicode="&#xe6;" horiz-adv-x="1816" d="M-8 252q0 165 144 273t356 108q134 0 249 -41q8 28 34 88.5t32 97.5q0 90 -60.5 146.5t-166.5 56.5q-150 0 -353 -127l-26 92q230 139 415 139q121 0 200 -56t102 -157q88 99 200.5 156t233.5 57q184 0 294.5 -124.5t110.5 -313.5q0 -87 -31 -164h-874q-4 -46 -4 -69 q0 -143 84 -235.5t217 -92.5q101 0 198.5 53.5t149.5 139.5l115 -33q-73 -118 -208 -192t-282 -74q-132 0 -228.5 63.5t-141.5 171.5q-58 -80 -149 -135.5t-173.5 -77.5t-155.5 -22q-131 0 -206.5 77t-75.5 195zM1616 578q6 40 6 81q0 140 -79.5 229t-215.5 89 q-153 0 -282 -112.5t-175 -286.5h746zM721 307q-8 33 -8 84q0 58 10 113q-103 41 -227 41q-159 0 -263 -74t-104 -192q0 -82 52.5 -137.5t148.5 -55.5q73 0 155.5 29.5t149 81.5t86.5 110z" />
<glyph unicode="&#xe7;" horiz-adv-x="1077" d="M477 102q97 0 195 54.5t135 128.5l129 -41q-55 -97 -158 -165.5t-223 -90.5q57 -67 57 -142q0 -99 -64 -157t-169 -58q-108 0 -193 58l58 80q37 -23 66.5 -34t68.5 -11q68 0 108.5 35.5t40.5 95.5q0 63 -65 125h-2q-188 0 -299 129t-111 323q0 170 85 320.5t232.5 241.5 t319.5 91q145 0 239 -67.5t124 -186.5l-144 -43q-26 85 -88 130t-151 45t-175.5 -41t-152 -109.5t-105.5 -164t-40 -197.5q0 -151 78.5 -250t203.5 -99z" />
<glyph unicode="&#xe8;" horiz-adv-x="1093" d="M743 1305l-100 -35l-121 225h144zM465 481q-81 0 -268 11q-4 -40 -4 -60q0 -149 76 -247.5t218 -98.5q100 0 198.5 55t150.5 144l114 -35q-74 -121 -208 -195.5t-279 -74.5q-191 0 -301.5 128.5t-110.5 323.5q0 125 49 243.5t133 209t204 145.5t253 55q148 0 246 -75 t98 -211q0 -318 -569 -318zM680 977q-118 0 -216 -56t-158 -140.5t-89 -188.5q163 -10 254 -10q436 0 436 219q0 88 -64 132t-163 44z" />
<glyph unicode="&#xe9;" horiz-adv-x="1093" d="M977 1495l-215 -225l-86 35l155 190h146zM465 481q-81 0 -268 11q-4 -40 -4 -60q0 -149 76 -247.5t218 -98.5q100 0 198.5 55t150.5 144l114 -35q-74 -121 -208 -195.5t-279 -74.5q-191 0 -301.5 128.5t-110.5 323.5q0 125 49 243.5t133 209t204 145.5t253 55 q148 0 246 -75t98 -211q0 -318 -569 -318zM680 977q-118 0 -216 -56t-158 -140.5t-89 -188.5q163 -10 254 -10q436 0 436 219q0 88 -64 132t-163 44z" />
<glyph unicode="&#xea;" horiz-adv-x="1093" d="M760 1391l-193 -129l-69 41l231 174h100l156 -174l-86 -41zM465 481q-81 0 -268 11q-4 -40 -4 -60q0 -149 76 -247.5t218 -98.5q100 0 198.5 55t150.5 144l114 -35q-74 -121 -208 -195.5t-279 -74.5q-191 0 -301.5 128.5t-110.5 323.5q0 125 49 243.5t133 209t204 145.5 t253 55q148 0 246 -75t98 -211q0 -318 -569 -318zM680 977q-118 0 -216 -56t-158 -140.5t-89 -188.5q163 -10 254 -10q436 0 436 219q0 88 -64 132t-163 44z" />
<glyph unicode="&#xeb;" horiz-adv-x="1093" d="M692 1489l-41 -193h-119l41 193h119zM985 1489l-39 -193h-119l41 193h117zM465 481q-81 0 -268 11q-4 -40 -4 -60q0 -149 76 -247.5t218 -98.5q100 0 198.5 55t150.5 144l114 -35q-74 -121 -208 -195.5t-279 -74.5q-191 0 -301.5 128.5t-110.5 323.5q0 125 49 243.5 t133 209t204 145.5t253 55q148 0 246 -75t98 -211q0 -318 -569 -318zM680 977q-118 0 -216 -56t-158 -140.5t-89 -188.5q163 -10 254 -10q436 0 436 219q0 88 -64 132t-163 44z" />
<glyph unicode="&#xec;" horiz-adv-x="436" d="M358 1444h144l78 -191l-101 -34zM244 1067h139l-225 -1067h-140z" />
<glyph unicode="&#xed;" horiz-adv-x="436" d="M383 1270l-86 35l156 190h145zM244 1067h139l-225 -1067h-140z" />
<glyph unicode="&#xee;" horiz-adv-x="436" d="M119 1303l231 174h101l155 -174l-86 -41l-139 129l-193 -129zM244 1067h139l-225 -1067h-140z" />
<glyph unicode="&#xef;" horiz-adv-x="436" d="M154 1296l41 193h118l-41 -193h-118zM449 1296l40 193h117l-39 -193h-118zM244 1067h139l-225 -1067h-140z" />
<glyph unicode="&#xf0;" horiz-adv-x="1185" d="M1135 1399l-187 -107q162 -231 162 -532q0 -173 -58 -322.5t-153 -248t-213.5 -154t-241.5 -55.5q-176 0 -288.5 118.5t-112.5 292.5q0 112 51 219.5t133 186t190.5 126.5t217.5 48q127 0 218.5 -66t121.5 -174q3 57 -4 129q-16 209 -140 377l-239 -139l-31 63l227 131 q-83 99 -233 203h193q87 -62 159 -147l197 112zM475 102q113 0 219.5 64.5t172 170.5t65.5 220q0 127 -81.5 212t-209.5 85q-84 0 -167.5 -36.5t-146.5 -97t-102 -143t-39 -169.5q0 -130 81 -218t208 -88z" />
<glyph unicode="&#xf1;" horiz-adv-x="1144" d="M719 1389q-38 0 -66.5 -24t-38.5 -44t-12 -31h-86q2 11 11 31t27.5 48.5t42.5 53t61.5 41.5t78.5 17q46 0 83.5 -21.5t72.5 -43t74 -21.5q29 0 53 10t37.5 22.5t24 29t14 25t4.5 13.5h86q-3 -15 -17.5 -41.5t-41 -61.5t-74 -60t-103.5 -25q-39 0 -73 13t-54.5 28t-48 28 t-55.5 13zM244 1067h129l-54 -242q87 117 219 188.5t265 71.5q231 0 231 -254q0 -79 -26 -206l-131 -625h-140l127 596q21 119 21 174q0 188 -160 188q-117 0 -241.5 -87.5t-188.5 -217.5l-137 -653h-140z" />
<glyph unicode="&#xf2;" horiz-adv-x="1173" d="M516 1495h143l78 -190l-100 -35zM49 428q0 176 85.5 328t230 240.5t309.5 88.5q101 0 180.5 -35t130 -97t76.5 -143t26 -175q0 -176 -84.5 -327t-228.5 -239.5t-311 -88.5q-102 0 -182 35t-130 96.5t-76 142t-26 174.5zM944 614q0 154 -77.5 251.5t-217.5 97.5 q-86 0 -168.5 -40t-146 -108t-102.5 -165t-39 -204q0 -154 76.5 -249t217.5 -95q87 0 170 39.5t146 106.5t102 163t39 203z" />
<glyph unicode="&#xf3;" horiz-adv-x="1173" d="M756 1270l-86 35l155 190h146zM49 428q0 176 85.5 328t230 240.5t309.5 88.5q101 0 180.5 -35t130 -97t76.5 -143t26 -175q0 -176 -84.5 -327t-228.5 -239.5t-311 -88.5q-102 0 -182 35t-130 96.5t-76 142t-26 174.5zM944 614q0 154 -77.5 251.5t-217.5 97.5 q-86 0 -168.5 -40t-146 -108t-102.5 -165t-39 -204q0 -154 76.5 -249t217.5 -95q87 0 170 39.5t146 106.5t102 163t39 203z" />
<glyph unicode="&#xf4;" horiz-adv-x="1173" d="M492 1303l231 174h100l156 -174l-86 -41l-139 129l-193 -129zM49 428q0 176 85.5 328t230 240.5t309.5 88.5q101 0 180.5 -35t130 -97t76.5 -143t26 -175q0 -176 -84.5 -327t-228.5 -239.5t-311 -88.5q-102 0 -182 35t-130 96.5t-76 142t-26 174.5zM944 614 q0 154 -77.5 251.5t-217.5 97.5q-86 0 -168.5 -40t-146 -108t-102.5 -165t-39 -204q0 -154 76.5 -249t217.5 -95q87 0 170 39.5t146 106.5t102 163t39 203z" />
<glyph unicode="&#xf5;" horiz-adv-x="1173" d="M623 1389q-38 0 -66.5 -24t-38.5 -44t-12 -31h-86q2 11 11 31t27.5 48.5t42.5 53t61.5 41.5t78.5 17q46 0 83.5 -21.5t72 -43t73.5 -21.5q29 0 53 10t38 23t24.5 29t14 24.5t4.5 13.5h86q-3 -15 -17.5 -41.5t-41 -61.5t-74 -60t-103.5 -25q-39 0 -73 13t-54.5 28t-48 28 t-55.5 13zM49 428q0 176 85.5 328t230 240.5t309.5 88.5q101 0 180.5 -35t130 -97t76.5 -143t26 -175q0 -176 -84.5 -327t-228.5 -239.5t-311 -88.5q-102 0 -182 35t-130 96.5t-76 142t-26 174.5zM944 614q0 154 -77.5 251.5t-217.5 97.5q-86 0 -168.5 -40t-146 -108 t-102.5 -165t-39 -204q0 -154 76.5 -249t217.5 -95q87 0 170 39.5t146 106.5t102 163t39 203z" />
<glyph unicode="&#xf6;" horiz-adv-x="1173" d="M526 1296l41 193h119l-41 -193h-119zM821 1296l41 193h117l-39 -193h-119zM49 428q0 176 85.5 328t230 240.5t309.5 88.5q101 0 180.5 -35t130 -97t76.5 -143t26 -175q0 -176 -84.5 -327t-228.5 -239.5t-311 -88.5q-102 0 -182 35t-130 96.5t-76 142t-26 174.5zM944 614 q0 154 -77.5 251.5t-217.5 97.5q-86 0 -168.5 -40t-146 -108t-102.5 -165t-39 -204q0 -154 76.5 -249t217.5 -95q87 0 170 39.5t146 106.5t102 163t39 203z" />
<glyph unicode="&#xf7;" horiz-adv-x="1099" d="M479 817v187h121v-187h-121zM127 520v117h825v-117h-825zM479 152v184h121v-184h-121z" />
<glyph unicode="&#xf8;" horiz-adv-x="1173" d="M977 956q110 -125 110 -319q0 -125 -52 -245.5t-137.5 -211t-203 -145.5t-241.5 -55q-146 0 -246 81l-62 -63h-94l107 111q-109 125 -109 317q0 126 53 247t140 211t204.5 145.5t239.5 55.5q142 0 242 -81l63 67h94zM659 963q-84 0 -168.5 -43t-150 -113.5t-106.5 -167 t-41 -197.5q0 -134 67 -229l574 684q-76 66 -175 66zM477 102q113 0 221 70.5t177 191t69 254.5q0 138 -67 230l-574 -680q72 -66 174 -66z" />
<glyph unicode="&#xf9;" horiz-adv-x="1165" d="M528 1495h144l78 -190l-101 -35zM76 254q0 73 22 186l135 627h138l-127 -602q-21 -91 -21 -160q0 -203 176 -203q116 0 232.5 80t189.5 213l144 672h139l-186 -870q-1 -8 -4 -22t-3 -17q0 -35 39 -35l-26 -123q-55 -4 -58 -4q-42 1 -65 22.5t-23 57.5t29 166 q-93 -124 -220.5 -193t-260.5 -69q-250 0 -250 274z" />
<glyph unicode="&#xfa;" horiz-adv-x="1165" d="M768 1270l-86 35l156 190h145zM76 254q0 73 22 186l135 627h138l-127 -602q-21 -91 -21 -160q0 -203 176 -203q116 0 232.5 80t189.5 213l144 672h139l-186 -870q-1 -8 -4 -22t-3 -17q0 -35 39 -35l-26 -123q-55 -4 -58 -4q-42 1 -65 22.5t-23 57.5t29 166 q-93 -124 -220.5 -193t-260.5 -69q-250 0 -250 274z" />
<glyph unicode="&#xfb;" horiz-adv-x="1165" d="M504 1303l231 174h101l155 -174l-86 -41l-139 129l-193 -129zM76 254q0 73 22 186l135 627h138l-127 -602q-21 -91 -21 -160q0 -203 176 -203q116 0 232.5 80t189.5 213l144 672h139l-186 -870q-1 -8 -4 -22t-3 -17q0 -35 39 -35l-26 -123q-55 -4 -58 -4q-42 1 -65 22.5 t-23 57.5t29 166q-93 -124 -220.5 -193t-260.5 -69q-250 0 -250 274z" />
<glyph unicode="&#xfc;" horiz-adv-x="1165" d="M539 1296l41 193h118l-41 -193h-118zM834 1296l40 193h117l-39 -193h-118zM76 254q0 73 22 186l135 627h138l-127 -602q-21 -91 -21 -160q0 -203 176 -203q116 0 232.5 80t189.5 213l144 672h139l-186 -870q-1 -8 -4 -22t-3 -17q0 -35 39 -35l-26 -123q-55 -4 -58 -4 q-42 1 -65 22.5t-23 57.5t29 166q-93 -124 -220.5 -193t-260.5 -69q-250 0 -250 274z" />
<glyph unicode="&#xfd;" horiz-adv-x="993" d="M657 1270l-86 35l156 190h145zM-74 -346q127 20 189.5 64t140.5 165l68 101l-220 1083h146l172 -938l84 137q178 290 256 453t127 348h137q-56 -200 -138 -366.5t-284 -489.5l-166 -264q-142 -228 -245 -313.5t-248 -92.5z" />
<glyph unicode="&#xfe;" horiz-adv-x="1183" d="M-74 -436l402 1890h141l-125 -575q81 94 190 150t216 56q115 0 202.5 -63t131.5 -163.5t44 -221.5q0 -123 -48 -243t-127.5 -211t-189 -147t-226.5 -56q-122 0 -207.5 66.5t-124.5 174.5l-139 -657h-140zM524 102q120 0 227.5 77t169.5 195.5t62 239.5q0 146 -81.5 247.5 t-211.5 101.5q-65 0 -145 -36t-147.5 -98t-92.5 -131l-69 -327q22 -117 100 -193t188 -76z" />
<glyph unicode="&#xff;" horiz-adv-x="993" d="M428 1296l41 193h119l-41 -193h-119zM723 1296l41 193h117l-39 -193h-119zM-74 -346q127 20 189.5 64t140.5 165l68 101l-220 1083h146l172 -938l84 137q178 290 256 453t127 348h137q-56 -200 -138 -366.5t-284 -489.5l-166 -264q-142 -228 -245 -313.5t-248 -92.5z" />
<glyph unicode="&#x100;" horiz-adv-x="1333" d="M635 1743l20 96h564l-21 -96h-563zM791 1454h122l263 -1454h-152l-80 455h-612l-271 -455h-153zM936 567l-119 719l-432 -719h551z" />
<glyph unicode="&#x101;" horiz-adv-x="1224" d="M504 1356l20 96h563l-20 -96h-563zM51 426q0 166 83 319t220.5 246.5t288.5 93.5q123 0 208.5 -67.5t123.5 -173.5l49 223h139l-188 -885q-4 -16 -4 -26q0 -33 39 -33l-27 -123q-10 -1 -28.5 -3.5t-26.5 -2.5q-45 3 -69.5 25t-24.5 57q0 18 22 131 q-82 -104 -197.5 -165.5t-228.5 -61.5q-115 0 -203 62t-132 162.5t-44 221.5zM874 367l68 329q-14 110 -96.5 188.5t-190.5 78.5q-118 0 -225.5 -77.5t-170 -197t-62.5 -242.5q0 -144 81 -244t209 -100q105 0 227 80t160 185z" />
<glyph unicode="&#x102;" horiz-adv-x="1333" d="M1057 1882h84q-19 -88 -87.5 -147.5t-150.5 -59.5q-70 0 -114 45t-44 115q0 19 7 47h86q-4 -20 -4 -31q0 -43 24 -73.5t60 -30.5q41 0 81.5 39t57.5 96zM791 1454h122l263 -1454h-152l-80 455h-612l-271 -455h-153zM936 567l-119 719l-432 -719h551z" />
<glyph unicode="&#x103;" horiz-adv-x="1224" d="M926 1495h84q-19 -88 -87.5 -147.5t-150.5 -59.5q-70 0 -114 45t-44 115q0 19 7 47h86q-5 -25 -5 -31q0 -43 24 -73.5t60 -30.5q41 0 82 39t58 96zM51 426q0 166 83 319t220.5 246.5t288.5 93.5q123 0 208.5 -67.5t123.5 -173.5l49 223h139l-188 -885q-4 -16 -4 -26 q0 -33 39 -33l-27 -123q-10 -1 -28.5 -3.5t-26.5 -2.5q-45 3 -69.5 25t-24.5 57q0 18 22 131q-82 -104 -197.5 -165.5t-228.5 -61.5q-115 0 -203 62t-132 162.5t-44 221.5zM874 367l68 329q-14 110 -96.5 188.5t-190.5 78.5q-118 0 -225.5 -77.5t-170 -197t-62.5 -242.5 q0 -144 81 -244t209 -100q105 0 227 80t160 185z" />
<glyph unicode="&#x104;" horiz-adv-x="1333" d="M1016 -213q0 -30 22 -45t68 -23l-55 -92q-68 10 -98.5 44.5t-30.5 82.5q0 119 157 246h-55l-80 455h-612l-271 -455h-153l883 1454h122l263 -1454q-88 -76 -124 -123.5t-36 -89.5zM385 567h551l-119 719z" />
<glyph unicode="&#x105;" horiz-adv-x="1224" d="M971 156q0 -33 39 -33l-27 -123q-88 -76 -124 -123.5t-36 -89.5q0 -30 22 -45t68 -23l-55 -92q-68 10 -98.5 44.5t-30.5 82.5q0 62 39 121t121 127q-55 18 -55 74q0 18 22 131q-82 -104 -197.5 -165.5t-228.5 -61.5q-115 0 -203 62t-132 162.5t-44 221.5q0 166 83 319 t220.5 246.5t288.5 93.5q123 0 208.5 -67.5t123.5 -173.5l49 223h139l-188 -885q-4 -16 -4 -26zM487 102q105 0 227 80t160 185l68 329q-14 110 -96.5 188.5t-190.5 78.5q-118 0 -225.5 -77.5t-170 -197t-62.5 -242.5q0 -144 81 -244t209 -100z" />
<glyph unicode="&#x106;" horiz-adv-x="1343" d="M940 1657l-86 35l156 190h145zM96 592q0 122 37.5 247t110 236t169.5 198t226.5 138t271.5 51q190 0 306 -86.5t153 -230.5l-121 -66q-73 254 -356 254q-121 0 -227.5 -43.5t-183 -117t-132 -167.5t-83 -197t-27.5 -204q0 -134 46.5 -243.5t140.5 -176.5t220 -67 q125 0 252.5 68.5t216.5 201.5l107 -61q-69 -110 -173 -188.5t-212.5 -114t-216.5 -35.5q-125 0 -226.5 51.5t-165.5 137t-98.5 192.5t-34.5 223z" />
<glyph unicode="&#x107;" horiz-adv-x="1077" d="M760 1270l-86 35l155 190h146zM51 432q0 170 85 320.5t232.5 241.5t319.5 91q145 0 239 -67.5t124 -186.5l-144 -43q-26 85 -88 130t-151 45t-175.5 -41t-152 -109.5t-105.5 -164t-40 -197.5q0 -151 78.5 -250t203.5 -99q97 0 195 54.5t135 128.5l129 -41 q-66 -116 -198.5 -190t-276.5 -74q-188 0 -299 129t-111 323z" />
<glyph unicode="&#x108;" horiz-adv-x="1343" d="M676 1690l231 174h101l155 -174l-86 -41l-139 129l-193 -129zM96 592q0 122 37.5 247t110 236t169.5 198t226.5 138t271.5 51q190 0 306 -86.5t153 -230.5l-121 -66q-73 254 -356 254q-121 0 -227.5 -43.5t-183 -117t-132 -167.5t-83 -197t-27.5 -204q0 -134 46.5 -243.5 t140.5 -176.5t220 -67q125 0 252.5 68.5t216.5 201.5l107 -61q-69 -110 -173 -188.5t-212.5 -114t-216.5 -35.5q-125 0 -226.5 51.5t-165.5 137t-98.5 192.5t-34.5 223z" />
<glyph unicode="&#x109;" horiz-adv-x="1077" d="M496 1303l231 174h100l156 -174l-86 -41l-139 129l-193 -129zM51 432q0 170 85 320.5t232.5 241.5t319.5 91q145 0 239 -67.5t124 -186.5l-144 -43q-26 85 -88 130t-151 45t-175.5 -41t-152 -109.5t-105.5 -164t-40 -197.5q0 -151 78.5 -250t203.5 -99q97 0 195 54.5 t135 128.5l129 -41q-66 -116 -198.5 -190t-276.5 -74q-188 0 -299 129t-111 323z" />
<glyph unicode="&#x10a;" horiz-adv-x="1343" d="M854 1683l43 199h127l-43 -199h-127zM96 592q0 122 37.5 247t110 236t169.5 198t226.5 138t271.5 51q190 0 306 -86.5t153 -230.5l-121 -66q-73 254 -356 254q-121 0 -227.5 -43.5t-183 -117t-132 -167.5t-83 -197t-27.5 -204q0 -134 46.5 -243.5t140.5 -176.5t220 -67 q125 0 252.5 68.5t216.5 201.5l107 -61q-69 -110 -173 -188.5t-212.5 -114t-216.5 -35.5q-125 0 -226.5 51.5t-165.5 137t-98.5 192.5t-34.5 223z" />
<glyph unicode="&#x10b;" horiz-adv-x="1077" d="M674 1296l43 199h127l-43 -199h-127zM51 432q0 170 85 320.5t232.5 241.5t319.5 91q145 0 239 -67.5t124 -186.5l-144 -43q-26 85 -88 130t-151 45t-175.5 -41t-152 -109.5t-105.5 -164t-40 -197.5q0 -151 78.5 -250t203.5 -99q97 0 195 54.5t135 128.5l129 -41 q-66 -116 -198.5 -190t-276.5 -74q-188 0 -299 129t-111 323z" />
<glyph unicode="&#x10c;" horiz-adv-x="1343" d="M694 1841l86 41l140 -129l192 129l70 -41l-232 -176h-102zM96 592q0 122 37.5 247t110 236t169.5 198t226.5 138t271.5 51q190 0 306 -86.5t153 -230.5l-121 -66q-73 254 -356 254q-121 0 -227.5 -43.5t-183 -117t-132 -167.5t-83 -197t-27.5 -204q0 -134 46.5 -243.5 t140.5 -176.5t220 -67q125 0 252.5 68.5t216.5 201.5l107 -61q-69 -110 -173 -188.5t-212.5 -114t-216.5 -35.5q-125 0 -226.5 51.5t-165.5 137t-98.5 192.5t-34.5 223z" />
<glyph unicode="&#x10d;" horiz-adv-x="1077" d="M514 1454l86 41l139 -129l193 129l69 -41l-231 -176h-102zM51 432q0 170 85 320.5t232.5 241.5t319.5 91q145 0 239 -67.5t124 -186.5l-144 -43q-26 85 -88 130t-151 45t-175.5 -41t-152 -109.5t-105.5 -164t-40 -197.5q0 -151 78.5 -250t203.5 -99q97 0 195 54.5 t135 128.5l129 -41q-66 -116 -198.5 -190t-276.5 -74q-188 0 -299 129t-111 323z" />
<glyph unicode="&#x10e;" horiz-adv-x="1413" d="M637 1839l86 41l139 -129l193 129l69 -41l-231 -176h-102zM358 1454h471q132 0 235 -43t167 -119t96.5 -176t32.5 -219q0 -253 -109 -458.5t-301.5 -322t-429.5 -116.5h-471zM547 127q150 0 277 61.5t211 165t130.5 238t46.5 282.5q0 205 -106.5 329t-304.5 124h-328 l-256 -1200h330z" />
<glyph unicode="&#x10f;" horiz-adv-x="1224" d="M51 426q0 166 83 319t221 246.5t290 93.5q120 0 206.5 -67.5t123.5 -173.5l139 651h139l-278 -1313q-4 -20 -4 -24q0 -35 39 -35l-27 -123q-54 -4 -57 -4q-43 1 -67.5 24t-24.5 58q0 26 22 129q-81 -104 -197 -165.5t-227 -61.5q-116 0 -204 62t-132.5 162.5t-44.5 221.5 zM1262 1305l155 190h146l-215 -225zM874 367l68 329q-13 110 -98.5 188.5t-188.5 78.5q-120 0 -227 -77t-169 -196t-62 -241q0 -146 81 -246.5t211 -100.5q66 0 145 35.5t147 97.5t93 132z" />
<glyph unicode="&#x110;" horiz-adv-x="1427" d="M844 1454q132 0 235 -43t166.5 -119.5t96 -176t32.5 -218.5q0 -190 -64 -356.5t-175 -285t-266.5 -187t-333.5 -68.5h-472l144 676h-119l25 110h118l142 668h471zM561 127q150 0 277 61.5t211 165t131 238t47 282.5q0 205 -107 329t-305 124h-328l-114 -541h327l-22 -110 h-330l-117 -549h330z" />
<glyph unicode="&#x111;" horiz-adv-x="1224" d="M1202 1249l-227 -1067q-4 -20 -4 -24q0 -35 39 -35l-27 -123q-54 -4 -57 -4q-43 1 -67.5 24t-24.5 58q0 26 22 129q-81 -104 -197 -165.5t-227 -61.5q-116 0 -204 62t-132.5 162.5t-44.5 221.5q0 166 83 319t221 246.5t290 93.5q120 0 206.5 -67.5t123.5 -173.5l86 405 h-203l21 94h202l33 152h139l-32 -152h153l-18 -94h-154zM874 367l68 329q-13 110 -98.5 188.5t-188.5 78.5q-120 0 -227 -77t-169 -196t-62 -241q0 -146 81 -246.5t211 -100.5q66 0 145 35.5t147 97.5t93 132z" />
<glyph unicode="&#x112;" horiz-adv-x="1191" d="M569 1743l21 96h563l-20 -96h-564zM358 1454h912l-27 -127h-770l-113 -524h672l-24 -121h-672l-119 -555h789l-27 -127h-930z" />
<glyph unicode="&#x113;" horiz-adv-x="1093" d="M1053 1452l-21 -96h-563l20 96h564zM690 1085q148 0 246 -75t98 -211q0 -318 -569 -318q-81 0 -268 11q-4 -40 -4 -60q0 -149 76 -247.5t218 -98.5q100 0 198.5 55t150.5 144l114 -35q-74 -121 -208 -195.5t-279 -74.5q-191 0 -301.5 128.5t-110.5 323.5q0 125 49 243.5 t133 209t204 145.5t253 55zM471 582q436 0 436 219q0 88 -64 132t-163 44q-118 0 -216 -56t-158 -140.5t-89 -188.5q163 -10 254 -10z" />
<glyph unicode="&#x114;" horiz-adv-x="1191" d="M991 1882h84q-19 -88 -87 -147.5t-150 -59.5q-70 0 -114 45t-44 115q0 23 6 47h86q-4 -20 -4 -31q0 -43 24 -73.5t60 -30.5q41 0 81.5 39t57.5 96zM358 1454h912l-27 -127h-770l-113 -524h672l-24 -121h-672l-119 -555h789l-27 -127h-930z" />
<glyph unicode="&#x115;" horiz-adv-x="1093" d="M737 1288q-70 0 -113.5 45t-43.5 115q0 23 6 47h86q-4 -20 -4 -31q0 -43 24 -73.5t60 -30.5q41 0 81.5 39t57.5 96h84q-19 -88 -87.5 -147.5t-150.5 -59.5zM465 481q-81 0 -268 11q-4 -40 -4 -60q0 -149 76 -247.5t218 -98.5q100 0 198.5 55t150.5 144l114 -35 q-74 -121 -208 -195.5t-279 -74.5q-191 0 -301.5 128.5t-110.5 323.5q0 125 49 243.5t133 209t204 145.5t253 55q148 0 246 -75t98 -211q0 -318 -569 -318zM680 977q-118 0 -216 -56t-158 -140.5t-89 -188.5q163 -10 254 -10q436 0 436 219q0 88 -64 132t-163 44z" />
<glyph unicode="&#x116;" horiz-adv-x="1191" d="M776 1683l43 199h127l-43 -199h-127zM358 1454h912l-27 -127h-770l-113 -524h672l-24 -121h-672l-119 -555h789l-27 -127h-930z" />
<glyph unicode="&#x117;" horiz-adv-x="1093" d="M846 1495l-43 -199h-127l43 199h127zM465 481q-81 0 -268 11q-4 -40 -4 -60q0 -149 76 -247.5t218 -98.5q100 0 198.5 55t150.5 144l114 -35q-74 -121 -208 -195.5t-279 -74.5q-191 0 -301.5 128.5t-110.5 323.5q0 125 49 243.5t133 209t204 145.5t253 55q148 0 246 -75 t98 -211q0 -318 -569 -318zM680 977q-118 0 -216 -56t-158 -140.5t-89 -188.5q163 -10 254 -10q436 0 436 219q0 88 -64 132t-163 44z" />
<glyph unicode="&#x118;" horiz-adv-x="1191" d="M1243 1327h-770l-113 -524h672l-24 -121h-672l-119 -555h789l-27 -127q-88 -76 -124 -123.5t-36 -89.5q0 -30 22 -45t68 -23l-55 -92q-68 10 -98.5 44.5t-30.5 82.5q0 118 158 246h-834l309 1454h912z" />
<glyph unicode="&#x119;" horiz-adv-x="1093" d="M465 481q-81 0 -268 11q-4 -40 -4 -60q0 -149 76 -247.5t218 -98.5q100 0 198.5 55t150.5 144l114 -35q-60 -98 -162 -167.5t-219 -92.5q-81 -72 -115 -117.5t-34 -85.5q0 -30 22 -45t68 -23l-55 -92q-68 10 -98.5 44.5t-30.5 82.5q0 111 133 226q-126 1 -220 62 t-141 162.5t-47 227.5q0 125 49 243.5t133 209t204 145.5t253 55q148 0 246 -75t98 -211q0 -318 -569 -318zM680 977q-118 0 -216 -56t-158 -140.5t-89 -188.5q163 -10 254 -10q436 0 436 219q0 88 -64 132t-163 44z" />
<glyph unicode="&#x11a;" horiz-adv-x="1191" d="M616 1841l86 41l140 -129l192 129l70 -41l-232 -176h-102zM358 1454h912l-27 -127h-770l-113 -524h672l-24 -121h-672l-119 -555h789l-27 -127h-930z" />
<glyph unicode="&#x11b;" horiz-adv-x="1093" d="M772 1278h-102l-154 176l86 41l139 -129l193 129l70 -41zM465 481q-81 0 -268 11q-4 -40 -4 -60q0 -149 76 -247.5t218 -98.5q100 0 198.5 55t150.5 144l114 -35q-74 -121 -208 -195.5t-279 -74.5q-191 0 -301.5 128.5t-110.5 323.5q0 125 49 243.5t133 209t204 145.5 t253 55q148 0 246 -75t98 -211q0 -318 -569 -318zM680 977q-118 0 -216 -56t-158 -140.5t-89 -188.5q163 -10 254 -10q436 0 436 219q0 88 -64 132t-163 44z" />
<glyph unicode="&#x11c;" horiz-adv-x="1406" d="M981 1774l-193 -129l-69 41l231 174h101l155 -174l-86 -41zM870 604l23 111h426l-152 -715h-123l46 213q-235 -223 -486 -223q-117 0 -214.5 51t-161 136t-98 194t-34.5 227q0 163 67.5 321.5t178 278t262.5 193t311 73.5q190 0 304 -85t153 -232l-127 -74 q-35 130 -127 196t-231 66q-105 0 -205 -41.5t-178.5 -113t-138.5 -163.5t-92.5 -198.5t-32.5 -212.5q0 -134 48 -244t141 -176.5t214 -66.5q235 0 479 241l52 244h-304z" />
<glyph unicode="&#x11d;" horiz-adv-x="1212" d="M489 1303l232 174h100l156 -174l-86 -41l-139 129l-193 -129zM-68 -215l99 68q37 -98 124 -148.5t205 -50.5q155 0 276.5 89t156.5 253l45 211q-77 -101 -192 -161t-226 -60q-113 0 -199 62t-129 161t-43 217q0 123 49.5 243.5t130.5 211.5t192.5 147.5t229.5 56.5 q231 0 338 -241l47 223h123l-227 -1071q-22 -108 -80 -195.5t-138.5 -143t-176.5 -85t-199 -29.5q-167 0 -264 62.5t-142 179.5zM872 367l70 329q-17 115 -99.5 191t-189.5 76q-123 0 -231 -80t-168.5 -198.5t-60.5 -235.5q0 -145 81.5 -246t210.5 -101q114 0 231 82 t156 183z" />
<glyph unicode="&#x11e;" horiz-adv-x="1406" d="M958 1671q-70 0 -113.5 45t-43.5 115q0 23 6 47h86q-4 -20 -4 -31q0 -43 24 -73.5t60 -30.5q41 0 81.5 39t57.5 96h84q-19 -88 -87.5 -147.5t-150.5 -59.5zM870 604l23 111h426l-152 -715h-123l46 213q-235 -223 -486 -223q-117 0 -214.5 51t-161 136t-98 194t-34.5 227 q0 163 67.5 321.5t178 278t262.5 193t311 73.5q190 0 304 -85t153 -232l-127 -74q-35 130 -127 196t-231 66q-105 0 -205 -41.5t-178.5 -113t-138.5 -163.5t-92.5 -198.5t-32.5 -212.5q0 -134 48 -244t141 -176.5t214 -66.5q235 0 479 241l52 244h-304z" />
<glyph unicode="&#x11f;" horiz-adv-x="1212" d="M883 1495h84q-19 -88 -87.5 -147.5t-150.5 -59.5q-70 0 -114 45t-44 115q0 19 7 47h86q-5 -25 -5 -31q0 -43 24 -73.5t60 -30.5q41 0 82 39t58 96zM-68 -215l99 68q37 -98 124 -148.5t205 -50.5q155 0 276.5 89t156.5 253l45 211q-77 -101 -192 -161t-226 -60 q-113 0 -199 62t-129 161t-43 217q0 123 49.5 243.5t130.5 211.5t192.5 147.5t229.5 56.5q231 0 338 -241l47 223h123l-227 -1071q-22 -108 -80 -195.5t-138.5 -143t-176.5 -85t-199 -29.5q-167 0 -264 62.5t-142 179.5zM872 367l70 329q-17 115 -99.5 191t-189.5 76 q-123 0 -231 -80t-168.5 -198.5t-60.5 -235.5q0 -145 81.5 -246t210.5 -101q114 0 231 82t156 183z" />
<glyph unicode="&#x120;" horiz-adv-x="1406" d="M1067 1878l-43 -199h-127l43 199h127zM870 604l23 111h426l-152 -715h-123l46 213q-235 -223 -486 -223q-117 0 -214.5 51t-161 136t-98 194t-34.5 227q0 163 67.5 321.5t178 278t262.5 193t311 73.5q190 0 304 -85t153 -232l-127 -74q-35 130 -127 196t-231 66 q-105 0 -205 -41.5t-178.5 -113t-138.5 -163.5t-92.5 -198.5t-32.5 -212.5q0 -134 48 -244t141 -176.5t214 -66.5q235 0 479 241l52 244h-304z" />
<glyph unicode="&#x121;" horiz-adv-x="1212" d="M668 1296l43 199h127l-43 -199h-127zM-68 -215l99 68q37 -98 124 -148.5t205 -50.5q155 0 276.5 89t156.5 253l45 211q-77 -101 -192 -161t-226 -60q-113 0 -199 62t-129 161t-43 217q0 123 49.5 243.5t130.5 211.5t192.5 147.5t229.5 56.5q231 0 338 -241l47 223h123 l-227 -1071q-22 -108 -80 -195.5t-138.5 -143t-176.5 -85t-199 -29.5q-167 0 -264 62.5t-142 179.5zM872 367l70 329q-17 115 -99.5 191t-189.5 76q-123 0 -231 -80t-168.5 -198.5t-60.5 -235.5q0 -145 81.5 -246t210.5 -101q114 0 231 82t156 183z" />
<glyph unicode="&#x122;" horiz-adv-x="1406" d="M870 604l23 111h426l-152 -715h-123l46 213q-235 -223 -486 -223q-117 0 -214.5 51t-161 136t-98 194t-34.5 227q0 163 67.5 321.5t178 278t262.5 193t311 73.5q190 0 304 -85t153 -232l-127 -74q-35 130 -127 196t-231 66q-105 0 -205 -41.5t-178.5 -113t-138.5 -163.5 t-92.5 -198.5t-32.5 -212.5q0 -134 48 -244t141 -176.5t214 -66.5q235 0 479 241l52 244h-304zM522 -256l33 156h127l-33 -156l-82 -152h-71l67 152h-41z" />
<glyph unicode="&#x123;" horiz-adv-x="1212" d="M834 1495l-60 -131h37l-39 -143h-106l41 143l71 131h56zM-68 -215l99 68q37 -98 124 -148.5t205 -50.5q155 0 276.5 89t156.5 253l45 211q-77 -101 -192 -161t-226 -60q-113 0 -199 62t-129 161t-43 217q0 123 49.5 243.5t130.5 211.5t192.5 147.5t229.5 56.5 q231 0 338 -241l47 223h123l-227 -1071q-22 -108 -80 -195.5t-138.5 -143t-176.5 -85t-199 -29.5q-167 0 -264 62.5t-142 179.5zM872 367l70 329q-17 115 -99.5 191t-189.5 76q-123 0 -231 -80t-168.5 -198.5t-60.5 -235.5q0 -145 81.5 -246t210.5 -101q114 0 231 82 t156 183z" />
<glyph unicode="&#x124;" horiz-adv-x="1452" d="M731 1690l232 174h100l156 -174l-86 -41l-140 129l-192 -129zM358 1454h142l-138 -647h809l138 647h143l-309 -1454h-144l146 680h-809l-146 -680h-141z" />
<glyph unicode="&#x125;" horiz-adv-x="1144" d="M588 1688l219 174h96l148 -174l-82 -41l-131 129l-183 -129zM336 1495h139l-143 -670q86 120 208 190t246 70q244 0 244 -272q0 -92 -22 -188l-131 -625h-140l127 596q19 112 19 156q0 206 -174 206q-110 0 -231 -88t-183 -217l-137 -653h-140z" />
<glyph unicode="&#x126;" horiz-adv-x="1472" d="M1507 1206l-18 -80h-96l-240 -1126h-141l143 680h-809l-143 -680h-144l240 1126h-96l16 80h96l54 248h143l-53 -248h809l53 248h141l-53 -248h98zM1184 807l67 319h-809l-67 -319h809z" />
<glyph unicode="&#x127;" horiz-adv-x="1144" d="M786 1085q244 0 244 -272q0 -92 -22 -188l-131 -625h-140l127 596q19 112 19 156q0 206 -174 206q-110 0 -231 -88t-183 -217l-137 -653h-140l267 1249h-144l19 94h143l33 152h139l-33 -152h213l-18 -94h-215l-90 -424q86 120 208 190t246 70z" />
<glyph unicode="&#x128;" horiz-adv-x="501" d="M367 1774q-38 0 -66.5 -24t-38.5 -44t-12 -31h-86q2 11 11 31t27.5 48.5t42.5 53t61.5 41.5t78.5 17q46 0 83.5 -21.5t72 -43t73.5 -21.5q29 0 53 10t38 23t24.5 29t14 24.5t4.5 13.5h86q-3 -15 -17.5 -41.5t-41 -61.5t-74 -60t-103.5 -25q-39 0 -73 13t-54.5 28t-48 28 t-55.5 13zM358 1452h142l-310 -1452h-141z" />
<glyph unicode="&#x129;" horiz-adv-x="436" d="M422 1331q-29 0 -53 -13.5t-37 -32.5t-19.5 -32t-7.5 -20h-86q3 15 17 42.5t39.5 62.5t69.5 60t95 25q46 0 83.5 -21.5t72.5 -43t74 -21.5q29 0 53 10t37.5 23t24 29.5t14 25t4.5 13.5h86q-3 -15 -17.5 -41.5t-41 -62t-74 -60.5t-103.5 -25q-39 0 -73 13t-54.5 28t-48 28 t-55.5 13zM244 1067h139l-225 -1067h-140z" />
<glyph unicode="&#x12a;" horiz-adv-x="501" d="M207 1741l20 96h564l-21 -96h-563zM358 1452h142l-310 -1452h-141z" />
<glyph unicode="&#x12b;" horiz-adv-x="436" d="M90 1356l21 96h563l-21 -96h-563zM244 1067h139l-225 -1067h-140z" />
<glyph unicode="&#x12c;" horiz-adv-x="501" d="M629 1880h84q-19 -88 -87.5 -147.5t-150.5 -59.5q-70 0 -114 45t-44 115q0 19 7 47h86q-4 -20 -4 -31q0 -44 23.5 -74t59.5 -30q41 0 82 39t58 96zM358 1452h142l-310 -1452h-141z" />
<glyph unicode="&#x12d;" horiz-adv-x="436" d="M512 1495h84q-19 -88 -87.5 -147.5t-150.5 -59.5q-70 0 -113.5 45t-43.5 115q0 23 6 47h86q-4 -20 -4 -31q0 -43 24 -73.5t60 -30.5q41 0 81.5 39t57.5 96zM244 1067h139l-225 -1067h-140z" />
<glyph unicode="&#x12e;" horiz-adv-x="501" d="M190 0q-88 -76 -123.5 -123.5t-35.5 -89.5q0 -30 22 -45t68 -23l-55 -92q-68 10 -98.5 44.5t-30.5 82.5q0 119 157 246h-45l309 1452h142z" />
<glyph unicode="&#x12f;" horiz-adv-x="436" d="M336 1495h139l-43 -205h-139zM18 0l226 1067h139l-225 -1067q-88 -76 -124 -123.5t-36 -89.5q0 -30 22 -45t68 -23l-55 -92q-68 10 -98.5 44.5t-30.5 82.5q0 119 157 246h-43z" />
<glyph unicode="&#x130;" horiz-adv-x="501" d="M414 1681l43 199h127l-43 -199h-127zM358 1452h142l-310 -1452h-141z" />
<glyph unicode="&#x131;" horiz-adv-x="436" d="M244 1067h139l-225 -1067h-140z" />
<glyph unicode="&#x134;" horiz-adv-x="958" d="M713 1686l231 174h100l156 -174l-86 -41l-139 129l-193 -129zM-76 68l64 114q39 -34 103 -56t145 -22q46 0 85.5 8.5t72.5 23.5t61 40.5t50.5 54t43 70t36.5 82.5t32 98t29 110t28 124l157 737h144l-158 -737q-23 -106 -43 -183t-48.5 -159t-60.5 -138t-76.5 -108 t-98.5 -83t-124.5 -49t-156.5 -18q-170 0 -285 91z" />
<glyph unicode="&#x135;" horiz-adv-x="436" d="M139 1303l232 174h100l156 -174l-86 -41l-140 129l-192 -129zM-430 -291l86 94q39 -49 131 -49q69 0 135 55.5t84 135.5l238 1122h139l-238 -1114q-29 -137 -139.5 -230.5t-230.5 -93.5q-139 0 -205 80z" />
<glyph unicode="&#x136;" horiz-adv-x="1259" d="M358 1452h142l-181 -844l932 846h160l-700 -639l419 -815h-157l-369 731l-317 -285l-97 -446h-141zM412 -408l67 152h-41l33 156h127l-33 -156l-82 -152h-71z" />
<glyph unicode="&#x137;" horiz-adv-x="1097" d="M1049 872q0 -133 -98.5 -240.5t-280.5 -168.5l239 -463h-151l-254 522q198 41 307 132.5t109 199.5q0 60 -35 89.5t-97 29.5q-132 0 -274 -120t-242 -314l-114 -539h-140l318 1495h139l-156 -731q242 323 504 323q111 0 168.5 -57t57.5 -158zM319 -256l33 156h127 l-33 -156l-81 -152h-72l67 152h-41z" />
<glyph unicode="&#x138;" horiz-adv-x="1040" d="M244 1067h139l-125 -588l688 586h154l-504 -436l297 -629h-152l-254 547l-260 -213l-69 -334h-140z" />
<glyph unicode="&#x139;" horiz-adv-x="1140" d="M489 1657l-86 35l156 190h146zM358 1454h142l-283 -1327h795l-27 -127h-936z" />
<glyph unicode="&#x13a;" horiz-adv-x="540" d="M479 1698l-86 35l156 190h145zM57 137q0 13 9 58l274 1300h139l-266 -1253q-4 -28 -4 -37q0 -43 25 -66.5t71 -23.5q55 0 113 22l-4 -112q-40 -15 -97 -26t-98 -11q-75 0 -118.5 39.5t-43.5 109.5z" />
<glyph unicode="&#x13b;" horiz-adv-x="1140" d="M358 1454h142l-283 -1327h795l-27 -127h-936zM375 -408l67 152h-41l33 156h127l-33 -156l-82 -152h-71z" />
<glyph unicode="&#x13c;" horiz-adv-x="540" d="M57 137q0 13 9 58l274 1300h139l-266 -1253q-4 -28 -4 -37q0 -43 25 -66.5t71 -23.5q55 0 113 22l-4 -112q-40 -15 -97 -26t-98 -11q-75 0 -118.5 39.5t-43.5 109.5zM88 -408l68 152h-41l32 156h127l-32 -156l-82 -152h-72z" />
<glyph unicode="&#x13d;" horiz-adv-x="1140" d="M934 1305l156 190h145l-215 -225zM358 1454h142l-283 -1327h795l-27 -127h-936z" />
<glyph unicode="&#x13e;" horiz-adv-x="540" d="M57 137q0 13 9 58l274 1300h139l-266 -1253q-4 -28 -4 -37q0 -43 25 -66.5t71 -23.5q55 0 113 22l-4 -112q-40 -15 -97 -26t-98 -11q-75 0 -118.5 39.5t-43.5 109.5zM496 1305l155 190h146l-215 -225z" />
<glyph unicode="&#x13f;" horiz-adv-x="1140" d="M358 1454h142l-283 -1327h795l-27 -127h-936zM674 713l47 229h119l-47 -229h-119z" />
<glyph unicode="&#x140;" horiz-adv-x="614" d="M57 137q0 13 9 58l274 1300h139l-266 -1253q-4 -28 -4 -37q0 -43 25 -66.5t71 -23.5q55 0 113 22l-4 -112q-40 -15 -97 -26t-98 -11q-75 0 -118.5 39.5t-43.5 109.5zM453 539l47 229h118l-47 -229h-118z" />
<glyph unicode="&#x141;" horiz-adv-x="1155" d="M217 127h795l-27 -127h-936l119 555l-117 -86l-26 82l168 123l165 780h142l-140 -657l371 272l27 -80l-424 -311z" />
<glyph unicode="&#x142;" horiz-adv-x="577" d="M246 205q0 -43 25 -66.5t71 -23.5q55 0 113 22l-2 -112q-102 -37 -197 -37q-76 0 -119 39t-43 108q0 30 6 60l107 497l-144 -100l-28 80l196 137l146 686h139l-121 -571l203 143l31 -80l-258 -180l-115 -537q-10 -48 -10 -65z" />
<glyph unicode="&#x143;" horiz-adv-x="1515" d="M1036 1653l-86 35l156 190h145zM358 1454h111l647 -1210l256 1208h141l-309 -1452h-121l-641 1188l-252 -1188h-141z" />
<glyph unicode="&#x144;" horiz-adv-x="1144" d="M852 1270l-86 35l156 190h145zM244 1067h129l-54 -242q87 117 219 188.5t265 71.5q231 0 231 -254q0 -79 -26 -206l-131 -625h-140l127 596q21 119 21 174q0 188 -160 188q-117 0 -241.5 -87.5t-188.5 -217.5l-137 -653h-140z" />
<glyph unicode="&#x145;" horiz-adv-x="1515" d="M358 1454h111l647 -1210l256 1208h141l-309 -1452h-121l-641 1188l-252 -1188h-141zM504 -408l67 152h-41l33 156h127l-33 -156l-82 -152h-71z" />
<glyph unicode="&#x146;" horiz-adv-x="1144" d="M244 1067h129l-54 -242q87 117 219 188.5t265 71.5q231 0 231 -254q0 -79 -26 -206l-131 -625h-140l127 596q21 119 21 174q0 188 -160 188q-117 0 -241.5 -87.5t-188.5 -217.5l-137 -653h-140zM324 -408l67 152h-41l33 156h127l-33 -156l-82 -152h-71z" />
<glyph unicode="&#x147;" horiz-adv-x="1515" d="M791 1837l86 41l139 -129l192 129l70 -41l-231 -176h-103zM358 1454h111l647 -1210l256 1208h141l-309 -1452h-121l-641 1188l-252 -1188h-141z" />
<glyph unicode="&#x148;" horiz-adv-x="1144" d="M606 1454l86 41l139 -129l193 129l70 -41l-232 -176h-102zM244 1067h129l-54 -242q87 117 219 188.5t265 71.5q231 0 231 -254q0 -79 -26 -206l-131 -625h-140l127 596q21 119 21 174q0 188 -160 188q-117 0 -241.5 -87.5t-188.5 -217.5l-137 -653h-140z" />
<glyph unicode="&#x14a;" horiz-adv-x="1507" d="M606 -291l88 94q39 -49 129 -49q70 0 136 55.5t83 135.5l17 73l-617 1168l-252 -1186h-141l309 1454h109l637 -1204l256 1202h143l-319 -1503q-30 -137 -141.5 -228.5t-231.5 -91.5q-139 0 -205 80z" />
<glyph unicode="&#x14b;" horiz-adv-x="1144" d="M289 -291l88 94q39 -49 129 -49q68 0 134.5 55.5t84.5 135.5l139 651q21 119 21 174q0 188 -160 188q-117 0 -241.5 -87.5t-188.5 -217.5l-137 -653h-140l226 1067h129l-54 -242q87 117 219 188.5t265 71.5q231 0 231 -254q0 -79 -26 -206l-142 -672 q-30 -137 -140.5 -230.5t-229.5 -93.5q-141 0 -207 80z" />
<glyph unicode="&#x14c;" horiz-adv-x="1478" d="M709 1739l20 96h563l-20 -96h-563zM94 588q0 166 69 327t181.5 281t264 194t309.5 74q123 0 222.5 -50.5t161.5 -135.5t95 -192t33 -224q0 -165 -68.5 -325t-180 -280t-262.5 -193.5t-309 -73.5q-123 0 -223 49.5t-163 133.5t-96.5 190.5t-33.5 224.5zM1286 852 q0 97 -25.5 183t-73.5 153t-125 106t-173 39q-106 0 -206 -41.5t-179 -114t-139 -165t-92.5 -199.5t-32.5 -213q0 -98 25.5 -183.5t74 -152.5t125.5 -106t174 -39q106 0 206 42t178.5 115t138.5 165.5t92 199t32 211.5z" />
<glyph unicode="&#x14d;" horiz-adv-x="1173" d="M463 1356l20 96h564l-21 -96h-563zM49 428q0 176 85.5 328t230 240.5t309.5 88.5q101 0 180.5 -35t130 -97t76.5 -143t26 -175q0 -176 -84.5 -327t-228.5 -239.5t-311 -88.5q-102 0 -182 35t-130 96.5t-76 142t-26 174.5zM944 614q0 154 -77.5 251.5t-217.5 97.5 q-86 0 -168.5 -40t-146 -108t-102.5 -165t-39 -204q0 -154 76.5 -249t217.5 -95q87 0 170 39.5t146 106.5t102 163t39 203z" />
<glyph unicode="&#x14e;" horiz-adv-x="1478" d="M1130 1878h84q-19 -88 -87 -147.5t-150 -59.5q-70 0 -114 45t-44 115q0 23 6 47h86q-4 -20 -4 -31q0 -43 24 -73.5t60 -30.5q41 0 81.5 39t57.5 96zM94 588q0 166 69 327t181.5 281t264 194t309.5 74q123 0 222.5 -50.5t161.5 -135.5t95 -192t33 -224q0 -165 -68.5 -325 t-180 -280t-262.5 -193.5t-309 -73.5q-123 0 -223 49.5t-163 133.5t-96.5 190.5t-33.5 224.5zM1286 852q0 97 -25.5 183t-73.5 153t-125 106t-173 39q-106 0 -206 -41.5t-179 -114t-139 -165t-92.5 -199.5t-32.5 -213q0 -98 25.5 -183.5t74 -152.5t125.5 -106t174 -39 q106 0 206 42t178.5 115t138.5 165.5t92 199t32 211.5z" />
<glyph unicode="&#x14f;" horiz-adv-x="1173" d="M885 1495h84q-19 -88 -87.5 -147.5t-150.5 -59.5q-70 0 -114 45t-44 115q0 19 7 47h86q-4 -20 -4 -31q0 -44 23.5 -74t59.5 -30q41 0 82 39t58 96zM49 428q0 176 85.5 328t230 240.5t309.5 88.5q101 0 180.5 -35t130 -97t76.5 -143t26 -175q0 -176 -84.5 -327 t-228.5 -239.5t-311 -88.5q-102 0 -182 35t-130 96.5t-76 142t-26 174.5zM944 614q0 154 -77.5 251.5t-217.5 97.5q-86 0 -168.5 -40t-146 -108t-102.5 -165t-39 -204q0 -154 76.5 -249t217.5 -95q87 0 170 39.5t146 106.5t102 163t39 203z" />
<glyph unicode="&#x150;" horiz-adv-x="1478" d="M856 1653l-68 35l150 190h129zM1104 1653l-68 35l150 190h129zM94 588q0 166 69 327t181.5 281t264 194t309.5 74q123 0 222.5 -50.5t161.5 -135.5t95 -192t33 -224q0 -165 -68.5 -325t-180 -280t-262.5 -193.5t-309 -73.5q-123 0 -223 49.5t-163 133.5t-96.5 190.5 t-33.5 224.5zM1286 852q0 97 -25.5 183t-73.5 153t-125 106t-173 39q-106 0 -206 -41.5t-179 -114t-139 -165t-92.5 -199.5t-32.5 -213q0 -98 25.5 -183.5t74 -152.5t125.5 -106t174 -39q106 0 206 42t178.5 115t138.5 165.5t92 199t32 211.5z" />
<glyph unicode="&#x151;" horiz-adv-x="1173" d="M610 1270l-67 35l149 190h129zM858 1270l-67 35l149 190h129zM49 428q0 176 85.5 328t230 240.5t309.5 88.5q101 0 180.5 -35t130 -97t76.5 -143t26 -175q0 -176 -84.5 -327t-228.5 -239.5t-311 -88.5q-102 0 -182 35t-130 96.5t-76 142t-26 174.5zM944 614 q0 154 -77.5 251.5t-217.5 97.5q-86 0 -168.5 -40t-146 -108t-102.5 -165t-39 -204q0 -154 76.5 -249t217.5 -95q87 0 170 39.5t146 106.5t102 163t39 203z" />
<glyph unicode="&#x152;" horiz-adv-x="2248" d="M94 590q0 130 45 260.5t125 239.5t183 194t227 132.5t248 47.5q170 0 282 -107t144 -272l77 369h904l-29 -127h-760l-108 -522h653l-29 -127h-653l-117 -551h776l-26 -127h-920l80 369q-105 -167 -264 -273t-324 -106q-120 0 -219 49.5t-162.5 133.5t-98 191.5 t-34.5 225.5zM1284 850q0 131 -45 240t-135.5 177t-210.5 68q-130 0 -252.5 -66t-209 -170t-139 -236t-52.5 -261q0 -131 44.5 -239.5t135.5 -176t213 -67.5q130 0 252 66t208.5 170.5t138.5 235.5t52 259z" />
<glyph unicode="&#x153;" horiz-adv-x="2017" d="M49 422q0 132 54 255t142 212t205 142.5t238 53.5q146 0 242.5 -90.5t116.5 -246.5q89 160 222.5 248.5t286.5 88.5q185 0 290.5 -122.5t105.5 -329.5q0 -104 -23 -150h-860q-4 -23 -4 -67q0 -143 83.5 -236.5t217.5 -93.5q105 0 203 53.5t147 139.5l113 -33 q-76 -118 -213.5 -192t-278.5 -74q-143 0 -245 90.5t-136 242.5q-99 -156 -232.5 -244.5t-274.5 -88.5q-179 0 -289.5 125t-110.5 317zM1817 578q4 54 4 75q0 145 -80.5 234.5t-210.5 89.5q-148 0 -273.5 -113t-171.5 -286h732zM944 621q0 147 -78 244.5t-204 97.5 q-86 0 -171.5 -43t-151 -113.5t-106 -168.5t-40.5 -200q0 -145 78.5 -240.5t205.5 -95.5q87 0 172 42t150 111.5t105 166t40 199.5z" />
<glyph unicode="&#x154;" horiz-adv-x="1286" d="M879 1657l-86 35l155 190h146zM49 0l309 1454h584q99 0 174.5 -55t113.5 -140.5t38 -183.5q0 -175 -121 -327.5t-289 -186.5l219 -561h-162l-208 537h-402l-115 -537h-141zM780 664q90 0 169.5 59t125 150t45.5 186q0 111 -60 189.5t-153 78.5h-434l-141 -663h448z" />
<glyph unicode="&#x155;" horiz-adv-x="702" d="M528 1270l-86 35l156 190h145zM244 1067h131l-56 -256q80 116 183 185t205 73q25 0 49 -4l-27 -121q-133 -5 -248.5 -78.5t-183.5 -201.5l-139 -664h-140z" />
<glyph unicode="&#x156;" horiz-adv-x="1286" d="M49 0l309 1454h584q99 0 174.5 -55t113.5 -140.5t38 -183.5q0 -175 -121 -327.5t-289 -186.5l219 -561h-162l-208 537h-402l-115 -537h-141zM780 664q90 0 169.5 59t125 150t45.5 186q0 111 -60 189.5t-153 78.5h-434l-141 -663h448zM371 -408l67 152h-41l33 156h127 l-33 -156l-82 -152h-71z" />
<glyph unicode="&#x157;" horiz-adv-x="702" d="M244 1067h131l-56 -256q80 116 183 185t205 73q25 0 49 -4l-27 -121q-133 -5 -248.5 -78.5t-183.5 -201.5l-139 -664h-140zM-53 -408l67 152h-41l33 156h127l-33 -156l-82 -152h-71z" />
<glyph unicode="&#x158;" horiz-adv-x="1286" d="M633 1841l86 41l139 -129l193 129l69 -41l-231 -176h-103zM49 0l309 1454h584q99 0 174.5 -55t113.5 -140.5t38 -183.5q0 -175 -121 -327.5t-289 -186.5l219 -561h-162l-208 537h-402l-115 -537h-141zM780 664q90 0 169.5 59t125 150t45.5 186q0 111 -60 189.5t-153 78.5 h-434l-141 -663h448z" />
<glyph unicode="&#x159;" horiz-adv-x="702" d="M283 1454l86 41l139 -129l192 129l70 -41l-231 -176h-103zM244 1067h131l-56 -256q80 116 183 185t205 73q25 0 49 -4l-27 -121q-133 -5 -248.5 -78.5t-183.5 -201.5l-139 -664h-140z" />
<glyph unicode="&#x15a;" horiz-adv-x="1198" d="M877 1683l-86 35l155 191h146zM-18 199l96 116q62 -85 179.5 -142.5t268.5 -57.5q185 0 293.5 79t108.5 216q0 45 -16.5 80t-42.5 59.5t-75 46.5t-97.5 37t-125.5 35q-78 21 -130 39t-101 43.5t-76.5 56t-44 73t-16.5 97.5q0 147 78 259t211 170t299 58q262 0 411 -168 l-92 -114q-44 70 -135.5 112.5t-210.5 42.5q-198 0 -302 -88.5t-104 -228.5q0 -41 14 -71.5t36.5 -52.5t67.5 -41.5t89.5 -33.5t120.5 -33q83 -21 139.5 -39.5t109 -46t83.5 -61t49 -80.5t18 -108q0 -115 -46 -205t-126.5 -146t-185.5 -85t-229 -29q-323 0 -516 211z" />
<glyph unicode="&#x15b;" horiz-adv-x="958" d="M664 1270l-86 35l155 190h146zM-41 139l82 94q134 -143 330 -143q138 0 224.5 61.5t86.5 161.5q0 22 -6.5 40t-14.5 31.5t-28.5 26.5t-36 21.5t-49.5 19.5t-56 17.5t-69 19.5q-69 19 -107 32t-79 32t-60.5 40.5t-32 53.5t-12.5 74q0 109 61 192.5t163.5 127.5t228.5 44 q117 0 205 -39t135 -106l-86 -82q-83 119 -267 119q-129 0 -216 -57.5t-87 -165.5q0 -64 44 -92t171 -62q72 -20 119.5 -35.5t93 -38.5t71 -48.5t41 -61.5t15.5 -82q0 -157 -128.5 -255.5t-336.5 -98.5q-127 0 -231 41t-168 118z" />
<glyph unicode="&#x15c;" horiz-adv-x="1198" d="M612 1716l232 174h100l156 -174l-86 -41l-140 129l-192 -129zM-18 199l96 116q62 -85 179.5 -142.5t268.5 -57.5q185 0 293.5 79t108.5 216q0 45 -16.5 80t-42.5 59.5t-75 46.5t-97.5 37t-125.5 35q-78 21 -130 39t-101 43.5t-76.5 56t-44 73t-16.5 97.5q0 147 78 259 t211 170t299 58q262 0 411 -168l-92 -114q-44 70 -135.5 112.5t-210.5 42.5q-198 0 -302 -88.5t-104 -228.5q0 -41 14 -71.5t36.5 -52.5t67.5 -41.5t89.5 -33.5t120.5 -33q83 -21 139.5 -39.5t109 -46t83.5 -61t49 -80.5t18 -108q0 -115 -46 -205t-126.5 -146t-185.5 -85 t-229 -29q-323 0 -516 211z" />
<glyph unicode="&#x15d;" horiz-adv-x="958" d="M399 1303l232 174h100l156 -174l-86 -41l-139 129l-193 -129zM-41 139l82 94q134 -143 330 -143q138 0 224.5 61.5t86.5 161.5q0 22 -6.5 40t-14.5 31.5t-28.5 26.5t-36 21.5t-49.5 19.5t-56 17.5t-69 19.5q-69 19 -107 32t-79 32t-60.5 40.5t-32 53.5t-12.5 74 q0 109 61 192.5t163.5 127.5t228.5 44q117 0 205 -39t135 -106l-86 -82q-83 119 -267 119q-129 0 -216 -57.5t-87 -165.5q0 -64 44 -92t171 -62q72 -20 119.5 -35.5t93 -38.5t71 -48.5t41 -61.5t15.5 -82q0 -157 -128.5 -255.5t-336.5 -98.5q-127 0 -231 41t-168 118z" />
<glyph unicode="&#x15e;" horiz-adv-x="1198" d="M764 1337q-198 0 -302 -88.5t-104 -228.5q0 -41 14 -71.5t36.5 -52.5t67.5 -41.5t89.5 -33.5t120.5 -33q83 -21 139.5 -39.5t109 -46t83.5 -61t49 -80.5t18 -108q0 -108 -40.5 -194t-112.5 -142t-166 -88t-207 -39q59 -65 59 -144q0 -99 -64 -157t-169 -58 q-107 0 -192 58l57 80q37 -23 66.5 -34t68.5 -11q68 0 109 35.5t41 95.5q0 68 -74 133q-298 12 -479 211l96 116q62 -85 179.5 -142.5t268.5 -57.5q185 0 293.5 79t108.5 216q0 45 -16.5 80t-42.5 59.5t-75 46.5t-97.5 37t-125.5 35q-78 21 -130 39t-101 43.5t-76.5 56 t-44 73t-16.5 97.5q0 147 78 259t211 170t299 58q262 0 411 -168l-92 -114q-44 70 -135.5 112.5t-210.5 42.5z" />
<glyph unicode="&#x15f;" horiz-adv-x="958" d="M571 977q-129 0 -216 -57.5t-87 -165.5q0 -64 44 -92t171 -62q72 -20 119.5 -35.5t93 -38.5t71 -48.5t41 -61.5t15.5 -82q0 -138 -102 -233t-272 -115q55 -64 55 -140q0 -99 -64.5 -157t-169.5 -58q-107 0 -192 58l57 80q37 -23 66.5 -34t68.5 -11q68 0 109 35.5t41 95.5 q0 62 -66 125q-126 0 -228.5 41t-166.5 118l82 94q134 -143 330 -143q138 0 224.5 61.5t86.5 161.5q0 22 -6.5 40t-14.5 31.5t-28.5 26.5t-36 21.5t-49.5 19.5t-56 17.5t-69 19.5q-69 19 -107 32t-79 32t-60.5 40.5t-32 53.5t-12.5 74q0 109 61 192.5t163.5 127.5t228.5 44 q117 0 205 -39t135 -106l-86 -82q-83 119 -267 119z" />
<glyph unicode="&#x160;" horiz-adv-x="1198" d="M631 1868l86 41l139 -129l193 129l69 -41l-231 -176h-103zM-18 199l96 116q62 -85 179.5 -142.5t268.5 -57.5q185 0 293.5 79t108.5 216q0 45 -16.5 80t-42.5 59.5t-75 46.5t-97.5 37t-125.5 35q-78 21 -130 39t-101 43.5t-76.5 56t-44 73t-16.5 97.5q0 147 78 259 t211 170t299 58q262 0 411 -168l-92 -114q-44 70 -135.5 112.5t-210.5 42.5q-198 0 -302 -88.5t-104 -228.5q0 -41 14 -71.5t36.5 -52.5t67.5 -41.5t89.5 -33.5t120.5 -33q83 -21 139.5 -39.5t109 -46t83.5 -61t49 -80.5t18 -108q0 -115 -46 -205t-126.5 -146t-185.5 -85 t-229 -29q-323 0 -516 211z" />
<glyph unicode="&#x161;" horiz-adv-x="958" d="M418 1454l86 41l139 -129l193 129l69 -41l-231 -176h-103zM-41 139l82 94q134 -143 330 -143q138 0 224.5 61.5t86.5 161.5q0 22 -6.5 40t-14.5 31.5t-28.5 26.5t-36 21.5t-49.5 19.5t-56 17.5t-69 19.5q-69 19 -107 32t-79 32t-60.5 40.5t-32 53.5t-12.5 74 q0 109 61 192.5t163.5 127.5t228.5 44q117 0 205 -39t135 -106l-86 -82q-83 119 -267 119q-129 0 -216 -57.5t-87 -165.5q0 -64 44 -92t171 -62q72 -20 119.5 -35.5t93 -38.5t71 -48.5t41 -61.5t15.5 -82q0 -157 -128.5 -255.5t-336.5 -98.5q-127 0 -231 41t-168 118z" />
<glyph unicode="&#x162;" horiz-adv-x="1191" d="M211 1454h1120l-26 -127h-490l-283 -1327h-8q68 -71 68 -154q0 -99 -64.5 -157t-169.5 -58q-107 0 -192 58l57 80q37 -23 66.5 -34t68.5 -11q68 0 109 35.5t41 95.5q0 73 -88 145h-29l281 1327h-488z" />
<glyph unicode="&#x163;" horiz-adv-x="657" d="M406 956l-148 -694q-10 -48 -10 -57q0 -43 27.5 -65.5t70.5 -22.5q79 0 164 47l12 -113q-26 -19 -87 -38t-128 -25q58 -65 58 -142q0 -99 -64.5 -157t-169.5 -58q-107 0 -192 58l57 80q37 -23 66.5 -34t68.5 -11q68 0 109 35.5t41 95.5q0 73 -88 145l2 2q-97 33 -97 139 q0 25 6 52l162 763h-141l25 111h139l78 360h139l-78 -360h234l-25 -111h-231z" />
<glyph unicode="&#x164;" horiz-adv-x="1191" d="M598 1837l86 41l139 -129l193 129l69 -41l-231 -176h-102zM672 1327h-488l27 127h1120l-26 -127h-490l-283 -1327h-141z" />
<glyph unicode="&#x165;" horiz-adv-x="657" d="M578 1305l155 190h146l-215 -225zM98 141q0 25 6 52l162 763h-141l25 111h139l78 360h139l-78 -360h234l-25 -111h-231l-148 -694q-10 -48 -10 -57q0 -43 27.5 -65.5t70.5 -22.5q79 0 164 47l12 -113q-31 -22 -101 -42.5t-145 -20.5q-80 0 -129 39.5t-49 113.5z" />
<glyph unicode="&#x166;" horiz-adv-x="1263" d="M1339 1327h-489l-107 -498h426l-16 -79h-426l-160 -750h-141l160 750h-426l16 79h426l107 498h-490l27 127h1120z" />
<glyph unicode="&#x167;" horiz-adv-x="659" d="M637 956h-231l-54 -247h226l-19 -93h-225l-76 -354q-10 -48 -10 -57q0 -43 27.5 -65.5t70.5 -22.5q79 0 164 47l12 -113q-31 -22 -101 -42.5t-145 -20.5q-80 0 -129 39.5t-49 113.5q0 25 6 52l91 423h-148l21 93h145l53 247h-141l25 111h139l78 360h139l-78 -360h234z " />
<glyph unicode="&#x168;" horiz-adv-x="1482" d="M848 1772q-38 0 -66.5 -24t-38.5 -44t-12 -31h-86q2 11 11 31t27.5 48.5t42.5 53t61.5 41.5t78.5 17q46 0 83.5 -21.5t72.5 -43t74 -21.5q29 0 53 10t37.5 22.5t24 29t14 25t4.5 13.5h86q-3 -15 -17.5 -41.5t-41 -61.5t-74 -60t-103.5 -25q-39 0 -73 13t-54.5 28t-48 28 t-55.5 13zM154 471q0 116 28 250l156 733h141l-155 -733q-27 -132 -27 -227q0 -82 17.5 -147.5t55.5 -118t104.5 -81t158.5 -28.5q100 0 186 34.5t147 92t110 137t79 162.5t49 176l156 733h141l-153 -733q-26 -121 -68 -227t-106 -199.5t-144.5 -160.5t-188 -105.5 t-231.5 -38.5t-214 37t-142 104.5t-76 151.5t-24 188z" />
<glyph unicode="&#x169;" horiz-adv-x="1165" d="M635 1389q-38 0 -66.5 -24t-38.5 -44t-12 -31h-86q2 11 11 31t27.5 48.5t42.5 53t61.5 41.5t78.5 17q46 0 83.5 -21.5t72.5 -43t74 -21.5q29 0 53 10t37.5 22.5t24 29t14 25t4.5 13.5h86q-3 -15 -17.5 -41.5t-41 -61.5t-74 -60t-103.5 -25q-39 0 -73 13t-54.5 28t-48 28 t-55.5 13zM76 254q0 73 22 186l135 627h138l-127 -602q-21 -91 -21 -160q0 -203 176 -203q116 0 232.5 80t189.5 213l144 672h139l-186 -870q-1 -8 -4 -22t-3 -17q0 -35 39 -35l-26 -123q-55 -4 -58 -4q-42 1 -65 22.5t-23 57.5t29 166q-93 -124 -220.5 -193t-260.5 -69 q-250 0 -250 274z" />
<glyph unicode="&#x16a;" horiz-adv-x="1482" d="M688 1739l21 96h563l-21 -96h-563zM154 471q0 116 28 250l156 733h141l-155 -733q-27 -132 -27 -227q0 -82 17.5 -147.5t55.5 -118t104.5 -81t158.5 -28.5q100 0 186 34.5t147 92t110 137t79 162.5t49 176l156 733h141l-153 -733q-26 -121 -68 -227t-106 -199.5 t-144.5 -160.5t-188 -105.5t-231.5 -38.5t-214 37t-142 104.5t-76 151.5t-24 188z" />
<glyph unicode="&#x16b;" horiz-adv-x="1165" d="M475 1356l21 96h563l-21 -96h-563zM76 254q0 73 22 186l135 627h138l-127 -602q-21 -91 -21 -160q0 -203 176 -203q116 0 232.5 80t189.5 213l144 672h139l-186 -870q-1 -8 -4 -22t-3 -17q0 -35 39 -35l-26 -123q-55 -4 -58 -4q-42 1 -65 22.5t-23 57.5t29 166 q-93 -124 -220.5 -193t-260.5 -69q-250 0 -250 274z" />
<glyph unicode="&#x16c;" horiz-adv-x="1482" d="M1110 1878h84q-19 -88 -87.5 -147.5t-150.5 -59.5q-70 0 -113.5 45t-43.5 115q0 23 6 47h86q-4 -20 -4 -31q0 -43 24 -73.5t60 -30.5q41 0 81.5 39t57.5 96zM154 471q0 116 28 250l156 733h141l-155 -733q-27 -132 -27 -227q0 -82 17.5 -147.5t55.5 -118t104.5 -81 t158.5 -28.5q100 0 186 34.5t147 92t110 137t79 162.5t49 176l156 733h141l-153 -733q-26 -121 -68 -227t-106 -199.5t-144.5 -160.5t-188 -105.5t-231.5 -38.5t-214 37t-142 104.5t-76 151.5t-24 188z" />
<glyph unicode="&#x16d;" horiz-adv-x="1165" d="M897 1495h84q-19 -88 -87.5 -147.5t-150.5 -59.5q-70 0 -113.5 45t-43.5 115q0 23 6 47h86q-4 -20 -4 -31q0 -43 24 -73.5t60 -30.5q41 0 81.5 39t57.5 96zM76 254q0 73 22 186l135 627h138l-127 -602q-21 -91 -21 -160q0 -203 176 -203q116 0 232.5 80t189.5 213 l144 672h139l-186 -870q-1 -8 -4 -22t-3 -17q0 -35 39 -35l-26 -123q-55 -4 -58 -4q-42 1 -65 22.5t-23 57.5t29 166q-93 -124 -220.5 -193t-260.5 -69q-250 0 -250 274z" />
<glyph unicode="&#x16e;" horiz-adv-x="1482" d="M1001 1878q56 0 87.5 -29.5t31.5 -79.5q0 -69 -51 -114t-127 -45q-54 0 -86.5 29.5t-32.5 78.5q0 69 52 114.5t126 45.5zM893 1729q0 -27 17.5 -45.5t45.5 -18.5q35 0 67 27.5t32 66.5q0 29 -18.5 46.5t-47.5 17.5q-38 0 -67 -27t-29 -67zM154 471q0 116 28 250l156 733 h141l-155 -733q-27 -132 -27 -227q0 -82 17.5 -147.5t55.5 -118t104.5 -81t158.5 -28.5q100 0 186 34.5t147 92t110 137t79 162.5t49 176l156 733h141l-153 -733q-26 -121 -68 -227t-106 -199.5t-144.5 -160.5t-188 -105.5t-231.5 -38.5t-214 37t-142 104.5t-76 151.5 t-24 188z" />
<glyph unicode="&#x16f;" horiz-adv-x="1165" d="M788 1495q56 0 87.5 -29.5t31.5 -79.5q0 -69 -51 -114t-127 -45q-54 0 -86.5 29.5t-32.5 78.5q0 69 52 114.5t126 45.5zM680 1346q0 -27 17.5 -45.5t45.5 -18.5q35 0 67 27.5t32 66.5q0 29 -18.5 46.5t-47.5 17.5q-38 0 -67 -27t-29 -67zM76 254q0 73 22 186l135 627h138 l-127 -602q-21 -91 -21 -160q0 -203 176 -203q116 0 232.5 80t189.5 213l144 672h139l-186 -870q-1 -8 -4 -22t-3 -17q0 -35 39 -35l-26 -123q-55 -4 -58 -4q-42 1 -65 22.5t-23 57.5t29 166q-93 -124 -220.5 -193t-260.5 -69q-250 0 -250 274z" />
<glyph unicode="&#x170;" horiz-adv-x="1482" d="M836 1653l-68 35l150 190h129zM1083 1653l-67 35l149 190h129zM154 471q0 116 28 250l156 733h141l-155 -733q-27 -132 -27 -227q0 -82 17.5 -147.5t55.5 -118t104.5 -81t158.5 -28.5q100 0 186 34.5t147 92t110 137t79 162.5t49 176l156 733h141l-153 -733 q-26 -121 -68 -227t-106 -199.5t-144.5 -160.5t-188 -105.5t-231.5 -38.5t-214 37t-142 104.5t-76 151.5t-24 188z" />
<glyph unicode="&#x171;" horiz-adv-x="1165" d="M623 1270l-68 35l150 190h129zM870 1270l-67 35l149 190h129zM76 254q0 73 22 186l135 627h138l-127 -602q-21 -91 -21 -160q0 -203 176 -203q116 0 232.5 80t189.5 213l144 672h139l-186 -870q-1 -8 -4 -22t-3 -17q0 -35 39 -35l-26 -123q-55 -4 -58 -4q-42 1 -65 22.5 t-23 57.5t29 166q-93 -124 -220.5 -193t-260.5 -69q-250 0 -250 274z" />
<glyph unicode="&#x172;" horiz-adv-x="1482" d="M1360 1454h141l-153 -733q-30 -142 -83.5 -263t-132.5 -221t-191 -163.5t-247 -79.5q-84 -72 -118.5 -119t-34.5 -88q0 -30 22 -45t68 -23l-56 -92q-68 10 -98.5 44.5t-30.5 82.5q0 114 146 236q-119 3 -205.5 41t-136.5 105t-73 150t-23 185q0 116 28 250l156 733h141 l-155 -733q-27 -132 -27 -227q0 -82 17.5 -147.5t55.5 -118t104.5 -81t158.5 -28.5q100 0 186 34.5t147 92t110 137t79 162.5t49 176z" />
<glyph unicode="&#x173;" horiz-adv-x="1165" d="M911 158q0 -35 39 -35l-26 -123q-88 -76 -124 -123.5t-36 -89.5q0 -30 22 -45t68 -23l-55 -92q-68 10 -98.5 44.5t-30.5 82.5q0 62 39 121.5t120 126.5q-51 15 -51 74q0 36 29 166q-93 -124 -220.5 -193t-260.5 -69q-250 0 -250 274q0 73 22 186l135 627h138l-127 -602 q-21 -91 -21 -160q0 -203 176 -203q116 0 232.5 80t189.5 213l144 672h139l-186 -870q-1 -8 -4 -22t-3 -17z" />
<glyph unicode="&#x174;" horiz-adv-x="2041" d="M995 1686l232 174h100l156 -174l-86 -41l-140 129l-192 -129zM195 1454h153l221 -1288l400 657l-109 621h135l82 -516l305 516h136l-373 -621l121 -657l766 1288h157l-895 -1454h-123l-135 719l-442 -719h-125z" />
<glyph unicode="&#x175;" horiz-adv-x="1546" d="M666 1303l231 174h100l156 -174l-86 -41l-139 129l-193 -129zM109 1067h143l172 -938q153 181 281 406l-123 532h143l78 -354q86 177 137 354h133q-75 -259 -229 -530l88 -408q177 226 304.5 467.5t190.5 470.5h136q-157 -538 -588 -1067h-150l-82 377 q-133 -211 -276 -377h-150z" />
<glyph unicode="&#x176;" horiz-adv-x="1243" d="M573 1686l232 174h100l156 -174l-86 -41l-139 129l-193 -129zM526 545l-340 909h158l281 -782l614 782h156l-729 -913l-115 -541h-141z" />
<glyph unicode="&#x177;" horiz-adv-x="993" d="M393 1303l232 174h100l156 -174l-86 -41l-140 129l-192 -129zM-74 -346q127 20 189.5 64t140.5 165l68 101l-220 1083h146l172 -938l84 137q178 290 256 453t127 348h137q-56 -200 -138 -366.5t-284 -489.5l-166 -264q-142 -228 -245 -313.5t-248 -92.5z" />
<glyph unicode="&#x178;" horiz-adv-x="1243" d="M608 1679l41 193h119l-41 -193h-119zM903 1679l41 193h117l-39 -193h-119zM526 545l-340 909h158l281 -782l614 782h156l-729 -913l-115 -541h-141z" />
<glyph unicode="&#x179;" horiz-adv-x="1220" d="M879 1657l-86 35l155 190h146zM-49 113l1188 1214h-914l27 127h1081l-24 -113l-1176 -1214h916l-27 -127h-1096z" />
<glyph unicode="&#x17a;" horiz-adv-x="954" d="M662 1270l-87 35l156 190h146zM-53 94l858 869h-658l23 104h813l-18 -94l-854 -869h669l-24 -104h-828z" />
<glyph unicode="&#x17b;" horiz-adv-x="1220" d="M793 1683l43 199h127l-43 -199h-127zM-49 113l1188 1214h-914l27 127h1081l-24 -113l-1176 -1214h916l-27 -127h-1096z" />
<glyph unicode="&#x17c;" horiz-adv-x="954" d="M575 1296l43 199h127l-43 -199h-127zM-53 94l858 869h-658l23 104h813l-18 -94l-854 -869h669l-24 -104h-828z" />
<glyph unicode="&#x17d;" horiz-adv-x="1220" d="M633 1841l86 41l139 -129l193 129l69 -41l-231 -176h-103zM-49 113l1188 1214h-914l27 127h1081l-24 -113l-1176 -1214h916l-27 -127h-1096z" />
<glyph unicode="&#x17e;" horiz-adv-x="954" d="M416 1454l86 41l139 -129l193 129l69 -41l-231 -176h-103zM-53 94l858 869h-658l23 104h813l-18 -94l-854 -869h669l-24 -104h-828z" />
<glyph unicode="&#x18f;" horiz-adv-x="1445" d="M57 565q0 105 39 219h1139l6 93q0 199 -108.5 326.5t-280.5 127.5q-139 0 -273.5 -79.5t-201.5 -204.5l-123 61q103 157 281 256.5t356 99.5q149 0 265.5 -79.5t178.5 -214.5t62 -302q0 -140 -45 -274t-124 -242t-181.5 -191t-224 -128t-244.5 -45q-115 0 -212.5 44 t-165 121t-105.5 183.5t-38 228.5zM1210 659h-999q-12 -59 -12 -118q0 -116 44.5 -210.5t138.5 -154t222 -59.5q202 0 374.5 155t231.5 387z" />
<glyph unicode="&#x192;" horiz-adv-x="1034" d="M-129 -291l86 94q39 -49 131 -49q70 0 136 55.5t83 135.5l189 886h-142l23 111h143l31 154q41 195 146 307.5t243 112.5q58 0 111.5 -18.5t89.5 -49.5l-62 -100q-47 47 -137 47q-92 0 -155.5 -76t-94.5 -219l-33 -158h277l-25 -111h-276l-189 -882 q-30 -137 -139.5 -228.5t-230.5 -91.5q-139 0 -205 80z" />
<glyph unicode="&#x1a0;" horiz-adv-x="1478" d="M1192 1382q115 -80 176.5 -219t61.5 -301q0 -165 -68.5 -325t-180 -280t-262.5 -193.5t-309 -73.5q-123 0 -223 49.5t-163 133.5t-96.5 190.5t-33.5 224.5q0 166 69 327t181.5 281t264 194t309.5 74q62 0 114 -12q123 3 164 47q39 41 57 125h117q-17 -65 -38 -109 t-60 -83q-31 -31 -80 -50zM639 119q106 0 206 42t178.5 115t138.5 165.5t92 199t32 211.5q0 97 -25.5 183t-73.5 153t-125 106t-173 39q-106 0 -206 -41.5t-179 -114t-139 -165t-92.5 -199.5t-32.5 -213q0 -98 25.5 -183.5t74 -152.5t125.5 -106t174 -39z" />
<glyph unicode="&#x1a1;" horiz-adv-x="1173" d="M950 989q68 -60 102.5 -152t34.5 -202q0 -176 -84.5 -327t-228.5 -239.5t-311 -88.5q-102 0 -182 35t-130 96.5t-76 142t-26 174.5q0 176 85.5 328t230 240.5t309.5 88.5q72 0 133 -18v2q130 0 174 47q39 41 57 125h117q-17 -65 -38 -109t-60 -83q-40 -37 -107 -60z M487 102q87 0 170 39.5t146 106.5t102 163t39 203q0 154 -77.5 251.5t-217.5 97.5q-86 0 -168.5 -40t-146 -108t-102.5 -165t-39 -204q0 -154 76.5 -249t217.5 -95z" />
<glyph unicode="&#x1af;" horiz-adv-x="1482" d="M1774 1624q-17 -64 -38 -108t-61 -84q-67 -64 -194 -80l-133 -631q-26 -121 -68 -227t-106 -199.5t-144.5 -160.5t-188 -105.5t-231.5 -38.5t-214 37t-142 104.5t-76 151.5t-24 188q0 116 28 250l156 733h141l-155 -733q-27 -132 -27 -227q0 -82 17.5 -147.5t55.5 -118 t104.5 -81t158.5 -28.5q100 0 186 34.5t147 92t110 137t79 162.5t49 176l156 733h119q84 6 120 45q40 43 58 125h117z" />
<glyph unicode="&#x1b0;" horiz-adv-x="1165" d="M1081 961l-163 -764q-1 -8 -4 -22t-3 -17q0 -35 39 -35l-26 -123q-55 -4 -58 -4q-42 1 -65 22.5t-23 57.5t29 166q-93 -124 -220.5 -193t-260.5 -69q-250 0 -250 274q0 73 22 186l135 627h138l-127 -602q-21 -91 -21 -160q0 -203 176 -203q116 0 232.5 80t189.5 213 l144 672h139v-2q69 9 98 43q40 43 58 125h116q-17 -66 -38 -110t-60 -83q-65 -63 -197 -79z" />
<glyph unicode="&#x1e6;" horiz-adv-x="1406" d="M993 1661h-102l-154 176l86 41l140 -129l192 129l70 -41zM870 604l23 111h426l-152 -715h-123l46 213q-235 -223 -486 -223q-117 0 -214.5 51t-161 136t-98 194t-34.5 227q0 163 67.5 321.5t178 278t262.5 193t311 73.5q190 0 304 -85t153 -232l-127 -74 q-35 130 -127 196t-231 66q-105 0 -205 -41.5t-178.5 -113t-138.5 -163.5t-92.5 -198.5t-32.5 -212.5q0 -134 48 -244t141 -176.5t214 -66.5q235 0 479 241l52 244h-304z" />
<glyph unicode="&#x1e7;" horiz-adv-x="1212" d="M508 1454l86 41l139 -129l193 129l69 -41l-231 -176h-102zM-68 -215l99 68q37 -98 124 -148.5t205 -50.5q155 0 276.5 89t156.5 253l45 211q-77 -101 -192 -161t-226 -60q-113 0 -199 62t-129 161t-43 217q0 123 49.5 243.5t130.5 211.5t192.5 147.5t229.5 56.5 q231 0 338 -241l47 223h123l-227 -1071q-22 -108 -80 -195.5t-138.5 -143t-176.5 -85t-199 -29.5q-167 0 -264 62.5t-142 179.5zM872 367l70 329q-17 115 -99.5 191t-189.5 76q-123 0 -231 -80t-168.5 -198.5t-60.5 -235.5q0 -145 81.5 -246t210.5 -101q114 0 231 82 t156 183z" />
<glyph unicode="&#x1ea;" horiz-adv-x="1478" d="M676 -6q-83 -73 -117.5 -119.5t-34.5 -87.5q0 -30 22 -45t68 -23l-55 -92q-68 10 -98.5 44.5t-30.5 82.5q0 112 148 236q-116 7 -209.5 58.5t-152.5 134.5t-90.5 187t-31.5 218q0 166 69 327t181.5 281t264 194t309.5 74q123 0 222.5 -50.5t161.5 -135.5t95 -192t33 -224 q0 -157 -61.5 -309.5t-163.5 -270t-241.5 -196t-287.5 -92.5zM240 600q0 -98 25.5 -183.5t74 -152.5t125.5 -106t174 -39q106 0 206 42t178.5 115t138.5 165.5t92 199t32 211.5q0 97 -25.5 183t-73.5 153t-125 106t-173 39q-106 0 -206 -41.5t-179 -114t-139 -165 t-92.5 -199.5t-32.5 -213z" />
<glyph unicode="&#x1eb;" horiz-adv-x="1173" d="M535 -16q-77 -69 -109.5 -113.5t-32.5 -83.5q0 -30 22 -45t68 -23l-55 -92q-68 10 -98.5 44.5t-30.5 82.5q0 109 135 226q-187 10 -286 134.5t-99 313.5q0 176 85.5 328t230 240.5t309.5 88.5q101 0 180.5 -35t130 -97t76.5 -143t26 -175q0 -163 -73.5 -306t-200 -234.5 t-278.5 -110.5zM193 446q0 -154 76.5 -249t217.5 -95q87 0 170 39.5t146 106.5t102 163t39 203q0 154 -77.5 251.5t-217.5 97.5q-86 0 -168.5 -40t-146 -108t-102.5 -165t-39 -204z" />
<glyph unicode="&#x1fa;" horiz-adv-x="1333" d="M913 1454l263 -1454h-152l-80 455h-612l-271 -455h-153l883 1454h8q-70 26 -70 100q0 60 40 102.5t101 53.5l152 180h145l-190 -192q49 -27 49 -92q0 -55 -33 -96t-86 -56h6zM895 1659q-38 0 -67 -27t-29 -67q0 -27 17.5 -45.5t45.5 -18.5q35 0 67 27.5t32 66.5 q0 29 -18.5 46.5t-47.5 17.5zM385 567h551l-119 719z" />
<glyph unicode="&#x1fb;" horiz-adv-x="1224" d="M889 1698l-86 35l155 190h146zM817 1495q56 0 87.5 -29.5t31.5 -79.5q0 -69 -51 -114t-127 -45q-54 0 -86.5 29.5t-32.5 78.5q0 69 52 114.5t126 45.5zM709 1346q0 -27 17.5 -45.5t45.5 -18.5q35 0 66.5 27.5t31.5 66.5q0 29 -18 46.5t-47 17.5q-38 0 -67 -27t-29 -67z M51 426q0 166 83 319t220.5 246.5t288.5 93.5q123 0 208.5 -67.5t123.5 -173.5l49 223h139l-188 -885q-4 -16 -4 -26q0 -33 39 -33l-27 -123q-10 -1 -28.5 -3.5t-26.5 -2.5q-45 3 -69.5 25t-24.5 57q0 18 22 131q-82 -104 -197.5 -165.5t-228.5 -61.5q-115 0 -203 62 t-132 162.5t-44 221.5zM874 367l68 329q-14 110 -96.5 188.5t-190.5 78.5q-118 0 -225.5 -77.5t-170 -197t-62.5 -242.5q0 -144 81 -244t209 -100q105 0 227 80t160 185z" />
<glyph unicode="&#x1fc;" horiz-adv-x="1890" d="M1329 1653l-86 35l156 190h145zM1030 1454h940l-28 -127h-760l-109 -522h653l-28 -127h-654l-116 -551h776l-27 -127h-917l96 455h-500l-366 -455h-156zM874 582l150 700l-575 -700h425z" />
<glyph unicode="&#x1fd;" horiz-adv-x="1816" d="M1004 1270l-86 35l155 190h146zM-8 252q0 165 144 273t356 108q134 0 249 -41q8 28 34 88.5t32 97.5q0 90 -60.5 146.5t-166.5 56.5q-150 0 -353 -127l-26 92q230 139 415 139q121 0 200 -56t102 -157q88 99 200.5 156t233.5 57q184 0 294.5 -124.5t110.5 -313.5 q0 -87 -31 -164h-874q-4 -46 -4 -69q0 -143 84 -235.5t217 -92.5q101 0 198.5 53.5t149.5 139.5l115 -33q-73 -118 -208 -192t-282 -74q-132 0 -228.5 63.5t-141.5 171.5q-58 -80 -149 -135.5t-173.5 -77.5t-155.5 -22q-131 0 -206.5 77t-75.5 195zM1616 578q6 40 6 81 q0 140 -79.5 229t-215.5 89q-153 0 -282 -112.5t-175 -286.5h746zM721 307q-8 33 -8 84q0 58 10 113q-103 41 -227 41q-159 0 -263 -74t-104 -192q0 -82 52.5 -137.5t148.5 -55.5q73 0 155.5 29.5t149 81.5t86.5 110z" />
<glyph unicode="&#x1fe;" horiz-adv-x="1478" d="M1217 1878l-216 -225l-86 35l156 190h146zM1475 1454l-162 -192q117 -163 117 -400q0 -165 -68.5 -325t-180 -280t-262.5 -193.5t-309 -73.5q-169 0 -295 92l-69 -82h-158l141 166q-135 170 -135 422q0 166 69 327t181.5 281t264 194t309.5 74q184 0 315 -112l86 102h156 zM240 600q0 -187 86 -317l813 958q-102 92 -250 92q-106 0 -206 -41.5t-179 -114t-139 -165t-92.5 -199.5t-32.5 -213zM1286 852q0 166 -72 295l-804 -954q93 -74 229 -74q106 0 206 42t178.5 115t138.5 165.5t92 199t32 211.5z" />
<glyph unicode="&#x1ff;" horiz-adv-x="1173" d="M1128 1495l-215 -225l-86 35l156 190h145zM1085 1071l-108 -115q110 -125 110 -319q0 -125 -52 -245.5t-137.5 -211t-203 -145.5t-241.5 -55q-146 0 -246 81l-62 -63h-94l107 111q-109 125 -109 317q0 126 53 247t140 211t204.5 145.5t239.5 55.5q142 0 242 -81l63 67h94 zM659 963q-84 0 -168.5 -43t-150 -113.5t-106.5 -167t-41 -197.5q0 -134 67 -229l574 684q-76 66 -175 66zM477 102q113 0 221 70.5t177 191t69 254.5q0 138 -67 230l-574 -680q72 -66 174 -66z" />
<glyph unicode="&#x200;" horiz-adv-x="1333" d="M608 1884h129l68 -190l-82 -35zM856 1884h127l72 -190l-84 -35zM791 1454h122l263 -1454h-152l-80 455h-612l-271 -455h-153zM936 567l-119 719l-432 -719h551z" />
<glyph unicode="&#x201;" horiz-adv-x="1224" d="M477 1497h129l68 -190l-82 -35zM725 1497h127l72 -190l-84 -35zM51 426q0 166 83 319t220.5 246.5t288.5 93.5q123 0 208.5 -67.5t123.5 -173.5l49 223h139l-188 -885q-4 -16 -4 -26q0 -33 39 -33l-27 -123q-10 -1 -28.5 -3.5t-26.5 -2.5q-45 3 -69.5 25t-24.5 57 q0 18 22 131q-82 -104 -197.5 -165.5t-228.5 -61.5q-115 0 -203 62t-132 162.5t-44 221.5zM874 367l68 329q-14 110 -96.5 188.5t-190.5 78.5q-118 0 -225.5 -77.5t-170 -197t-62.5 -242.5q0 -144 81 -244t209 -100q105 0 227 80t160 185z" />
<glyph unicode="&#x202;" horiz-adv-x="1333" d="M942 1882q72 0 115 -47t43 -117q0 -15 -4 -43h-82q0 8 1 22t1 21q0 92 -82 92q-58 0 -94 -37.5t-49 -97.5h-84q19 87 86.5 147t148.5 60zM791 1454h122l263 -1454h-152l-80 455h-612l-271 -455h-153zM936 567l-119 719l-432 -719h551z" />
<glyph unicode="&#x203;" horiz-adv-x="1224" d="M811 1495q72 0 115 -47t43 -117q0 -15 -4 -43h-82q0 8 1 22t1 21q0 92 -82 92q-58 0 -94.5 -37.5t-49.5 -97.5h-84q19 87 87 147t149 60zM51 426q0 166 83 319t220.5 246.5t288.5 93.5q123 0 208.5 -67.5t123.5 -173.5l49 223h139l-188 -885q-4 -16 -4 -26q0 -33 39 -33 l-27 -123q-10 -1 -28.5 -3.5t-26.5 -2.5q-45 3 -69.5 25t-24.5 57q0 18 22 131q-82 -104 -197.5 -165.5t-228.5 -61.5q-115 0 -203 62t-132 162.5t-44 221.5zM874 367l68 329q-14 110 -96.5 188.5t-190.5 78.5q-118 0 -225.5 -77.5t-170 -197t-62.5 -242.5q0 -144 81 -244 t209 -100q105 0 227 80t160 185z" />
<glyph unicode="&#x204;" horiz-adv-x="1191" d="M543 1884h129l67 -190l-82 -35zM791 1884h127l71 -190l-84 -35zM358 1454h912l-27 -127h-770l-113 -524h672l-24 -121h-672l-119 -555h789l-27 -127h-930z" />
<glyph unicode="&#x205;" horiz-adv-x="1093" d="M639 1307l-82 -35l-115 225h129zM889 1307l-84 -35l-115 225h127zM465 481q-81 0 -268 11q-4 -40 -4 -60q0 -149 76 -247.5t218 -98.5q100 0 198.5 55t150.5 144l114 -35q-74 -121 -208 -195.5t-279 -74.5q-191 0 -301.5 128.5t-110.5 323.5q0 125 49 243.5t133 209 t204 145.5t253 55q148 0 246 -75t98 -211q0 -318 -569 -318zM680 977q-118 0 -216 -56t-158 -140.5t-89 -188.5q163 -10 254 -10q436 0 436 219q0 88 -64 132t-163 44z" />
<glyph unicode="&#x206;" horiz-adv-x="1191" d="M877 1882q71 0 114 -47t43 -117q0 -15 -4 -43h-82q0 8 1 22t1 21q0 92 -82 92q-58 0 -94 -37.5t-49 -97.5h-84q19 87 87 147t149 60zM358 1454h912l-27 -127h-770l-113 -524h672l-24 -121h-672l-119 -555h789l-27 -127h-930z" />
<glyph unicode="&#x207;" horiz-adv-x="1093" d="M768 1423q-58 0 -94 -37.5t-49 -97.5h-84q19 87 86.5 147t148.5 60q72 0 115 -47t43 -117q0 -15 -4 -43h-82q0 8 1 22t1 21q0 92 -82 92zM465 481q-81 0 -268 11q-4 -40 -4 -60q0 -149 76 -247.5t218 -98.5q100 0 198.5 55t150.5 144l114 -35q-74 -121 -208 -195.5 t-279 -74.5q-191 0 -301.5 128.5t-110.5 323.5q0 125 49 243.5t133 209t204 145.5t253 55q148 0 246 -75t98 -211q0 -318 -569 -318zM680 977q-118 0 -216 -56t-158 -140.5t-89 -188.5q163 -10 254 -10q436 0 436 219q0 88 -64 132t-163 44z" />
<glyph unicode="&#x208;" horiz-adv-x="501" d="M180 1882h129l68 -190l-82 -35zM428 1882h127l72 -190l-84 -35zM358 1452h142l-310 -1452h-141z" />
<glyph unicode="&#x209;" horiz-adv-x="436" d="M63 1497h130l67 -190l-82 -35zM311 1497h127l72 -190l-84 -35zM244 1067h139l-225 -1067h-140z" />
<glyph unicode="&#x20a;" horiz-adv-x="501" d="M514 1880q72 0 115 -47t43 -117q0 -15 -4 -43h-82q0 8 1 22t1 21q0 92 -82 92q-58 0 -94.5 -37.5t-49.5 -97.5h-83q19 87 86.5 147t148.5 60zM358 1452h142l-310 -1452h-141z" />
<glyph unicode="&#x20b;" horiz-adv-x="436" d="M397 1495q72 0 115 -47t43 -117q0 -15 -4 -43h-82q0 8 1 22t1 21q0 92 -82 92q-58 0 -94 -37.5t-49 -97.5h-84q19 87 86.5 147t148.5 60zM244 1067h139l-225 -1067h-140z" />
<glyph unicode="&#x20c;" horiz-adv-x="1478" d="M682 1880h129l68 -190l-82 -35zM930 1880h127l71 -190l-84 -35zM94 588q0 166 69 327t181.5 281t264 194t309.5 74q123 0 222.5 -50.5t161.5 -135.5t95 -192t33 -224q0 -165 -68.5 -325t-180 -280t-262.5 -193.5t-309 -73.5q-123 0 -223 49.5t-163 133.5t-96.5 190.5 t-33.5 224.5zM1286 852q0 97 -25.5 183t-73.5 153t-125 106t-173 39q-106 0 -206 -41.5t-179 -114t-139 -165t-92.5 -199.5t-32.5 -213q0 -98 25.5 -183.5t74 -152.5t125.5 -106t174 -39q106 0 206 42t178.5 115t138.5 165.5t92 199t32 211.5z" />
<glyph unicode="&#x20d;" horiz-adv-x="1173" d="M436 1497h129l68 -190l-82 -35zM684 1497h127l72 -190l-84 -35zM49 428q0 176 85.5 328t230 240.5t309.5 88.5q101 0 180.5 -35t130 -97t76.5 -143t26 -175q0 -176 -84.5 -327t-228.5 -239.5t-311 -88.5q-102 0 -182 35t-130 96.5t-76 142t-26 174.5zM944 614 q0 154 -77.5 251.5t-217.5 97.5q-86 0 -168.5 -40t-146 -108t-102.5 -165t-39 -204q0 -154 76.5 -249t217.5 -95q87 0 170 39.5t146 106.5t102 163t39 203z" />
<glyph unicode="&#x20e;" horiz-adv-x="1478" d="M1016 1878q72 0 115 -47t43 -117q0 -8 -5 -43h-82q0 8 1.5 22t1.5 21q0 92 -82 92q-58 0 -94.5 -37.5t-49.5 -97.5h-84q19 87 87 147t149 60zM94 588q0 166 69 327t181.5 281t264 194t309.5 74q123 0 222.5 -50.5t161.5 -135.5t95 -192t33 -224q0 -165 -68.5 -325 t-180 -280t-262.5 -193.5t-309 -73.5q-123 0 -223 49.5t-163 133.5t-96.5 190.5t-33.5 224.5zM1286 852q0 97 -25.5 183t-73.5 153t-125 106t-173 39q-106 0 -206 -41.5t-179 -114t-139 -165t-92.5 -199.5t-32.5 -213q0 -98 25.5 -183.5t74 -152.5t125.5 -106t174 -39 q106 0 206 42t178.5 115t138.5 165.5t92 199t32 211.5z" />
<glyph unicode="&#x20f;" horiz-adv-x="1173" d="M770 1495q72 0 115 -47t43 -117q0 -15 -4 -43h-82q0 8 1 22t1 21q0 92 -82 92q-58 0 -94.5 -37.5t-49.5 -97.5h-83q19 87 86.5 147t148.5 60zM49 428q0 176 85.5 328t230 240.5t309.5 88.5q101 0 180.5 -35t130 -97t76.5 -143t26 -175q0 -176 -84.5 -327t-228.5 -239.5 t-311 -88.5q-102 0 -182 35t-130 96.5t-76 142t-26 174.5zM944 614q0 154 -77.5 251.5t-217.5 97.5q-86 0 -168.5 -40t-146 -108t-102.5 -165t-39 -204q0 -154 76.5 -249t217.5 -95q87 0 170 39.5t146 106.5t102 163t39 203z" />
<glyph unicode="&#x210;" horiz-adv-x="1286" d="M559 1884h129l68 -190l-82 -35zM807 1884h127l72 -190l-84 -35zM49 0l309 1454h584q99 0 174.5 -55t113.5 -140.5t38 -183.5q0 -175 -121 -327.5t-289 -186.5l219 -561h-162l-208 537h-402l-115 -537h-141zM780 664q90 0 169.5 59t125 150t45.5 186q0 111 -60 189.5 t-153 78.5h-434l-141 -663h448z" />
<glyph unicode="&#x211;" horiz-adv-x="702" d="M209 1497h129l68 -190l-82 -35zM457 1497h127l71 -190l-84 -35zM244 1067h131l-56 -256q80 116 183 185t205 73q25 0 49 -4l-27 -121q-133 -5 -248.5 -78.5t-183.5 -201.5l-139 -664h-140z" />
<glyph unicode="&#x212;" horiz-adv-x="1286" d="M893 1882q72 0 115 -47t43 -117q0 -15 -4 -43h-82q0 8 1 22t1 21q0 92 -82 92q-58 0 -94.5 -37.5t-49.5 -97.5h-84q19 87 87 147t149 60zM49 0l309 1454h584q99 0 174.5 -55t113.5 -140.5t38 -183.5q0 -175 -121 -327.5t-289 -186.5l219 -561h-162l-208 537h-402 l-115 -537h-141zM780 664q90 0 169.5 59t125 150t45.5 186q0 111 -60 189.5t-153 78.5h-434l-141 -663h448z" />
<glyph unicode="&#x213;" horiz-adv-x="702" d="M543 1495q71 0 114 -47t43 -117q0 -15 -4 -43h-82q0 8 1 22t1 21q0 92 -81 92q-58 0 -94.5 -37.5t-49.5 -97.5h-84q19 87 87 147t149 60zM244 1067h131l-56 -256q80 116 183 185t205 73q25 0 49 -4l-27 -121q-133 -5 -248.5 -78.5t-183.5 -201.5l-139 -664h-140z" />
<glyph unicode="&#x214;" horiz-adv-x="1482" d="M662 1880h129l67 -190l-82 -35zM909 1880h127l72 -190l-84 -35zM154 471q0 116 28 250l156 733h141l-155 -733q-27 -132 -27 -227q0 -82 17.5 -147.5t55.5 -118t104.5 -81t158.5 -28.5q100 0 186 34.5t147 92t110 137t79 162.5t49 176l156 733h141l-153 -733 q-26 -121 -68 -227t-106 -199.5t-144.5 -160.5t-188 -105.5t-231.5 -38.5t-214 37t-142 104.5t-76 151.5t-24 188z" />
<glyph unicode="&#x215;" horiz-adv-x="1165" d="M449 1497h129l67 -190l-82 -35zM696 1497h127l72 -190l-84 -35zM76 254q0 73 22 186l135 627h138l-127 -602q-21 -91 -21 -160q0 -203 176 -203q116 0 232.5 80t189.5 213l144 672h139l-186 -870q-1 -8 -4 -22t-3 -17q0 -35 39 -35l-26 -123q-55 -4 -58 -4 q-42 1 -65 22.5t-23 57.5t29 166q-93 -124 -220.5 -193t-260.5 -69q-250 0 -250 274z" />
<glyph unicode="&#x216;" horiz-adv-x="1482" d="M995 1878q72 0 115 -47t43 -117q0 -15 -4 -43h-82q0 8 1 22t1 21q0 92 -82 92q-58 0 -94 -37.5t-49 -97.5h-84q19 87 86.5 147t148.5 60zM154 471q0 116 28 250l156 733h141l-155 -733q-27 -132 -27 -227q0 -82 17.5 -147.5t55.5 -118t104.5 -81t158.5 -28.5 q100 0 186 34.5t147 92t110 137t79 162.5t49 176l156 733h141l-153 -733q-26 -121 -68 -227t-106 -199.5t-144.5 -160.5t-188 -105.5t-231.5 -38.5t-214 37t-142 104.5t-76 151.5t-24 188z" />
<glyph unicode="&#x217;" horiz-adv-x="1165" d="M782 1495q72 0 115 -47t43 -117q0 -15 -4 -43h-82q0 8 1 22t1 21q0 92 -82 92q-58 0 -94 -37.5t-49 -97.5h-84q19 87 86.5 147t148.5 60zM76 254q0 73 22 186l135 627h138l-127 -602q-21 -91 -21 -160q0 -203 176 -203q116 0 232.5 80t189.5 213l144 672h139l-186 -870 q-1 -8 -4 -22t-3 -17q0 -35 39 -35l-26 -123q-55 -4 -58 -4q-42 1 -65 22.5t-23 57.5t29 166q-93 -124 -220.5 -193t-260.5 -69q-250 0 -250 274z" />
<glyph unicode="&#x218;" horiz-adv-x="1198" d="M-18 199l96 116q62 -85 179.5 -142.5t268.5 -57.5q185 0 293.5 79t108.5 216q0 45 -16.5 80t-42.5 59.5t-75 46.5t-97.5 37t-125.5 35q-78 21 -130 39t-101 43.5t-76.5 56t-44 73t-16.5 97.5q0 147 78 259t211 170t299 58q262 0 411 -168l-92 -114q-44 70 -135.5 112.5 t-210.5 42.5q-198 0 -302 -88.5t-104 -228.5q0 -41 14 -71.5t36.5 -52.5t67.5 -41.5t89.5 -33.5t120.5 -33q83 -21 139.5 -39.5t109 -46t83.5 -61t49 -80.5t18 -108q0 -115 -46 -205t-126.5 -146t-185.5 -85t-229 -29q-323 0 -516 211zM346 -408l68 152h-41l33 156h126 l-32 -156l-82 -152h-72z" />
<glyph unicode="&#x219;" horiz-adv-x="958" d="M-41 139l82 94q134 -143 330 -143q138 0 224.5 61.5t86.5 161.5q0 22 -6.5 40t-14.5 31.5t-28.5 26.5t-36 21.5t-49.5 19.5t-56 17.5t-69 19.5q-69 19 -107 32t-79 32t-60.5 40.5t-32 53.5t-12.5 74q0 109 61 192.5t163.5 127.5t228.5 44q117 0 205 -39t135 -106l-86 -82 q-83 119 -267 119q-129 0 -216 -57.5t-87 -165.5q0 -64 44 -92t171 -62q72 -20 119.5 -35.5t93 -38.5t71 -48.5t41 -61.5t15.5 -82q0 -157 -128.5 -255.5t-336.5 -98.5q-127 0 -231 41t-168 118zM231 -408l68 152h-41l33 156h127l-33 -156l-82 -152h-72z" />
<glyph unicode="&#x21a;" horiz-adv-x="1191" d="M672 1327h-488l27 127h1120l-26 -127h-490l-283 -1327h-141zM319 -408l68 152h-41l33 156h127l-33 -156l-82 -152h-72z" />
<glyph unicode="&#x21b;" horiz-adv-x="657" d="M98 141q0 25 6 52l162 763h-141l25 111h139l78 360h139l-78 -360h234l-25 -111h-231l-148 -694q-10 -48 -10 -57q0 -43 27.5 -65.5t70.5 -22.5q79 0 164 47l12 -113q-31 -22 -101 -42.5t-145 -20.5q-80 0 -129 39.5t-49 113.5zM92 -408l68 152h-41l33 156h127l-33 -156 l-82 -152h-72z" />
<glyph unicode="&#x22a;" horiz-adv-x="1478" d="M799 2161l20 96h563l-20 -96h-563zM772 1679l41 193h119l-41 -193h-119zM1067 1679l41 193h117l-39 -193h-119zM94 588q0 166 69 327t181.5 281t264 194t309.5 74q123 0 222.5 -50.5t161.5 -135.5t95 -192t33 -224q0 -165 -68.5 -325t-180 -280t-262.5 -193.5t-309 -73.5 q-123 0 -223 49.5t-163 133.5t-96.5 190.5t-33.5 224.5zM1286 852q0 97 -25.5 183t-73.5 153t-125 106t-173 39q-106 0 -206 -41.5t-179 -114t-139 -165t-92.5 -199.5t-32.5 -213q0 -98 25.5 -183.5t74 -152.5t125.5 -106t174 -39q106 0 206 42t178.5 115t138.5 165.5 t92 199t32 211.5z" />
<glyph unicode="&#x22b;" horiz-adv-x="1173" d="M553 1778l20 96h564l-21 -96h-563zM526 1296l41 193h119l-41 -193h-119zM821 1296l41 193h117l-39 -193h-119zM49 428q0 176 85.5 328t230 240.5t309.5 88.5q101 0 180.5 -35t130 -97t76.5 -143t26 -175q0 -176 -84.5 -327t-228.5 -239.5t-311 -88.5q-102 0 -182 35 t-130 96.5t-76 142t-26 174.5zM944 614q0 154 -77.5 251.5t-217.5 97.5q-86 0 -168.5 -40t-146 -108t-102.5 -165t-39 -204q0 -154 76.5 -249t217.5 -95q87 0 170 39.5t146 106.5t102 163t39 203z" />
<glyph unicode="&#x22c;" horiz-adv-x="1478" d="M801 2167l20 96h563l-20 -96h-563zM868 1772q-29 0 -52.5 -13.5t-36.5 -32.5t-19.5 -32.5t-7.5 -20.5h-86q2 11 11 31t27.5 48.5t42.5 53t61.5 41.5t78.5 17q46 0 83.5 -21.5t72 -43t73.5 -21.5q29 0 53 10t37.5 22.5t24 29t14 25t4.5 13.5h86q-2 -11 -10.5 -30 t-28 -47.5t-45 -52.5t-65.5 -41t-86 -17q-49 0 -89 20.5t-74.5 41t-68.5 20.5zM94 588q0 166 69 327t181.5 281t264 194t309.5 74q123 0 222.5 -50.5t161.5 -135.5t95 -192t33 -224q0 -165 -68.5 -325t-180 -280t-262.5 -193.5t-309 -73.5q-123 0 -223 49.5t-163 133.5 t-96.5 190.5t-33.5 224.5zM1286 852q0 97 -25.5 183t-73.5 153t-125 106t-173 39q-106 0 -206 -41.5t-179 -114t-139 -165t-92.5 -199.5t-32.5 -213q0 -98 25.5 -183.5t74 -152.5t125.5 -106t174 -39q106 0 206 42t178.5 115t138.5 165.5t92 199t32 211.5z" />
<glyph unicode="&#x22d;" horiz-adv-x="1173" d="M555 1784l20 96h564l-21 -96h-563zM623 1389q-38 0 -66.5 -24t-38.5 -44t-12 -31h-86q2 11 11 31t27.5 48.5t42.5 53t61.5 41.5t78.5 17q46 0 83.5 -21.5t72 -43t73.5 -21.5q29 0 53 10t38 23t24.5 29t14 24.5t4.5 13.5h86q-3 -15 -17.5 -41.5t-41 -61.5t-74 -60 t-103.5 -25q-39 0 -73 13t-54.5 28t-48 28t-55.5 13zM49 428q0 176 85.5 328t230 240.5t309.5 88.5q101 0 180.5 -35t130 -97t76.5 -143t26 -175q0 -176 -84.5 -327t-228.5 -239.5t-311 -88.5q-102 0 -182 35t-130 96.5t-76 142t-26 174.5zM944 614q0 154 -77.5 251.5 t-217.5 97.5q-86 0 -168.5 -40t-146 -108t-102.5 -165t-39 -204q0 -154 76.5 -249t217.5 -95q87 0 170 39.5t146 106.5t102 163t39 203z" />
<glyph unicode="&#x230;" horiz-adv-x="1478" d="M799 2167l20 96h563l-20 -96h-563zM915 1679l43 199h127l-43 -199h-127zM94 588q0 166 69 327t181.5 281t264 194t309.5 74q123 0 222.5 -50.5t161.5 -135.5t95 -192t33 -224q0 -165 -68.5 -325t-180 -280t-262.5 -193.5t-309 -73.5q-123 0 -223 49.5t-163 133.5 t-96.5 190.5t-33.5 224.5zM1286 852q0 97 -25.5 183t-73.5 153t-125 106t-173 39q-106 0 -206 -41.5t-179 -114t-139 -165t-92.5 -199.5t-32.5 -213q0 -98 25.5 -183.5t74 -152.5t125.5 -106t174 -39q106 0 206 42t178.5 115t138.5 165.5t92 199t32 211.5z" />
<glyph unicode="&#x231;" horiz-adv-x="1173" d="M553 1784l20 96h564l-21 -96h-563zM670 1296l43 199h127l-43 -199h-127zM49 428q0 176 85.5 328t230 240.5t309.5 88.5q101 0 180.5 -35t130 -97t76.5 -143t26 -175q0 -176 -84.5 -327t-228.5 -239.5t-311 -88.5q-102 0 -182 35t-130 96.5t-76 142t-26 174.5zM944 614 q0 154 -77.5 251.5t-217.5 97.5q-86 0 -168.5 -40t-146 -108t-102.5 -165t-39 -204q0 -154 76.5 -249t217.5 -95q87 0 170 39.5t146 106.5t102 163t39 203z" />
<glyph unicode="&#x232;" horiz-adv-x="1243" d="M545 1739l20 96h563l-20 -96h-563zM526 545l-340 909h158l281 -782l614 782h156l-729 -913l-115 -541h-141z" />
<glyph unicode="&#x233;" horiz-adv-x="993" d="M365 1356l20 96h563l-20 -96h-563zM-74 -346q127 20 189.5 64t140.5 165l68 101l-220 1083h146l172 -938l84 137q178 290 256 453t127 348h137q-56 -200 -138 -366.5t-284 -489.5l-166 -264q-142 -228 -245 -313.5t-248 -92.5z" />
<glyph unicode="&#x237;" horiz-adv-x="436" d="M-430 -291l86 94q39 -49 131 -49q69 0 135 55.5t84 135.5l238 1122h139l-238 -1114q-29 -137 -139.5 -230.5t-230.5 -93.5q-139 0 -205 80z" />
<glyph unicode="&#x259;" horiz-adv-x="1148" d="M430 -20q-186 0 -295.5 118.5t-109.5 302.5q0 116 28 181h860q7 44 7 71q0 143 -81 233.5t-208 90.5q-100 0 -198 -53.5t-150 -137.5l-113 33q71 117 206 191.5t283 74.5q183 0 293.5 -128.5t110.5 -321.5q0 -170 -86.5 -321.5t-233.5 -242.5t-313 -91zM455 86 q146 0 271 113.5t171 285.5h-731q-6 -41 -6 -75q0 -145 81.5 -234.5t213.5 -89.5z" />
<glyph unicode="&#x2b9;" horiz-adv-x="405" d="M254 1067l102 399h107l-137 -399h-72z" />
<glyph unicode="&#x2ba;" horiz-adv-x="835" d="M254 1067l102 399h107l-137 -399h-72zM684 1067l102 399h107l-137 -399h-72z" />
<glyph unicode="&#x2bb;" horiz-adv-x="317" d="M416 1495l-60 -131h37l-39 -143h-106l41 143l71 131h56z" />
<glyph unicode="&#x2bc;" horiz-adv-x="401" d="M336 1270l-74 35l133 190h127z" />
<glyph unicode="&#x2be;" horiz-adv-x="278" d="M215 1202l18 70q32 0 62.5 39t30.5 94q0 32 -12 50t-31 18l18 71q41 0 64.5 -34.5t23.5 -90.5q0 -92 -52.5 -154.5t-121.5 -62.5z" />
<glyph unicode="&#x2bf;" horiz-adv-x="276" d="M334 1202q-41 0 -64.5 34t-23.5 89q0 92 52.5 155.5t121.5 63.5l-21 -71q-34 0 -61 -38t-27 -94q0 -69 41 -69z" />
<glyph unicode="&#x2c6;" horiz-adv-x="692" d="M266 1303l232 174h100l156 -174l-86 -41l-140 129l-192 -129z" />
<glyph unicode="&#x2c7;" horiz-adv-x="692" d="M299 1454l86 41l139 -129l193 129l69 -41l-231 -176h-102z" />
<glyph unicode="&#x2c8;" horiz-adv-x="360" d="M360 1587v-833h-122v833h122z" />
<glyph unicode="&#x2c9;" horiz-adv-x="761" d="M287 1358l22 96h537l-23 -96h-536z" />
<glyph unicode="&#x2cb;" horiz-adv-x="389" d="M270 1067l68 399h108l-102 -399h-74z" />
<glyph unicode="&#x2cc;" horiz-adv-x="360" d="M143 567v-833h-123v833h123z" />
<glyph unicode="&#x2d8;" horiz-adv-x="593" d="M612 1495h84q-19 -88 -87 -147.5t-150 -59.5q-70 0 -114 45t-44 115q0 23 6 47h86q-4 -20 -4 -31q0 -43 24 -73.5t60 -30.5q41 0 81.5 39t57.5 96z" />
<glyph unicode="&#x2d9;" horiz-adv-x="331" d="M264 1296l43 199h127l-43 -199h-127z" />
<glyph unicode="&#x2da;" horiz-adv-x="499" d="M455 1495q56 0 87 -29.5t31 -79.5q0 -69 -51 -114t-127 -45q-54 0 -86.5 29.5t-32.5 78.5q0 69 52.5 114.5t126.5 45.5zM346 1346q0 -27 17.5 -45.5t46.5 -18.5q35 0 66.5 27.5t31.5 66.5q0 29 -18.5 46.5t-47.5 17.5q-38 0 -67 -27t-29 -67z" />
<glyph unicode="&#x2db;" horiz-adv-x="411" d="M-57 -246q0 69 48.5 136t151.5 143h39l15 -33q-88 -76 -124 -123.5t-36 -89.5q0 -30 22 -45t68 -23l-55 -92q-68 10 -98.5 44.5t-30.5 82.5z" />
<glyph unicode="&#x2dc;" horiz-adv-x="831" d="M467 1389q-38 0 -66.5 -24t-38.5 -44t-12 -31h-86q2 11 11 31t27.5 48.5t42.5 53t61.5 41.5t78.5 17q46 0 83.5 -21.5t72.5 -43t74 -21.5q29 0 53 10t37.5 22.5t24 29t14 25t4.5 13.5h86q-3 -15 -17.5 -41.5t-41 -61.5t-74 -60t-103.5 -25q-39 0 -73 13t-54.5 28t-48 28 t-55.5 13z" />
<glyph unicode="&#x2dd;" horiz-adv-x="690" d="M334 1270l-68 35l150 190h129zM582 1270l-68 35l150 190h129z" />
<glyph unicode="&#x300;" d="M-160 1495h144l77 -190l-100 -35z" />
<glyph unicode="&#x301;" d="M-115 1270l-86 35l156 190h145z" />
<glyph unicode="&#x302;" d="M-426 1303l231 174h101l155 -174l-86 -41l-139 129l-192 -129z" />
<glyph unicode="&#x303;" d="M-365 1389q-29 0 -52.5 -13.5t-36.5 -32.5t-19.5 -32.5t-7.5 -20.5h-86q2 11 11 31t27.5 48.5t42.5 53t61.5 41.5t78.5 17q46 0 83.5 -21.5t72 -43t73.5 -21.5q29 0 53 10t37.5 22.5t24 29t14 25t4.5 13.5h86q-2 -11 -10.5 -30t-28 -47.5t-45 -52.5t-65.5 -41t-86 -17 q-49 0 -89 20.5t-74.5 41t-68.5 20.5z" />
<glyph unicode="&#x304;" d="M-492 1356l21 96h563l-20 -96h-564z" />
<glyph unicode="&#x306;" d="M18 1495h84q-19 -88 -87 -147.5t-150 -59.5q-70 0 -114 45t-44 115q0 23 6 47h86q-4 -20 -4 -31q0 -43 24 -73.5t60 -30.5q41 0 81.5 39t57.5 96z" />
<glyph unicode="&#x307;" d="M-68 1296l43 199h127l-43 -199h-127z" />
<glyph unicode="&#x308;" d="M-354 1296l41 193h118l-41 -193h-118zM-59 1296l41 193h116l-39 -193h-118z" />
<glyph unicode="&#x309;" d="M-162 1417l-33 56q106 69 191 69q65 0 87 -38t-1 -91q-28 -78 -170 -168l-25 49q88 60 105 107q11 26 1 44.5t-40 18.5q-25 0 -48.5 -10t-66.5 -37z" />
<glyph unicode="&#x30a;" d="M-45 1495q56 0 87.5 -29.5t31.5 -79.5q0 -69 -51 -114t-127 -45q-54 0 -86.5 29.5t-32.5 78.5q0 69 52 114.5t126 45.5zM-154 1346q0 -27 17.5 -45.5t46.5 -18.5q35 0 66.5 27.5t31.5 66.5q0 29 -18 46.5t-47 17.5q-38 0 -67.5 -27t-29.5 -67z" />
<glyph unicode="&#x30b;" d="M-356 1270l-68 35l150 190h129zM-109 1270l-67 35l149 190h129z" />
<glyph unicode="&#x30c;" d="M-393 1454l86 41l139 -129l193 129l69 -41l-231 -176h-103z" />
<glyph unicode="&#x30f;" d="M-385 1495h129l68 -190l-82 -35zM-137 1495h127l71 -190l-84 -35z" />
<glyph unicode="&#x311;" d="M-94 1495q71 0 114 -47t43 -117q0 -15 -4 -43h-82q0 8 1.5 22t1.5 21q0 92 -82 92q-58 0 -94.5 -37.5t-49.5 -97.5h-84q19 87 87 147t149 60z" />
<glyph unicode="&#x312;" d="M98 1495l-59 -131h37l-39 -143h-107l41 143l72 131h55z" />
<glyph unicode="&#x31b;" d="M-307 1036l22 105q130 0 174 47q40 43 58 125h116q-17 -66 -38 -110t-60 -83q-43 -40 -115.5 -62t-156.5 -22z" />
<glyph unicode="&#x323;" d="M-414 -340l41 201h127l-41 -201h-127z" />
<glyph unicode="&#x324;" d="M-688 -346l47 192h113l-50 -192h-110zM-432 -346l49 192h111l-47 -192h-113z" />
<glyph unicode="&#x326;" d="M-424 -408l68 152h-41l32 156h127l-32 -156l-82 -152h-72z" />
<glyph unicode="&#x327;" d="M-487 -369q-108 0 -193 58l57 80q72 -45 136 -45q68 0 108.5 35.5t40.5 95.5q0 73 -88 145l61 39q111 -89 111 -193q0 -99 -64 -157t-169 -58z" />
<glyph unicode="&#x328;" d="M-469 -246q0 69 49 136t152 143h39l14 -33q-88 -76 -124 -123.5t-36 -89.5q0 -30 22 -45t68 -23l-55 -92q-68 10 -98.5 44.5t-30.5 82.5z" />
<glyph unicode="&#x32e;" d="M-449 -311q-73 0 -109.5 60t-14.5 147h77q-12 -53 8 -94.5t58 -41.5q35 0 72.5 39.5t56.5 96.5h78q-22 -88 -87 -147.5t-139 -59.5z" />
<glyph unicode="&#x331;" d="M-811 -264l23 96h536l-22 -96h-537z" />
<glyph unicode="&#x335;" d="M-537 573l23 93h438l-22 -93h-439z" />
<glyph unicode="&#x3c0;" horiz-adv-x="1374" d="M823 195v745h-409v-940h-135v940h-164v127h1069v-127h-226v-698q0 -60 33 -93.5t92 -33.5q56 0 111 22l25 -112q-39 -15 -95.5 -26t-97.5 -11q-93 0 -148 55.5t-55 151.5z" />
<glyph unicode="&#x400;" horiz-adv-x="1191" d="M623 1882h143l78 -190l-101 -35zM358 1454h912l-27 -127h-770l-113 -524h672l-24 -121h-672l-119 -555h789l-27 -127h-930z" />
<glyph unicode="&#x401;" horiz-adv-x="1191" d="M633 1683l41 193h119l-41 -193h-119zM928 1683l41 193h116l-38 -193h-119zM358 1454h912l-27 -127h-770l-113 -524h672l-24 -121h-672l-119 -555h789l-27 -127h-930z" />
<glyph unicode="&#x402;" horiz-adv-x="1550" d="M997 907q211 0 321.5 -126t74.5 -345q-36 -223 -174 -336.5t-349 -113.5q-94 0 -172 22l31 115q83 -17 148 -17q151 0 247 83t125 247q28 165 -53 255.5t-233 90.5q-189 0 -383 -114l-142 -668h-141l281 1327h-394l27 127h1055l-29 -127h-518l-111 -524q203 104 389 104z " />
<glyph unicode="&#x403;" horiz-adv-x="1028" d="M862 1657l-86 35l156 190h145zM43 0l307 1454h826l-27 -127h-682l-281 -1327h-143z" />
<glyph unicode="&#x404;" horiz-adv-x="1476" d="M723 117q138 0 276 68.5t224 201.5l110 -61q-62 -106 -171 -184.5t-229 -116t-237 -37.5q-118 0 -221 42t-175.5 115.5t-121 168t-65.5 204t-2 219.5q15 106 59.5 210t118.5 196.5t167 164t213 113t249 41.5q192 0 321 -86t180 -231l-123 -70q-33 92 -100 152t-142.5 83 t-164.5 23q-118 0 -224 -44t-183 -118.5t-131.5 -167.5t-80.5 -196h662l-25 -127h-657q-10 -150 46 -278.5t168.5 -206.5t258.5 -78z" />
<glyph unicode="&#x405;" horiz-adv-x="1198" d="M-18 199l96 116q62 -85 179.5 -142.5t268.5 -57.5q185 0 293.5 79t108.5 216q0 45 -16.5 80t-42.5 59.5t-75 46.5t-97.5 37t-125.5 35q-78 21 -130 39t-101 43.5t-76.5 56t-44 73t-16.5 97.5q0 147 78 259t211 170t299 58q262 0 411 -168l-92 -114q-44 70 -135.5 112.5 t-210.5 42.5q-198 0 -302 -88.5t-104 -228.5q0 -41 14 -71.5t36.5 -52.5t67.5 -41.5t89.5 -33.5t120.5 -33q83 -21 139.5 -39.5t109 -46t83.5 -61t49 -80.5t18 -108q0 -115 -46 -205t-126.5 -146t-185.5 -85t-229 -29q-323 0 -516 211z" />
<glyph unicode="&#x406;" horiz-adv-x="501" d="M358 1452h142l-310 -1452h-141z" />
<glyph unicode="&#x407;" horiz-adv-x="501" d="M270 1681l41 193h119l-41 -193h-119zM565 1681l41 193h117l-39 -193h-119zM358 1452h142l-310 -1452h-141z" />
<glyph unicode="&#x408;" horiz-adv-x="958" d="M-76 68l64 114q39 -34 103 -56t145 -22q46 0 85.5 8.5t72.5 23.5t61 40.5t50.5 54t43 70t36.5 82.5t32 98t29 110t28 124l157 737h144l-158 -737q-23 -106 -43 -183t-48.5 -159t-60.5 -138t-76.5 -108t-98.5 -83t-124.5 -49t-156.5 -18q-170 0 -285 91z" />
<glyph unicode="&#x409;" horiz-adv-x="2117" d="M-23 -2l25 127q82 0 147 41.5t129.5 145t125.5 282.5t126 450l99 410h839l-118 -565h241q230 0 331.5 -120.5t68.5 -324.5q-31 -193 -174 -318.5t-365 -125.5h-432l280 1327h-565l-76 -315q-56 -240 -112.5 -412t-116.5 -289t-131 -186t-147.5 -98t-174.5 -29zM1188 127 h268q161 0 263.5 92t125.5 225q7 50 7 97t-18.5 87.5t-50.5 70.5t-88 47.5t-132 17.5h-240z" />
<glyph unicode="&#x40a;" horiz-adv-x="2050" d="M49 0l309 1454h142l-133 -625h745l131 625h143l-126 -606h258q230 0 331.5 -114t69.5 -306q-31 -187 -173 -307.5t-364 -120.5h-446l149 702h-743l-149 -702h-144zM1106 127h278q165 0 265.5 86.5t124.5 214.5q7 46 6.5 89t-19.5 80t-51 64.5t-88.5 43.5t-132.5 16h-258z " />
<glyph unicode="&#x40b;" horiz-adv-x="1515" d="M967 895q235 0 332 -110.5t55 -342.5l-92 -442h-144l94 449q35 171 -33.5 253t-242.5 82q-97 0 -202 -25.5t-179 -64.5l-147 -694h-142l281 1327h-363l27 127h1044l-24 -127h-541l-108 -510q186 78 385 78z" />
<glyph unicode="&#x40c;" horiz-adv-x="1282" d="M860 1657l-86 35l156 190h145zM49 0l307 1454h144l-138 -649h211l627 649h170l-684 -698l430 -756h-153l-381 680h-246l-143 -680h-144z" />
<glyph unicode="&#x40d;" horiz-adv-x="1484" d="M743 1882h144l78 -190l-101 -35zM49 0l307 1454h144l-267 -1253l1119 1253h133l-309 -1454h-142l264 1237l-1105 -1237h-144z" />
<glyph unicode="&#x40e;" horiz-adv-x="1247" d="M831 1663q-149 0 -222.5 59.5t-59.5 153.5h115q-9 -51 35.5 -86t131.5 -35q108 0 170.5 32t71.5 89h111q-14 -94 -108 -153.5t-245 -59.5zM201 0l26 123h88q170 0 263 178l18 33l-416 1120h137l353 -979l522 979h141l-645 -1180q-78 -144 -168.5 -209t-234.5 -65h-84z " />
<glyph unicode="&#x40f;" horiz-adv-x="1425" d="M461 -279l59 279h-471l309 1454h142l-281 -1327h780l281 1327h143l-309 -1454h-469l-59 -279h-125z" />
<glyph unicode="&#x410;" horiz-adv-x="1333" d="M791 1454h122l263 -1454h-152l-80 455h-612l-271 -455h-153zM936 567l-119 719l-432 -719h551z" />
<glyph unicode="&#x411;" horiz-adv-x="1353" d="M49 0l309 1454h973l-26 -127h-832l-106 -506h477q231 0 331 -108t68 -293q-14 -88 -55 -164t-106 -133.5t-158.5 -90t-204.5 -32.5h-670zM219 125h502q86 0 155.5 25t114 68.5t71.5 95t38 110.5q6 44 6 85t-19 77t-50.5 63t-88.5 42.5t-133 15.5h-473z" />
<glyph unicode="&#x412;" horiz-adv-x="1312" d="M358 1454h668q115 0 180.5 -87.5t65.5 -209.5q0 -130 -78 -244t-203 -168q90 -30 139.5 -109t49.5 -185q0 -95 -41 -180t-107.5 -143.5t-153.5 -93t-178 -34.5h-651zM829 793q114 0 204.5 99.5t90.5 225.5q0 90 -46.5 150.5t-123.5 60.5h-481l-115 -536h471zM727 125 q119 0 215 101t96 227q0 94 -49 158.5t-131 64.5h-524l-117 -551h510z" />
<glyph unicode="&#x413;" horiz-adv-x="1028" d="M43 0l307 1454h826l-27 -127h-682l-281 -1327h-143z" />
<glyph unicode="&#x414;" horiz-adv-x="1570" d="M-72 -279l84 406h68q127 3 231.5 227t212.5 744l76 356h887l-279 -1327h176l-86 -406h-127l58 279h-1116l-58 -279h-127zM289 127h776l256 1200h-614l-66 -313q-84 -400 -169.5 -607t-182.5 -280z" />
<glyph unicode="&#x415;" horiz-adv-x="1191" d="M358 1454h912l-27 -127h-770l-113 -524h672l-24 -121h-672l-119 -555h789l-27 -127h-930z" />
<glyph unicode="&#x416;" horiz-adv-x="1994" d="M-76 0l692 750l-403 704h145l371 -649h217l137 649h142l-135 -649h202l621 649h168l-676 -698l422 -756h-146l-376 680h-242l-145 -680h-142l144 680h-203l-629 -680h-164z" />
<glyph unicode="&#x417;" horiz-adv-x="1132" d="M451 -18q-149 0 -258.5 63.5t-159.5 179.5l121 68q36 -94 119.5 -142.5t199.5 -48.5q157 0 257 76.5t120 214.5q21 135 -50 218t-216 83h-119l20 115h117q112 0 196 75.5t101 188.5q19 125 -42 200t-189 75q-103 0 -194 -47.5t-146 -133.5l-97 70q81 111 195.5 173.5 t251.5 62.5q188 0 288 -107.5t74 -282.5q-18 -107 -87 -195t-173 -130q121 -36 177 -137.5t36 -239.5q-29 -186 -174.5 -292.5t-367.5 -106.5z" />
<glyph unicode="&#x418;" horiz-adv-x="1484" d="M49 0l307 1454h144l-267 -1253l1119 1253h133l-309 -1454h-142l264 1237l-1105 -1237h-144z" />
<glyph unicode="&#x419;" horiz-adv-x="1484" d="M938 1663q-149 0 -223 59.5t-60 153.5h115q-9 -51 36 -86t132 -35q108 0 170.5 32t71.5 89h110q-14 -94 -107.5 -153.5t-244.5 -59.5zM49 0l307 1454h144l-267 -1253l1119 1253h133l-309 -1454h-142l264 1237l-1105 -1237h-144z" />
<glyph unicode="&#x41a;" horiz-adv-x="1282" d="M49 0l307 1454h144l-138 -649h211l627 649h170l-684 -698l430 -756h-153l-381 680h-246l-143 -680h-144z" />
<glyph unicode="&#x41b;" horiz-adv-x="1515" d="M-23 -2l25 127q109 0 192 77t166 280t170 562l99 410h884l-307 -1454h-143l283 1327h-611l-76 -315q-57 -240 -114 -411.5t-117 -289.5t-130 -186t-146.5 -97.5t-174.5 -29.5z" />
<glyph unicode="&#x41c;" horiz-adv-x="1720" d="M358 1454h148l321 -995l746 995h147l-309 -1454h-143l254 1194l-693 -924h-84l-299 924l-256 -1194h-141z" />
<glyph unicode="&#x41d;" horiz-adv-x="1452" d="M358 1454h142l-138 -647h809l138 647h143l-309 -1454h-144l146 680h-809l-146 -680h-141z" />
<glyph unicode="&#x41e;" horiz-adv-x="1560" d="M698 -10q-120 0 -223.5 40.5t-176.5 111.5t-121.5 164t-65.5 201.5t-2 219.5q20 144 93 278.5t178.5 235.5t245 162t285.5 61q120 0 223.5 -40t176 -111t120.5 -164t64.5 -202t1.5 -222q-20 -148 -92 -283.5t-178 -234.5t-244.5 -158t-284.5 -59zM719 119q122 0 235 53 t194.5 139t136 194.5t69.5 221.5q23 165 -26.5 303.5t-165 220.5t-273.5 82q-122 0 -234.5 -52.5t-194 -138t-136.5 -194t-72 -221.5q-16 -118 9.5 -228t84.5 -194t156 -135t217 -51z" />
<glyph unicode="&#x41f;" horiz-adv-x="1454" d="M49 0l307 1454h1096l-307 -1454h-141l280 1327h-813l-278 -1327h-144z" />
<glyph unicode="&#x420;" horiz-adv-x="1226" d="M358 1454h570q99 0 175.5 -55t114 -140t37.5 -182t-41 -194.5t-109 -173.5t-162.5 -124t-194.5 -48h-443l-115 -537h-141zM766 664q91 0 171.5 59t126.5 151.5t46 190.5q0 112 -60.5 187t-154.5 75h-422l-141 -663h434z" />
<glyph unicode="&#x421;" horiz-adv-x="1454" d="M696 -12q-118 0 -221 42t-175.5 115.5t-121 168t-65.5 204t-2 219.5q15 106 59.5 210t118.5 196.5t167 164t213 113t249 41.5q192 0 321 -86t180 -231l-123 -70q-33 92 -100 152t-142.5 83t-164.5 23q-129 0 -243 -53t-193.5 -139.5t-131 -193t-67.5 -218.5 q-17 -119 10.5 -231t88.5 -196t158 -134.5t212 -50.5q138 0 276 68.5t224 201.5l110 -61q-62 -106 -171 -184.5t-229 -116t-237 -37.5z" />
<glyph unicode="&#x422;" horiz-adv-x="1191" d="M672 1327h-488l27 127h1120l-26 -127h-490l-283 -1327h-141z" />
<glyph unicode="&#x423;" horiz-adv-x="1247" d="M201 0l26 123h88q170 0 263 178l18 33l-416 1120h137l353 -979l522 979h141l-645 -1180q-78 -144 -168.5 -209t-234.5 -65h-84z" />
<glyph unicode="&#x424;" horiz-adv-x="1681" d="M1071 1382q135 -7 247 -51.5t189.5 -121t110.5 -189.5t10 -248q-31 -181 -150 -321t-292.5 -214.5t-372.5 -76.5l-35 -160h-135l35 162q-137 7 -250 52t-190 121.5t-110 189.5t-11 247q35 187 155 326.5t290.5 211t371.5 74.5l29 136h137zM707 281l206 983 q-254 -6 -433 -138.5t-218 -353.5q-20 -113 7.5 -205.5t91.5 -152t152.5 -94t193.5 -39.5zM1485 772q18 112 -9 204t-89 152.5t-150 95.5t-195 40l-206 -983q162 4 299.5 63.5t231 171t118.5 256.5z" />
<glyph unicode="&#x425;" horiz-adv-x="1236" d="M561 717l-373 737h162l314 -635l581 635h158l-686 -737l360 -717h-157l-302 614l-561 -614h-161z" />
<glyph unicode="&#x426;" horiz-adv-x="1499" d="M1100 -276l57 276h-1108l309 1454h142l-281 -1327h774l283 1327h141l-280 -1327h174l-84 -403h-127z" />
<glyph unicode="&#x427;" horiz-adv-x="1363" d="M1221 1454h141l-307 -1454h-142l131 621q-206 -74 -401 -74q-514 0 -414 467l99 440h141l-100 -461q-35 -170 37.5 -246.5t269.5 -76.5q105 0 215.5 24.5t181.5 63.5z" />
<glyph unicode="&#x428;" horiz-adv-x="1910" d="M49 0l307 1454h144l-281 -1327h563l279 1327h143l-280 -1327h561l282 1327h142l-307 -1454h-1553z" />
<glyph unicode="&#x429;" horiz-adv-x="1988" d="M1589 -279l58 279h-1598l307 1454h144l-281 -1327h563l279 1327h143l-280 -1327h563l280 1327h142l-283 -1327h176l-86 -406h-127z" />
<glyph unicode="&#x42a;" horiz-adv-x="1443" d="M295 0l280 1331h-391l27 123h532l-118 -565h313q231 0 332.5 -120.5t66.5 -324.5q-31 -193 -173 -318.5t-361 -125.5h-508zM465 127h340q167 0 266 91t123 226q7 50 6.5 97t-19 87.5t-50.5 70.5t-88 47.5t-132 17.5h-313z" />
<glyph unicode="&#x42b;" horiz-adv-x="1646" d="M49 0l307 1454h144l-121 -565h270q230 0 331.5 -120.5t68.5 -324.5q-32 -193 -174.5 -318.5t-362.5 -125.5h-463zM1503 1452h142l-310 -1452h-141zM219 127h295q167 0 266 91t123 226q15 62 5.5 120t-37.5 102.5t-92 71t-158 26.5h-269z" />
<glyph unicode="&#x42c;" horiz-adv-x="1236" d="M49 0l307 1454h144l-121 -565h332q230 0 330.5 -120t68.5 -325q-32 -193 -174.5 -318.5t-362.5 -125.5h-524zM219 127h356q86 0 156.5 26t117.5 71.5t76 100.5t40 119q7 50 7 97t-18.5 87.5t-50.5 70.5t-88.5 47.5t-132.5 17.5h-330z" />
<glyph unicode="&#x42d;" horiz-adv-x="1454" d="M842 1462q94 0 175.5 -21.5t141.5 -60t108 -92t76 -117.5t45.5 -136t16.5 -148t-12 -154q-23 -143 -91 -276.5t-168.5 -238t-239.5 -167.5t-292 -63q-192 0 -334 90t-194 248l129 61q46 -132 157 -201t254 -69q153 0 286 79t219 206t122 282h-694l22 119h688 q15 245 -99 387.5t-335 142.5q-141 0 -265.5 -64t-213.5 -196l-106 72q102 148 254 232.5t350 84.5z" />
<glyph unicode="&#x42e;" horiz-adv-x="2072" d="M1421 1464q120 0 223.5 -40t176 -111t120.5 -164t64.5 -202t1.5 -222q-20 -148 -92 -283.5t-178 -234.5t-244.5 -158t-284.5 -59q-142 0 -259.5 56.5t-192 150.5t-113 215.5t-31.5 253.5h-280l-139 -666h-144l307 1454h144l-142 -659h273q31 134 106.5 255.5t178.5 213 t235 146t270 54.5zM1864 727q23 165 -26.5 303.5t-165 220.5t-273.5 82q-122 0 -234.5 -52.5t-194 -138t-136.5 -194t-72 -221.5q-16 -118 9.5 -228t84.5 -194t156 -135t217 -51q122 0 235 53t194.5 139t136 194.5t69.5 221.5z" />
<glyph unicode="&#x42f;" horiz-adv-x="1312" d="M14 0l510 633q-149 38 -215.5 152.5t-38.5 271.5q32 181 177.5 289t359.5 108h504l-307 -1454h-142l125 598h-276h-49l-476 -598h-172zM694 725h320l127 602h-332q-159 0 -267 -76.5t-132 -216.5q-24 -135 48.5 -222t235.5 -87z" />
<glyph unicode="&#x430;" horiz-adv-x="1224" d="M51 426q0 166 83 319t220.5 246.5t288.5 93.5q123 0 208.5 -67.5t123.5 -173.5l49 223h139l-188 -885q-4 -16 -4 -26q0 -33 39 -33l-27 -123q-10 -1 -28.5 -3.5t-26.5 -2.5q-45 3 -69.5 25t-24.5 57q0 18 22 131q-82 -104 -197.5 -165.5t-228.5 -61.5q-115 0 -203 62 t-132 162.5t-44 221.5zM874 367l68 329q-14 110 -96.5 188.5t-190.5 78.5q-118 0 -225.5 -77.5t-170 -197t-62.5 -242.5q0 -144 81 -244t209 -100q105 0 227 80t160 185z" />
<glyph unicode="&#x431;" horiz-adv-x="1226" d="M551 -20q-242 0 -345.5 159t-53.5 439q48 281 131.5 460t202.5 271t294 127q36 8 93 16t93 14.5t76 18t66 31.5t41 49l96 -41q-6 -24 -16.5 -44t-21 -35.5t-30 -29t-33.5 -23t-42.5 -19.5t-46.5 -15.5t-55 -14t-58.5 -12.5t-68 -12.5t-72.5 -13.5q-105 -20 -182.5 -60.5 t-136 -110t-99 -162t-74.5 -224.5q70 118 184 182.5t252 64.5q213 0 312.5 -136.5t66.5 -362.5q-37 -237 -188 -376.5t-385 -139.5zM563 96q168 0 278 105.5t140 285.5q27 176 -47.5 284t-237.5 108q-153 0 -269 -107.5t-146 -284.5q-20 -107 5.5 -195t97.5 -142t179 -54z " />
<glyph unicode="&#x432;" horiz-adv-x="1161" d="M823 547q84 -30 131 -89t47 -143q0 -156 -128 -245.5t-328 -87.5q-250 1 -355.5 144t-62.5 411q43 266 201 408t405 142q153 0 235.5 -65.5t82.5 -183.5q0 -204 -228 -291zM715 977q-164 0 -276.5 -97t-155.5 -278q117 -12 215 -12q204 3 310.5 65t106.5 168 q0 73 -50.5 113.5t-149.5 40.5zM551 88q139 -2 225 58.5t86 170.5q0 162 -180 193q-103 -14 -199 -14q-102 0 -219 12q-30 -214 37.5 -315.5t249.5 -104.5z" />
<glyph unicode="&#x433;" horiz-adv-x="993" d="M446 -20q-187 0 -278.5 77.5t-79.5 214.5q9 114 96 183t293 135q149 50 206.5 95.5t66.5 121.5q7 84 -43.5 129t-149.5 45q-89 0 -165 -35t-122 -98l-100 65q62 83 167.5 128.5t240.5 45.5q161 0 242 -74t73 -206q-10 -116 -95.5 -185.5t-269.5 -129.5 q-165 -54 -226.5 -100t-70.5 -124q-9 -86 52.5 -131t187.5 -45q195 0 315 135l91 -77q-157 -170 -431 -170z" />
<glyph unicode="&#x434;" horiz-adv-x="1224" d="M512 -20q-109 0 -198.5 44t-144.5 117.5t-78.5 172t-8.5 206.5q31 216 191.5 365t373.5 149q146 0 250.5 -81t134.5 -208q33 223 -5 358.5t-148 199.5q-151 87 -480 59v119q350 32 543 -80q229 -130 229 -453q0 -265 -98 -538q-33 -90 -85 -166t-121 -136t-160.5 -94 t-194.5 -34zM530 94q155 0 283.5 123.5t153.5 296.5q23 171 -67.5 289.5t-246.5 118.5q-158 0 -283 -117t-151 -293q-25 -174 66 -296t245 -122z" />
<glyph unicode="&#x435;" horiz-adv-x="1128" d="M537 96q65 0 125 20.5t99.5 50t64.5 56.5t34 47l123 -41q-11 -20 -30.5 -44.5t-61.5 -63t-92 -68t-126 -51.5t-159 -22q-146 0 -249.5 72.5t-148.5 191t-32 262.5q14 154 95 285.5t218 212.5t299 81q92 0 170.5 -31t131 -97.5t53.5 -157.5q2 -158 -136 -241t-423 -83 q-137 0 -273 8q-9 -172 75 -279.5t243 -107.5zM674 969q-153 0 -276 -108.5t-162 -268.5q125 -8 256 -8q227 0 322.5 55.5t90.5 157.5q-3 82 -70 127t-161 45z" />
<glyph unicode="&#x436;" horiz-adv-x="1568" d="M-55 0q126 199 245.5 336t249.5 211l-268 520h141l240 -473h154l100 473h137l-100 -473h162q110 65 203 175.5t212 297.5h150q-242 -376 -451 -520l291 -547h-151l-259 498h-178l-104 -498h-139l104 498h-111q-133 -62 -244 -183t-233 -315h-151z" />
<glyph unicode="&#x437;" horiz-adv-x="997" d="M381 -12q-146 0 -241.5 56t-131.5 159l119 51q26 -73 95.5 -112.5t172.5 -39.5q125 0 210 57.5t100 153.5q15 87 -35.5 141.5t-153.5 55.5h-141l20 96h144q66 0 122 50t68 122q15 87 -34.5 138t-157.5 51q-175 0 -269 -142l-100 58q65 96 165.5 148t225.5 52 q157 0 241.5 -80.5t63.5 -218.5q-10 -74 -57 -132.5t-117 -86.5q89 -29 128 -100t22 -168q-24 -144 -150 -226.5t-309 -82.5z" />
<glyph unicode="&#x438;" horiz-adv-x="1165" d="M76 254q0 73 22 186l135 627h138l-127 -602q-21 -91 -21 -160q0 -203 176 -203q116 0 232.5 80t189.5 213l144 672h139l-186 -870q-1 -8 -4 -22t-3 -17q0 -35 39 -35l-26 -123q-55 -4 -58 -4q-42 1 -65 22.5t-23 57.5t29 166q-93 -124 -220.5 -193t-260.5 -69 q-250 0 -250 274z" />
<glyph unicode="&#x439;" horiz-adv-x="1165" d="M692 1241q-126 0 -189 51.5t-57 130.5h80q-3 -48 37.5 -79t132.5 -31q89 0 132.5 28.5t60.5 81.5h80q-6 -79 -78 -130.5t-199 -51.5zM76 254q0 73 22 186l135 627h138l-127 -602q-21 -91 -21 -160q0 -203 176 -203q116 0 232.5 80t189.5 213l144 672h139l-186 -870 q-1 -8 -4 -22t-3 -17q0 -35 39 -35l-26 -123q-55 -4 -58 -4q-42 1 -65 22.5t-23 57.5t29 166q-93 -124 -220.5 -193t-260.5 -69q-250 0 -250 274z" />
<glyph unicode="&#x43a;" horiz-adv-x="1011" d="M35 0l225 1067h139l-100 -467h160q110 65 208 180t207 287h150q-237 -373 -453 -520l293 -547h-153l-260 489h-177l-102 -489h-137z" />
<glyph unicode="&#x43b;" horiz-adv-x="1091" d="M-27 0q201 590 658 1067h139l160 -1067h-146l-120 934q-352 -390 -553 -934h-138z" />
<glyph unicode="&#x43c;" horiz-adv-x="1404" d="M35 0l225 1067h154l243 -717l551 717h162l-225 -1067h-133l182 868l-514 -678h-90l-238 682l-184 -872h-133z" />
<glyph unicode="&#x43d;" horiz-adv-x="1181" d="M35 0l225 1067h139l-100 -465h612l97 465h139l-225 -1067h-140l105 492h-611l-102 -492h-139z" />
<glyph unicode="&#x43e;" horiz-adv-x="1241" d="M537 -20q-151 0 -262 75.5t-160 201t-29 273.5q15 111 69.5 212.5t134 177t185 120.5t217.5 45q150 0 261.5 -76.5t161.5 -203t30 -275.5q-15 -111 -68 -211.5t-132 -175t-185.5 -119t-222.5 -44.5zM553 96q157 0 290 130t158 306q16 118 -21 218.5t-117.5 159.5 t-186.5 59q-159 0 -290.5 -129.5t-156.5 -311.5q-25 -181 70 -306.5t254 -125.5z" />
<glyph unicode="&#x43f;" horiz-adv-x="1150" d="M35 0l225 1067h856l-227 -1067h-139l202 956h-577l-201 -956h-139z" />
<glyph unicode="&#x440;" horiz-adv-x="1214" d="M246 1067h123l-43 -207q84 102 197.5 163.5t226.5 61.5q115 0 202.5 -63t131.5 -163.5t44 -221.5q0 -123 -48 -243t-127.5 -211t-189 -147t-226.5 -56q-122 0 -207.5 66.5t-124.5 174.5l-139 -657h-140zM983 614q0 146 -81.5 247.5t-211.5 101.5q-65 0 -145 -36 t-147.5 -98t-92.5 -131l-69 -327q22 -117 100 -193t188 -76q120 0 227.5 77t169.5 195.5t62 239.5z" />
<glyph unicode="&#x441;" horiz-adv-x="1077" d="M51 432q0 170 85 320.5t232.5 241.5t319.5 91q145 0 239 -67.5t124 -186.5l-144 -43q-26 85 -88 130t-151 45t-175.5 -41t-152 -109.5t-105.5 -164t-40 -197.5q0 -151 78.5 -250t203.5 -99q97 0 195 54.5t135 128.5l129 -41q-66 -116 -198.5 -190t-276.5 -74 q-188 0 -299 129t-111 323z" />
<glyph unicode="&#x442;" horiz-adv-x="1798" d="M244 1067h129l-54 -242q87 121 203.5 190.5t235.5 69.5q120 0 183 -73t60 -205q88 134 206 206t243 72q238 0 238 -262q0 -82 -25 -198l-133 -625h-139l125 596q20 90 20 166q0 196 -162 196q-113 0 -220.5 -85t-172.5 -222l-137 -651h-139l124 596q23 112 23 170 q0 192 -162 192q-113 0 -220 -83.5t-175 -221.5l-137 -653h-140z" />
<glyph unicode="&#x443;" horiz-adv-x="993" d="M-74 -346q127 20 189.5 64t140.5 165l68 101l-220 1083h146l172 -938l84 137q178 290 256 453t127 348h137q-56 -200 -138 -366.5t-284 -489.5l-166 -264q-142 -228 -245 -313.5t-248 -92.5z" />
<glyph unicode="&#x444;" horiz-adv-x="1423" d="M422 -436l92 436h-43q-111 0 -198.5 43.5t-139.5 116t-72 169t-2 201.5q18 108 71.5 205.5t131.5 170.5t183.5 116t220.5 43h75l90 430h136l-93 -430l39 -2q148 -6 252 -79.5t145.5 -192.5t18.5 -261q-25 -144 -107.5 -264t-214.5 -193t-286 -73h-72l-92 -436h-135z M506 104h39l182 859h-78q-164 0 -291 -126t-155 -309q-31 -179 54 -301.5t249 -122.5zM664 104h73q167 0 294 122.5t155 301.5q20 120 -11 219.5t-108 157.5t-184 58h-37z" />
<glyph unicode="&#x445;" horiz-adv-x="985" d="M397 530l-272 537h149l209 -418l9 -31l22 29l389 420h150l-500 -537l272 -530h-149l-209 416l-12 28l-21 -26l-385 -418h-151z" />
<glyph unicode="&#x446;" horiz-adv-x="1222" d="M850 -248l55 248q-160 0 -96 242q-89 -121 -212 -191.5t-253 -70.5q-133 0 -198.5 75t-65.5 211q0 80 18 174l135 627h138l-135 -631q-19 -84 -19 -145q0 -95 44 -142t138 -47q117 0 234 80.5t190 212.5l142 672h139l-168 -797q-24 -100 -11 -129.5t83 -29.5h45l-74 -359 h-129z" />
<glyph unicode="&#x447;" horiz-adv-x="1048" d="M645 0l98 446q-136 -61 -301 -61q-180 0 -255.5 92t-36.5 275l69 315h143l-69 -297q-29 -143 22.5 -209.5t180.5 -66.5q72 0 147 17t123 44l108 512h142l-228 -1067h-143z" />
<glyph unicode="&#x448;" horiz-adv-x="1798" d="M1554 0h-129l54 242q-87 -121 -203.5 -190.5t-235.5 -69.5q-120 0 -183 73t-60 205q-88 -134 -206 -206t-243 -72q-237 0 -237 262q0 87 24 198l133 625h140l-125 -596q-21 -95 -21 -166q0 -196 162 -196q113 0 220.5 85t172.5 222l137 651h140l-125 -596 q-23 -112 -23 -170q0 -192 162 -192q113 0 220 83.5t175 221.5l137 653h140z" />
<glyph unicode="&#x449;" horiz-adv-x="1861" d="M1491 -248l53 248q-89 4 -108.5 57.5t8.5 186.5q-85 -125 -193.5 -193.5t-226.5 -68.5q-127 0 -193 72t-69 198q-85 -131 -198 -200.5t-234 -69.5q-255 0 -252 280q0 73 22 180l133 625h140l-127 -596q-21 -110 -21 -170q0 -192 164 -192q111 0 218.5 85t174.5 222 l138 651h139l-127 -596q-21 -92 -21 -166q0 -196 162 -196q112 0 219.5 84t173.5 221l140 653h139l-168 -795q-23 -101 -11 -131t79 -30h49l-74 -359h-129z" />
<glyph unicode="&#x44a;" horiz-adv-x="1196" d="M618 -14q-191 0 -282.5 84t-91.5 231q0 136 72.5 308t197.5 347h-389l25 111h571q-111 -153 -205 -348q61 2 186 2q196 0 294 -105.5t71 -277.5q-26 -171 -146 -261.5t-303 -90.5zM635 104q119 0 196.5 67t94.5 183q14 123 -48 188.5t-210 65.5q-69 0 -205 -4 q-58 -119 -70 -233q-18 -134 46.5 -200.5t195.5 -66.5z" />
<glyph unicode="&#x44b;" horiz-adv-x="1363" d="M498 721q192 0 287 -105t71 -278q-24 -171 -137.5 -261.5t-286.5 -90.5q-190 0 -284 109.5t-54 322.5q20 95 45 204t56 241t47 204h139l-80 -346h197zM1190 1067h139l-225 -1067h-139zM713 354q32 254 -250 254h-187l-43 -196q-28 -155 32.5 -233.5t183.5 -78.5 q108 0 178.5 68t85.5 186z" />
<glyph unicode="&#x44c;" horiz-adv-x="1044" d="M539 721q203 0 303.5 -105t75.5 -278q-27 -171 -151.5 -261.5t-313.5 -90.5q-198 0 -299.5 110t-59.5 322q20 95 45 204t56 241t47 204h139l-80 -346h238zM774 354q18 122 -47.5 188t-222.5 66h-228l-43 -196q-31 -154 37 -233t199 -79q125 0 206.5 68t98.5 186z" />
<glyph unicode="&#x44d;" horiz-adv-x="1177" d="M639 1085q83 0 154.5 -21.5t122.5 -60t90 -90.5t58 -112.5t25.5 -127.5t-6.5 -134q-18 -106 -71 -205.5t-131 -178t-186.5 -126t-227.5 -47.5q-150 0 -265 68t-155 188l123 51q35 -96 117.5 -144.5t189.5 -48.5q156 0 289 115t176 281h-510l25 108h501q4 167 -87.5 268 t-247.5 101q-101 0 -193 -44t-160 -139l-100 56q78 113 199 178t270 65z" />
<glyph unicode="&#x44e;" horiz-adv-x="1662" d="M1114 1085q150 0 261.5 -76.5t161.5 -203t30 -275.5q-15 -111 -68 -211.5t-132.5 -175t-186 -119t-222.5 -44.5q-151 0 -262 75.5t-159.5 201t-28.5 273.5q15 111 69.5 212.5t134 177t185 120.5t217.5 45zM1423 532q16 118 -21 218.5t-117.5 159.5t-186.5 59 q-159 0 -290.5 -129.5t-156.5 -311.5q-25 -181 70 -306.5t254 -125.5q157 0 290 130t158 306zM332 754l-78 -318l25 31l10 -305l-129 -10l78 753zM510 750l-10 -101l-160 -108zM279 500l61 41l-61 -74v33z" />
<glyph unicode="&#x44f;" horiz-adv-x="1105" d="M8 0l391 440q-99 23 -155 95t-47 184q6 167 133.5 259.5t333.5 92.5q203 0 376 -84l-211 -987h-141l88 414h-233l-365 -414h-170zM543 520h256l86 400q-11 5 -31 12t-82 19t-125 12q-137 0 -223 -66t-92 -176q-8 -89 44.5 -145t166.5 -56z" />
<glyph unicode="&#x450;" horiz-adv-x="1128" d="M737 1305l-100 -35l-121 225h143zM537 96q65 0 125 20.5t99.5 50t64.5 56.5t34 47l123 -41q-11 -20 -30.5 -44.5t-61.5 -63t-92 -68t-126 -51.5t-159 -22q-146 0 -249.5 72.5t-148.5 191t-32 262.5q14 154 95 285.5t218 212.5t299 81q92 0 170.5 -31t131 -97.5 t53.5 -157.5q2 -158 -136 -241t-423 -83q-137 0 -273 8q-9 -172 75 -279.5t243 -107.5zM674 969q-153 0 -276 -108.5t-162 -268.5q125 -8 256 -8q227 0 322.5 55.5t90.5 157.5q-3 82 -70 127t-161 45z" />
<glyph unicode="&#x451;" horiz-adv-x="1128" d="M686 1489l-41 -193h-119l41 193h119zM979 1489l-39 -193h-119l41 193h117zM537 96q65 0 125 20.5t99.5 50t64.5 56.5t34 47l123 -41q-11 -20 -30.5 -44.5t-61.5 -63t-92 -68t-126 -51.5t-159 -22q-146 0 -249.5 72.5t-148.5 191t-32 262.5q14 154 95 285.5t218 212.5 t299 81q92 0 170.5 -31t131 -97.5t53.5 -157.5q2 -158 -136 -241t-423 -83q-137 0 -273 8q-9 -172 75 -279.5t243 -107.5zM674 969q-153 0 -276 -108.5t-162 -268.5q125 -8 256 -8q227 0 322.5 55.5t90.5 157.5q-3 82 -70 127t-161 45z" />
<glyph unicode="&#x452;" horiz-adv-x="1198" d="M743 948q418 0 287 -622q-143 -660 -547 -660q-43 0 -81.5 8.5t-68 23.5t-48 27t-36.5 27.5t-20 16.5l109 71q1 -1 14 -10.5t23.5 -16t28.5 -15t40.5 -13t47.5 -4.5q134 0 238 141t157 387q60 269 13.5 390.5t-212.5 121.5q-120 0 -222 -68t-175 -192l-133 -561h-140 l273 1151h-166l18 92h168l60 252h139l-59 -252h467l-21 -92h-467l-98 -414q82 100 186.5 155.5t224.5 55.5z" />
<glyph unicode="&#x453;" horiz-adv-x="993" d="M645 1270l-86 35l156 190h145zM446 -20q-187 0 -278.5 77.5t-79.5 214.5q9 114 96 183t293 135q149 50 206.5 95.5t66.5 121.5q7 84 -43.5 129t-149.5 45q-89 0 -165 -35t-122 -98l-100 65q62 83 167.5 128.5t240.5 45.5q161 0 242 -74t73 -206q-10 -116 -95.5 -185.5 t-269.5 -129.5q-165 -54 -226.5 -100t-70.5 -124q-9 -86 52.5 -131t187.5 -45q195 0 315 135l91 -77q-157 -170 -431 -170z" />
<glyph unicode="&#x454;" horiz-adv-x="1148" d="M524 102q92 0 184 47t152 138l127 -43q-75 -122 -207.5 -192t-275.5 -70q-113 0 -203 47.5t-143 125.5t-74 178.5t-4 205.5q13 82 47.5 160.5t90 148.5t126 122.5t160.5 83.5t188 31q147 0 242 -68.5t135 -185.5l-139 -43q-70 175 -260 175q-149 0 -269 -100t-170 -263 h502l-26 -108h-498q-12 -165 77 -277.5t238 -112.5z" />
<glyph unicode="&#x455;" horiz-adv-x="958" d="M-41 139l82 94q134 -143 330 -143q138 0 224.5 61.5t86.5 161.5q0 22 -6.5 40t-14.5 31.5t-28.5 26.5t-36 21.5t-49.5 19.5t-56 17.5t-69 19.5q-69 19 -107 32t-79 32t-60.5 40.5t-32 53.5t-12.5 74q0 109 61 192.5t163.5 127.5t228.5 44q117 0 205 -39t135 -106l-86 -82 q-83 119 -267 119q-129 0 -216 -57.5t-87 -165.5q0 -64 44 -92t171 -62q72 -20 119.5 -35.5t93 -38.5t71 -48.5t41 -61.5t15.5 -82q0 -157 -128.5 -255.5t-336.5 -98.5q-127 0 -231 41t-168 118z" />
<glyph unicode="&#x456;" horiz-adv-x="436" d="M336 1495h139l-43 -205h-139zM244 1067h139l-225 -1067h-140z" />
<glyph unicode="&#x457;" horiz-adv-x="436" d="M154 1296l41 193h118l-41 -193h-118zM449 1296l40 193h117l-39 -193h-118zM244 1067h139l-225 -1067h-140z" />
<glyph unicode="&#x458;" horiz-adv-x="450" d="M348 1495h139l-45 -205h-139zM-418 -291l88 94q39 -49 131 -49q68 0 134 56t83 135l240 1122h139l-237 -1114q-30 -138 -140.5 -231t-230.5 -93q-141 0 -207 80z" />
<glyph unicode="&#x459;" horiz-adv-x="1546" d="M1049 647q183 0 275 -81.5t83 -241.5q-4 -156 -107.5 -247t-263.5 -91q-95 0 -156 19.5t-103.5 70t-65.5 127.5t-39 203l-72 532q-307 -388 -485 -938h-142q179 584 590 1067h150l59 -432q188 12 277 12zM1264 324q6 107 -50 159t-182 52q-94 0 -244 -11l15 -104 q28 -191 74 -253.5t163 -62.5q96 0 157.5 61.5t66.5 158.5z" />
<glyph unicode="&#x45a;" horiz-adv-x="1691" d="M1221 625q180 0 269 -81t66 -243q-23 -152 -142.5 -233.5t-299.5 -81.5q-92 0 -165 27.5t-121 81.5t-63.5 134.5t5.5 186.5l21 98h-508l-109 -514h-139l225 1067h139l-94 -442h508l94 442h140l-93 -442h267zM1411 305q14 101 -38.5 155t-170.5 54h-272l-23 -108 q-32 -150 32.5 -226t193.5 -76q114 0 189.5 53t88.5 148z" />
<glyph unicode="&#x45b;" horiz-adv-x="1216" d="M760 948q178 0 258 -110.5t39 -305.5l-111 -532h-139l108 518q58 303 -198 303q-134 0 -242.5 -69t-181.5 -197l-117 -555h-139l244 1151h-156l18 92h158l53 252h140l-54 -252h480l-21 -92h-479l-88 -414q170 211 428 211z" />
<glyph unicode="&#x45c;" horiz-adv-x="1011" d="M668 1270l-86 35l155 190h146zM35 0l225 1067h139l-100 -467h160q110 65 208 180t207 287h150q-237 -373 -453 -520l293 -547h-153l-260 489h-177l-102 -489h-137z" />
<glyph unicode="&#x45d;" horiz-adv-x="1165" d="M514 1495h143l78 -190l-100 -35zM76 254q0 73 22 186l135 627h138l-127 -602q-21 -91 -21 -160q0 -203 176 -203q116 0 232.5 80t189.5 213l144 672h139l-186 -870q-1 -8 -4 -22t-3 -17q0 -35 39 -35l-26 -123q-55 -4 -58 -4q-42 1 -65 22.5t-23 57.5t29 166 q-93 -124 -220.5 -193t-260.5 -69q-250 0 -250 274z" />
<glyph unicode="&#x45e;" horiz-adv-x="993" d="M627 1241q-126 0 -189 51.5t-57 130.5h80q-3 -48 37.5 -79t132.5 -31q89 0 132 28.5t60 81.5h80q-6 -79 -78 -130.5t-198 -51.5zM-74 -346q127 20 189.5 64t140.5 165l68 101l-220 1083h146l172 -938l84 137q178 290 256 453t127 348h137q-56 -200 -138 -366.5 t-284 -489.5l-166 -264q-142 -228 -245 -313.5t-248 -92.5z" />
<glyph unicode="&#x45f;" horiz-adv-x="1165" d="M76 254q0 73 22 186l135 627h138l-127 -602q-21 -91 -21 -160q0 -203 176 -203q116 0 232.5 80t189.5 213l144 672h139l-186 -870q-1 -8 -4 -22t-3 -17q0 -35 39 -35l-26 -123q-55 -4 -58 -4q-42 1 -65 22.5t-23 57.5t29 166q-93 -124 -220.5 -193t-260.5 -69 q-250 0 -250 274zM338 -340l41 201h127l-41 -201h-127z" />
<glyph unicode="&#x462;" horiz-adv-x="1374" d="M848 889q231 0 331.5 -120t67.5 -325q-31 -193 -173 -318.5t-361 -125.5h-525l238 1128h-279l21 101h278l54 254h143l-55 -254h395l-20 -101h-394l-51 -239h330zM1104 444q7 50 6.5 97t-19.5 87.5t-50.5 70.5t-88 47.5t-131.5 17.5h-332l-133 -637h359q86 0 156 26 t116.5 71.5t75.5 100.5t41 119z" />
<glyph unicode="&#x463;" horiz-adv-x="1542" d="M989 -14q-181 0 -270 111.5t-39 320.5l45 186q49 192 24.5 275.5t-124.5 83.5q-172 0 -308 -207l-159 -756h-140l226 1067h131l-35 -164q137 178 336 178q153 0 200.5 -117.5t-10.5 -326.5q88 14 193 14q174 0 265.5 -76t84.5 -235q-8 -163 -119 -258.5t-301 -95.5z M1006 104q118 0 188 63.5t76 172.5q6 94 -47.5 145t-173.5 54q-93 0 -207 -13l-27 -120q-38 -147 18.5 -224.5t172.5 -77.5z" />
<glyph unicode="&#x46a;" horiz-adv-x="2004" d="M2048 1454l-651 -709l440 -745h-156l-395 674h-209l-141 -674h-141l141 674h-209l-627 -674h-163l690 745l-414 709h1835zM739 801h549l496 545h-1358z" />
<glyph unicode="&#x46b;" horiz-adv-x="1540" d="M-66 0l535 549l-285 518h1366l-483 -518l324 -549h-150l-283 483h-127l-102 -483h-139l102 483h-127l-467 -483h-164zM573 596h392l354 389h-950z" />
<glyph unicode="&#x472;" horiz-adv-x="1509" d="M911 1464q120 0 223.5 -40t176 -111t120.5 -164t64.5 -202t1.5 -222q-20 -148 -92 -283.5t-178 -234.5t-244.5 -158t-284.5 -59q-120 0 -223.5 40.5t-176.5 111.5t-121.5 164t-65.5 201.5t-2 219.5q20 144 93 278.5t178.5 235.5t245 162t285.5 61zM889 1333 q-113 0 -218.5 -45t-185 -120.5t-137.5 -172.5t-84 -202h1096q7 150 -47.5 272.5t-165.5 195t-258 72.5zM719 119q118 0 227.5 49t190 130t136 184t75.5 212h-1100q-14 -152 38.5 -282.5t166 -211.5t266.5 -81z" />
<glyph unicode="&#x473;" horiz-adv-x="1216" d="M668 1085q150 0 261.5 -76.5t161 -203t29.5 -275.5q-15 -111 -68 -211.5t-132 -175t-185.5 -119t-222.5 -44.5q-151 0 -262 75.5t-160 201t-29 273.5t106 275.5t219 203.5t282 76zM651 969q-142 0 -265.5 -106t-166.5 -265h762q2 158 -91.5 264.5t-238.5 106.5zM528 96 q148 0 276 116.5t165 279.5h-768q-11 -168 83 -282t244 -114z" />
<glyph unicode="&#x474;" horiz-adv-x="1359" d="M463 0l-264 1454h149l213 -1259l561 1009q82 142 155.5 196t188.5 54h80l-37 -123h-53q-69 0 -115.5 -39t-109.5 -149l-641 -1143h-127z" />
<glyph unicode="&#x475;" horiz-adv-x="983" d="M272 0l-153 1067h145l113 -930q118 139 216 308t157 321q69 181 145 248t211 67l-19 -112q-69 0 -117.5 -48.5t-95.5 -166.5q-76 -183 -201.5 -387.5t-275.5 -366.5h-125z" />
<glyph unicode="&#x490;" horiz-adv-x="1034" d="M49 0l309 1454h697l61 293h127l-88 -420h-684l-278 -1327h-144z" />
<glyph unicode="&#x491;" horiz-adv-x="878" d="M-80 -338q-56 0 -109.5 18.5t-89.5 49.5l62 100q22 -21 60 -34t77 -13q88 0 132 52t69 163l227 1069h479l56 248h125l-76 -359h-467l-205 -956q-37 -161 -116.5 -249.5t-223.5 -88.5z" />
<glyph unicode="&#x492;" horiz-adv-x="1073" d="M1196 1327h-682l-123 -582h451l-15 -98h-456l-138 -647h-143l137 647h-223l14 98h230l149 709h826z" />
<glyph unicode="&#x493;" horiz-adv-x="890" d="M944 956h-498l-86 -409h347l-21 -96h-346l-96 -451h-140l95 451h-187l19 96h188l111 520h635z" />
<glyph unicode="&#x494;" horiz-adv-x="1314" d="M1155 1327h-682l-119 -557q188 102 387 102q214 0 326 -132t74 -359q-37 -219 -175.5 -330.5t-351.5 -111.5q-94 0 -170 22l45 119q79 -21 132 -21q154 0 251.5 84.5t126.5 251.5q28 174 -54.5 270.5t-237.5 96.5q-184 0 -377 -115l-137 -647h-144l307 1454h826z" />
<glyph unicode="&#x495;" horiz-adv-x="1044" d="M580 694q199 0 280.5 -125.5t42.5 -359.5q-93 -582 -526 -582q-135 0 -223 82l106 74q57 -39 125 -39q148 0 247 121t132 330q31 191 -28 287t-216 96q-132 0 -239 -80l-107 -498h-139l225 1067h637l-25 -111h-495l-74 -344q124 82 277 82z" />
<glyph unicode="&#x496;" horiz-adv-x="2074" d="M1405 756l350 -629h193l-86 -403h-125l57 276h-121l2 10l-370 670h-242l-145 -680h-142l144 680h-203l-629 -680h-164l692 750l-403 704h145l371 -649h217l137 649h142l-135 -649h202l621 649h168z" />
<glyph unicode="&#x497;" horiz-adv-x="1632" d="M1120 547l226 -424h153l-78 -371h-129l54 248h-86l-259 498h-178l-104 -498h-139l104 498h-111q-133 -62 -244 -183t-233 -315h-151q126 199 245.5 336t249.5 211l-268 520h141l240 -473h154l100 473h137l-100 -473h162q110 65 203 175.5t212 297.5h150 q-242 -376 -451 -520z" />
<glyph unicode="&#x498;" horiz-adv-x="1132" d="M1040 1083q-18 -107 -87 -195t-173 -130q121 -36 177 -137.5t36 -239.5q-25 -160 -138.5 -262.5t-291.5 -128.5l-53 -266h-125l51 258q-143 3 -249.5 67t-153.5 176l121 68q36 -94 119.5 -142.5t199.5 -48.5q157 0 257 76.5t120 214.5q21 135 -50 218t-216 83h-119 l20 115h117q112 0 196 75.5t101 188.5q19 125 -42 200t-189 75q-103 0 -194 -47.5t-146 -133.5l-97 70q81 111 195.5 173.5t251.5 62.5q188 0 288 -107.5t74 -282.5z" />
<glyph unicode="&#x499;" horiz-adv-x="915" d="M864 784q-10 -74 -57 -132.5t-117 -86.5q89 -29 128 -100t22 -168q-23 -137 -139.5 -219t-286.5 -90l-49 -236h-127l51 242q-221 35 -281 209l119 51q26 -73 95.5 -112.5t172.5 -39.5q125 0 210 57.5t100 153.5q15 87 -35.5 141.5t-153.5 55.5h-141l20 96h144 q66 0 122 50t68 122q15 87 -34.5 138t-157.5 51q-175 0 -269 -142l-100 58q65 96 165.5 148t225.5 52q157 0 241.5 -80.5t63.5 -218.5z" />
<glyph unicode="&#x49a;" horiz-adv-x="1374" d="M686 756l358 -629h201l-86 -403h-125l60 276h-131l-381 680h-246l-143 -680h-144l307 1454h144l-138 -649h211l627 649h170z" />
<glyph unicode="&#x49b;" horiz-adv-x="1089" d="M571 547l228 -424h157l-77 -371h-129l55 248h-94l-260 489h-177l-102 -489h-137l225 1067h139l-100 -467h160q110 65 208 180t207 287h150q-237 -373 -453 -520z" />
<glyph unicode="&#x49c;" horiz-adv-x="1296" d="M1382 1454l-682 -698l428 -756h-165l-381 676h-37l-56 -240h-98l53 240h-110l-144 -676h-143l307 1454h144l-138 -647h115l57 254h101l-58 -254h9l618 647h180z" />
<glyph unicode="&#x49d;" horiz-adv-x="1064" d="M1075 1067q-237 -373 -450 -520l293 -547h-156l-264 498h-2l-50 -226h-92l49 226h-124l-107 -498h-137l225 1067h139l-102 -473h127l45 215h92l-43 -203q109 66 206.5 179.5t203.5 281.5h147z" />
<glyph unicode="&#x4a0;" horiz-adv-x="1462" d="M1548 1454l-684 -698l430 -756h-153l-381 680h-246l-143 -680h-144l281 1327h-324l27 127h467l-137 -649h211l626 649h170z" />
<glyph unicode="&#x4a1;" horiz-adv-x="1183" d="M1194 1067q-237 -373 -453 -520l293 -547h-153l-260 489h-177l-102 -489h-137l203 956h-283l22 111h422l-100 -467h160q110 65 208 180t207 287h150z" />
<glyph unicode="&#x4a2;" horiz-adv-x="1556" d="M1452 1454l-283 -1327h201l-84 -403h-125l58 276h-220l146 680h-809l-146 -680h-141l309 1454h142l-138 -647h809l138 647h143z" />
<glyph unicode="&#x4a3;" horiz-adv-x="1277" d="M1147 1067l-199 -944h164l-78 -371h-129l53 248h-176l25 123h2l78 369h-611l-102 -492h-139l225 1067h139l-100 -465h612l97 465h139z" />
<glyph unicode="&#x4a4;" horiz-adv-x="1982" d="M2132 1454l-27 -127h-680l-282 -1327h-144l146 680h-809l-146 -680h-141l309 1454h142l-138 -647h809l138 647h823z" />
<glyph unicode="&#x4a5;" horiz-adv-x="1568" d="M1645 1067l-27 -125h-496l-2 2l-198 -944h-140l105 492h-611l-102 -492h-139l225 1067h139l-100 -465h612l97 465h637z" />
<glyph unicode="&#x4aa;" horiz-adv-x="1454" d="M723 117q138 0 276 68.5t224 201.5l110 -61q-84 -144 -243 -232t-330 -104l-55 -266h-125l55 266q-134 13 -243 83t-175.5 173t-95 231.5t-10.5 259.5q15 106 59.5 210t118.5 196.5t167 164t213 113t249 41.5q192 0 321 -86t180 -231l-123 -70q-33 92 -100 152t-142.5 83 t-164.5 23q-129 0 -243 -53t-193.5 -139.5t-131 -193t-67.5 -218.5q-17 -119 10.5 -231t88.5 -196t158 -134.5t212 -50.5z" />
<glyph unicode="&#x4ab;" horiz-adv-x="1079" d="M479 102q97 0 195 54.5t135 128.5l129 -41q-59 -103 -171 -174t-241 -86l-49 -232h-127l51 232q-162 23 -255 147.5t-93 300.5q0 170 85 320.5t232.5 241.5t319.5 91q145 0 239 -67.5t124 -186.5l-144 -43q-26 85 -88 130t-151 45t-175.5 -41t-152 -109.5t-105.5 -164 t-40 -197.5q0 -151 78.5 -250t203.5 -99z" />
<glyph unicode="&#x4ae;" horiz-adv-x="1243" d="M526 545l-340 909h158l281 -782l614 782h156l-729 -913l-115 -541h-141z" />
<glyph unicode="&#x4af;" horiz-adv-x="983" d="M180 -436l94 436l-155 1067h141l121 -924q306 382 485 924h129q-173 -581 -585 -1065l-91 -438h-139z" />
<glyph unicode="&#x4b0;" horiz-adv-x="1243" d="M666 541l-4 -19h231l-21 -100h-231l-90 -422h-141l90 422h-236l23 100h235l4 23l-340 909h158l281 -782l614 782h156z" />
<glyph unicode="&#x4b1;" horiz-adv-x="983" d="M995 1067q-169 -571 -577 -1055h223l-20 -94h-228l-74 -354h-139l76 354h-227l18 94h225l-153 1055h141l121 -924q306 382 485 924h129z" />
<glyph unicode="&#x4b6;" horiz-adv-x="1425" d="M1362 1454l-281 -1327h158l-84 -403h-125l57 276h-174l131 621q-206 -74 -401 -74q-514 0 -414 467l99 440h141l-100 -461q-35 -170 37.5 -246.5t269.5 -76.5q105 0 215.5 24.5t181.5 63.5l148 696h141z" />
<glyph unicode="&#x4b7;" horiz-adv-x="1150" d="M1016 1067l-201 -944h170l-78 -371h-129l53 248h-186l98 446q-136 -61 -301 -61q-180 0 -255.5 92t-36.5 275l69 315h143l-69 -297q-29 -143 22.5 -209.5t180.5 -66.5q72 0 147 17t123 44l108 512h142z" />
<glyph unicode="&#x4b8;" horiz-adv-x="1363" d="M1221 1454h141l-307 -1454h-142l131 621q-172 -63 -342 -72l-57 -248h-98l55 246q-468 18 -373 467l99 440h141l-100 -461q-34 -160 29 -236.5t233 -84.5l57 254h100l-57 -254q95 6 188 29.5t154 56.5z" />
<glyph unicode="&#x4b9;" horiz-adv-x="1064" d="M889 1067h141l-225 -1067h-141l94 446q-105 -43 -215 -55l-41 -196h-92l41 190h-13q-178 0 -252.5 92t-35.5 275l71 315h141l-69 -297q-27 -139 18 -205t162 -71l51 237h92l-49 -233q137 17 213 57z" />
<glyph unicode="&#x4ba;" horiz-adv-x="1363" d="M225 0h-141l307 1454h141l-131 -620q203 73 402 73q514 0 414 -467l-99 -440h-141l100 461q35 170 -37.5 246.5t-269.5 76.5q-105 0 -215.5 -24.5t-181.5 -63.5z" />
<glyph unicode="&#x4bb;" horiz-adv-x="1144" d="M336 1495h139l-143 -670q86 120 208 190t246 70q244 0 244 -272q0 -92 -22 -188l-131 -625h-140l127 596q19 112 19 156q0 206 -174 206q-110 0 -231 -88t-183 -217l-137 -653h-140z" />
<glyph unicode="&#x4c0;" horiz-adv-x="501" d="M358 1452h142l-310 -1452h-141z" />
<glyph unicode="&#x4c1;" horiz-adv-x="1994" d="M1180 1663q-149 0 -223 59.5t-60 153.5h115q-9 -51 36 -86t132 -35q108 0 170 32t71 89h111q-14 -94 -107.5 -153.5t-244.5 -59.5zM-76 0l692 750l-403 704h145l371 -649h217l137 649h142l-135 -649h202l621 649h168l-676 -698l422 -756h-146l-376 680h-242l-145 -680 h-142l144 680h-203l-629 -680h-164z" />
<glyph unicode="&#x4c2;" horiz-adv-x="1568" d="M883 1241q-126 0 -189 51.5t-57 130.5h80q-3 -48 37.5 -79t132.5 -31q89 0 132 28.5t60 81.5h80q-6 -79 -78 -130.5t-198 -51.5zM-55 0q126 199 245.5 336t249.5 211l-268 520h141l240 -473h154l100 473h137l-100 -473h162q110 65 203 175.5t212 297.5h150 q-242 -376 -451 -520l291 -547h-151l-259 498h-178l-104 -498h-139l104 498h-111q-133 -62 -244 -183t-233 -315h-151z" />
<glyph unicode="&#x4cb;" horiz-adv-x="1363" d="M1221 1454h141l-307 -1454h-213l-58 -276h-125l84 403h197l104 494q-206 -74 -401 -74q-514 0 -414 467l99 440h141l-100 -461q-35 -170 37.5 -246.5t269.5 -76.5q105 0 215.5 24.5t181.5 63.5z" />
<glyph unicode="&#x4cc;" horiz-adv-x="1132" d="M1040 1067l-209 -979h11l-19 -88h-151l-58 -274h-129l76 362h127l80 358q-136 -61 -301 -61q-180 0 -256 92t-37 275l70 315h143l-70 -297q-29 -143 22.5 -209.5t180.5 -66.5q73 0 148 17t123 44l108 512h141z" />
<glyph unicode="&#x4cf;" horiz-adv-x="436" d="M244 1067h139l-225 -1067h-140z" />
<glyph unicode="&#x4d0;" horiz-adv-x="1333" d="M883 1663q-149 0 -223 59.5t-60 153.5h115q-9 -51 36 -86t132 -35q108 0 170 32t71 89h111q-14 -94 -107.5 -153.5t-244.5 -59.5zM791 1454h122l263 -1454h-152l-80 455h-612l-271 -455h-153zM936 567l-119 719l-432 -719h551z" />
<glyph unicode="&#x4d1;" horiz-adv-x="1224" d="M766 1241q-126 0 -189 51.5t-57 130.5h80q-3 -48 37.5 -79t132.5 -31q89 0 132.5 28.5t60.5 81.5h79q-6 -79 -78 -130.5t-198 -51.5zM51 426q0 166 83 319t220.5 246.5t288.5 93.5q123 0 208.5 -67.5t123.5 -173.5l49 223h139l-188 -885q-4 -16 -4 -26q0 -33 39 -33 l-27 -123q-10 -1 -28.5 -3.5t-26.5 -2.5q-45 3 -69.5 25t-24.5 57q0 18 22 131q-82 -104 -197.5 -165.5t-228.5 -61.5q-115 0 -203 62t-132 162.5t-44 221.5zM874 367l68 329q-14 110 -96.5 188.5t-190.5 78.5q-118 0 -225.5 -77.5t-170 -197t-62.5 -242.5q0 -144 81 -244 t209 -100q105 0 227 80t160 185z" />
<glyph unicode="&#x4d2;" horiz-adv-x="1333" d="M698 1683l41 193h119l-41 -193h-119zM993 1683l41 193h117l-39 -193h-119zM791 1454h122l263 -1454h-152l-80 455h-612l-271 -455h-153zM936 567l-119 719l-432 -719h551z" />
<glyph unicode="&#x4d3;" horiz-adv-x="1224" d="M598 1296l41 193h119l-41 -193h-119zM893 1296l41 193h117l-39 -193h-119zM51 426q0 166 83 319t220.5 246.5t288.5 93.5q123 0 208.5 -67.5t123.5 -173.5l49 223h139l-188 -885q-4 -16 -4 -26q0 -33 39 -33l-27 -123q-10 -1 -28.5 -3.5t-26.5 -2.5q-45 3 -69.5 25 t-24.5 57q0 18 22 131q-82 -104 -197.5 -165.5t-228.5 -61.5q-115 0 -203 62t-132 162.5t-44 221.5zM874 367l68 329q-14 110 -96.5 188.5t-190.5 78.5q-118 0 -225.5 -77.5t-170 -197t-62.5 -242.5q0 -144 81 -244t209 -100q105 0 227 80t160 185z" />
<glyph unicode="&#x4d4;" horiz-adv-x="1890" d="M1030 1454h940l-28 -127h-760l-109 -522h653l-28 -127h-654l-116 -551h776l-27 -127h-917l96 455h-500l-366 -455h-156zM874 582l150 700l-575 -700h425z" />
<glyph unicode="&#x4d5;" horiz-adv-x="1816" d="M-8 252q0 165 144 273t356 108q134 0 249 -41q8 28 34 88.5t32 97.5q0 90 -60.5 146.5t-166.5 56.5q-150 0 -353 -127l-26 92q230 139 415 139q121 0 200 -56t102 -157q88 99 200.5 156t233.5 57q184 0 294.5 -124.5t110.5 -313.5q0 -87 -31 -164h-874q-4 -46 -4 -69 q0 -143 84 -235.5t217 -92.5q101 0 198.5 53.5t149.5 139.5l115 -33q-73 -118 -208 -192t-282 -74q-132 0 -228.5 63.5t-141.5 171.5q-58 -80 -149 -135.5t-173.5 -77.5t-155.5 -22q-131 0 -206.5 77t-75.5 195zM1616 578q6 40 6 81q0 140 -79.5 229t-215.5 89 q-153 0 -282 -112.5t-175 -286.5h746zM721 307q-8 33 -8 84q0 58 10 113q-103 41 -227 41q-159 0 -263 -74t-104 -192q0 -82 52.5 -137.5t148.5 -55.5q73 0 155.5 29.5t149 81.5t86.5 110z" />
<glyph unicode="&#x4d6;" horiz-adv-x="1191" d="M817 1663q-149 0 -222.5 59.5t-59.5 153.5h114q-9 -51 36 -86t132 -35q108 0 170.5 32t71.5 89h110q-14 -94 -107.5 -153.5t-244.5 -59.5zM358 1454h912l-27 -127h-770l-113 -524h672l-24 -121h-672l-119 -555h789l-27 -127h-930z" />
<glyph unicode="&#x4d7;" horiz-adv-x="1128" d="M694 1241q-126 0 -188.5 51.5t-56.5 130.5h79q-3 -48 37.5 -79t132.5 -31q89 0 132.5 28.5t60.5 81.5h80q-6 -79 -78 -130.5t-199 -51.5zM537 96q65 0 125 20.5t99.5 50t64.5 56.5t34 47l123 -41q-11 -20 -30.5 -44.5t-61.5 -63t-92 -68t-126 -51.5t-159 -22 q-146 0 -249.5 72.5t-148.5 191t-32 262.5q14 154 95 285.5t218 212.5t299 81q92 0 170.5 -31t131 -97.5t53.5 -157.5q2 -158 -136 -241t-423 -83q-137 0 -273 8q-9 -172 75 -279.5t243 -107.5zM674 969q-153 0 -276 -108.5t-162 -268.5q125 -8 256 -8q227 0 322.5 55.5 t90.5 157.5q-3 82 -70 127t-161 45z" />
<glyph unicode="&#x4d8;" horiz-adv-x="1445" d="M57 565q0 105 39 219h1139l6 93q0 199 -108.5 326.5t-280.5 127.5q-139 0 -273.5 -79.5t-201.5 -204.5l-123 61q103 157 281 256.5t356 99.5q149 0 265.5 -79.5t178.5 -214.5t62 -302q0 -140 -45 -274t-124 -242t-181.5 -191t-224 -128t-244.5 -45q-115 0 -212.5 44 t-165 121t-105.5 183.5t-38 228.5zM1210 659h-999q-12 -59 -12 -118q0 -116 44.5 -210.5t138.5 -154t222 -59.5q202 0 374.5 155t231.5 387z" />
<glyph unicode="&#x4d9;" horiz-adv-x="1187" d="M471 -20q-186 0 -295.5 118.5t-109.5 302.5q0 116 28 181h860q7 44 7 71q0 143 -81 233.5t-208 90.5q-100 0 -198 -53.5t-150 -137.5l-113 33q71 117 206 191.5t283 74.5q183 0 293.5 -128.5t110.5 -321.5q0 -170 -86.5 -321.5t-233.5 -242.5t-313 -91zM496 86 q146 0 271 113.5t171 285.5h-731q-6 -41 -6 -75q0 -145 81.5 -234.5t213.5 -89.5z" />
<glyph unicode="&#x4dc;" horiz-adv-x="1994" d="M995 1683l41 193h119l-41 -193h-119zM1290 1683l41 193h117l-39 -193h-119zM-76 0l692 750l-403 704h145l371 -649h217l137 649h142l-135 -649h202l621 649h168l-676 -698l422 -756h-146l-376 680h-242l-145 -680h-142l144 680h-203l-629 -680h-164z" />
<glyph unicode="&#x4dd;" horiz-adv-x="1568" d="M715 1296l41 193h118l-40 -193h-119zM1010 1296l41 193h116l-39 -193h-118zM-55 0q126 199 245.5 336t249.5 211l-268 520h141l240 -473h154l100 473h137l-100 -473h162q110 65 203 175.5t212 297.5h150q-242 -376 -451 -520l291 -547h-151l-259 498h-178l-104 -498h-139 l104 498h-111q-133 -62 -244 -183t-233 -315h-151z" />
<glyph unicode="&#x4de;" horiz-adv-x="1132" d="M549 1683l41 193h119l-41 -193h-119zM844 1683l41 193h116l-38 -193h-119zM451 -18q-149 0 -258.5 63.5t-159.5 179.5l121 68q36 -94 119.5 -142.5t199.5 -48.5q157 0 257 76.5t120 214.5q21 135 -50 218t-216 83h-119l20 115h117q112 0 196 75.5t101 188.5 q19 125 -42 200t-189 75q-103 0 -194 -47.5t-146 -133.5l-97 70q81 111 195.5 173.5t251.5 62.5q188 0 288 -107.5t74 -282.5q-18 -107 -87 -195t-173 -130q121 -36 177 -137.5t36 -239.5q-29 -186 -174.5 -292.5t-367.5 -106.5z" />
<glyph unicode="&#x4df;" horiz-adv-x="997" d="M408 1296l41 193h118l-41 -193h-118zM702 1296l41 193h117l-39 -193h-119zM381 -12q-146 0 -241.5 56t-131.5 159l119 51q26 -73 95.5 -112.5t172.5 -39.5q125 0 210 57.5t100 153.5q15 87 -35.5 141.5t-153.5 55.5h-141l20 96h144q66 0 122 50t68 122q15 87 -34.5 138 t-157.5 51q-175 0 -269 -142l-100 58q65 96 165.5 148t225.5 52q157 0 241.5 -80.5t63.5 -218.5q-10 -74 -57 -132.5t-117 -86.5q89 -29 128 -100t22 -168q-24 -144 -150 -226.5t-309 -82.5z" />
<glyph unicode="&#x4e2;" horiz-adv-x="1484" d="M690 1743l21 96h563l-21 -96h-563zM49 0l307 1454h144l-267 -1253l1119 1253h133l-309 -1454h-142l264 1237l-1105 -1237h-144z" />
<glyph unicode="&#x4e3;" horiz-adv-x="1165" d="M461 1356l20 96h563l-20 -96h-563zM76 254q0 73 22 186l135 627h138l-127 -602q-21 -91 -21 -160q0 -203 176 -203q116 0 232.5 80t189.5 213l144 672h139l-186 -870q-1 -8 -4 -22t-3 -17q0 -35 39 -35l-26 -123q-55 -4 -58 -4q-42 1 -65 22.5t-23 57.5t29 166 q-93 -124 -220.5 -193t-260.5 -69q-250 0 -250 274z" />
<glyph unicode="&#x4e4;" horiz-adv-x="1484" d="M754 1683l41 193h118l-41 -193h-118zM1049 1683l41 193h116l-39 -193h-118zM49 0l307 1454h144l-267 -1253l1119 1253h133l-309 -1454h-142l264 1237l-1105 -1237h-144z" />
<glyph unicode="&#x4e5;" horiz-adv-x="1165" d="M524 1296l41 193h119l-41 -193h-119zM819 1296l41 193h117l-39 -193h-119zM76 254q0 73 22 186l135 627h138l-127 -602q-21 -91 -21 -160q0 -203 176 -203q116 0 232.5 80t189.5 213l144 672h139l-186 -870q-1 -8 -4 -22t-3 -17q0 -35 39 -35l-26 -123q-55 -4 -58 -4 q-42 1 -65 22.5t-23 57.5t29 166q-93 -124 -220.5 -193t-260.5 -69q-250 0 -250 274z" />
<glyph unicode="&#x4e6;" horiz-adv-x="1560" d="M791 1683l40 193h119l-41 -193h-118zM1085 1683l41 193h117l-39 -193h-119zM698 -10q-120 0 -223.5 40.5t-176.5 111.5t-121.5 164t-65.5 201.5t-2 219.5q20 144 93 278.5t178.5 235.5t245 162t285.5 61q120 0 223.5 -40t176 -111t120.5 -164t64.5 -202t1.5 -222 q-20 -148 -92 -283.5t-178 -234.5t-244.5 -158t-284.5 -59zM719 119q122 0 235 53t194.5 139t136 194.5t69.5 221.5q23 165 -26.5 303.5t-165 220.5t-273.5 82q-122 0 -234.5 -52.5t-194 -138t-136.5 -194t-72 -221.5q-16 -118 9.5 -228t84.5 -194t156 -135t217 -51z" />
<glyph unicode="&#x4e7;" horiz-adv-x="1241" d="M571 1294l41 193h119l-41 -193h-119zM866 1294l41 193h117l-39 -193h-119zM537 -20q-151 0 -262 75.5t-160 201t-29 273.5q15 111 69.5 212.5t134 177t185 120.5t217.5 45q150 0 261.5 -76.5t161.5 -203t30 -275.5q-15 -111 -68 -211.5t-132 -175t-185.5 -119 t-222.5 -44.5zM553 96q157 0 290 130t158 306q16 118 -21 218.5t-117.5 159.5t-186.5 59q-159 0 -290.5 -129.5t-156.5 -311.5q-25 -181 70 -306.5t254 -125.5z" />
<glyph unicode="&#x4e8;" horiz-adv-x="1509" d="M911 1464q120 0 223.5 -40t176 -111t120.5 -164t64.5 -202t1.5 -222q-20 -148 -92 -283.5t-178 -234.5t-244.5 -158t-284.5 -59q-120 0 -223.5 40.5t-176.5 111.5t-121.5 164t-65.5 201.5t-2 219.5q20 144 93 278.5t178.5 235.5t245 162t285.5 61zM889 1333 q-113 0 -218.5 -45t-185 -120.5t-137.5 -172.5t-84 -202h1096q7 150 -47.5 272.5t-165.5 195t-258 72.5zM719 119q118 0 227.5 49t190 130t136 184t75.5 212h-1100q-14 -152 38.5 -282.5t166 -211.5t266.5 -81z" />
<glyph unicode="&#x4e9;" horiz-adv-x="1216" d="M668 1085q150 0 261.5 -76.5t161 -203t29.5 -275.5q-15 -111 -68 -211.5t-132 -175t-185.5 -119t-222.5 -44.5q-151 0 -262 75.5t-160 201t-29 273.5t106 275.5t219 203.5t282 76zM651 969q-142 0 -265.5 -106t-166.5 -265h762q2 158 -91.5 264.5t-238.5 106.5zM528 96 q148 0 276 116.5t165 279.5h-768q-11 -168 83 -282t244 -114z" />
<glyph unicode="&#x4ee;" horiz-adv-x="1247" d="M584 1743l20 96h563l-20 -96h-563zM201 0l26 123h88q170 0 263 178l18 33l-416 1120h137l353 -979l522 979h141l-645 -1180q-78 -144 -168.5 -209t-234.5 -65h-84z" />
<glyph unicode="&#x4ef;" horiz-adv-x="993" d="M395 1356l21 96h563l-21 -96h-563zM-74 -346q127 20 189.5 64t140.5 165l68 101l-220 1083h146l172 -938l84 137q178 290 256 453t127 348h137q-56 -200 -138 -366.5t-284 -489.5l-166 -264q-142 -228 -245 -313.5t-248 -92.5z" />
<glyph unicode="&#x4f0;" horiz-adv-x="1247" d="M647 1683l41 193h119l-41 -193h-119zM942 1683l41 193h117l-39 -193h-119zM201 0l26 123h88q170 0 263 178l18 33l-416 1120h137l353 -979l522 979h141l-645 -1180q-78 -144 -168.5 -209t-234.5 -65h-84z" />
<glyph unicode="&#x4f1;" horiz-adv-x="993" d="M459 1296l41 193h118l-40 -193h-119zM754 1296l41 193h116l-39 -193h-118zM-74 -346q127 20 189.5 64t140.5 165l68 101l-220 1083h146l172 -938l84 137q178 290 256 453t127 348h137q-56 -200 -138 -366.5t-284 -489.5l-166 -264q-142 -228 -245 -313.5t-248 -92.5z" />
<glyph unicode="&#x4f2;" horiz-adv-x="1247" d="M731 1657l-67 35l149 190h129zM979 1657l-68 35l150 190h129zM201 0l26 123h88q170 0 263 178l18 33l-416 1120h137l353 -979l522 979h141l-645 -1180q-78 -144 -168.5 -209t-234.5 -65h-84z" />
<glyph unicode="&#x4f3;" horiz-adv-x="993" d="M543 1270l-68 35l150 190h129zM791 1270l-68 35l149 190h129zM-74 -346q127 20 189.5 64t140.5 165l68 101l-220 1083h146l172 -938l84 137q178 290 256 453t127 348h137q-56 -200 -138 -366.5t-284 -489.5l-166 -264q-142 -228 -245 -313.5t-248 -92.5z" />
<glyph unicode="&#x4f4;" horiz-adv-x="1363" d="M700 1683l41 193h119l-41 -193h-119zM995 1683l41 193h117l-39 -193h-119zM1221 1454h141l-307 -1454h-142l131 621q-206 -74 -401 -74q-514 0 -414 467l99 440h141l-100 -461q-35 -170 37.5 -246.5t269.5 -76.5q105 0 215.5 24.5t181.5 63.5z" />
<glyph unicode="&#x4f5;" horiz-adv-x="1048" d="M487 1296l41 193h119l-41 -193h-119zM782 1296l41 193h117l-39 -193h-119zM645 0l98 446q-136 -61 -301 -61q-180 0 -255.5 92t-36.5 275l69 315h143l-69 -297q-29 -143 22.5 -209.5t180.5 -66.5q72 0 147 17t123 44l108 512h142l-228 -1067h-143z" />
<glyph unicode="&#x4f6;" horiz-adv-x="1028" d="M350 1454h826l-27 -127h-682l-254 -1200h143l-84 -403h-125l58 276h-162z" />
<glyph unicode="&#x4f7;" horiz-adv-x="993" d="M528 492q-165 -54 -226.5 -100t-70.5 -124q-9 -86 52.5 -131t187.5 -45q195 0 315 135l91 -77l-9 -9l-67 -319h-127l47 215q-120 -57 -275 -57q-187 0 -278.5 77.5t-79.5 214.5q9 114 96 183t293 135q149 50 206.5 95.5t66.5 121.5q7 84 -43.5 129t-149.5 45 q-89 0 -165 -35t-122 -98l-100 65q62 83 167.5 128.5t240.5 45.5q161 0 242 -74t73 -206q-10 -116 -95.5 -185.5t-269.5 -129.5z" />
<glyph unicode="&#x4f8;" horiz-adv-x="1646" d="M823 1683l41 193h119l-41 -193h-119zM1118 1683l41 193h117l-39 -193h-119zM49 0l307 1454h144l-121 -565h270q230 0 331.5 -120.5t68.5 -324.5q-32 -193 -174.5 -318.5t-362.5 -125.5h-463zM1503 1452h142l-310 -1452h-141zM219 127h295q167 0 266 91t123 226 q15 62 5.5 120t-37.5 102.5t-92 71t-158 26.5h-269z" />
<glyph unicode="&#x4f9;" horiz-adv-x="1363" d="M801 1489l-41 -193h-119l41 193h119zM1094 1489l-39 -193h-119l41 193h117zM498 721q192 0 287 -105t71 -278q-24 -171 -137.5 -261.5t-286.5 -90.5q-190 0 -284 109.5t-54 322.5q20 95 45 204t56 241t47 204h139l-80 -346h197zM1190 1067h139l-225 -1067h-139zM713 354 q32 254 -250 254h-187l-43 -196q-28 -155 32.5 -233.5t183.5 -78.5q108 0 178.5 68t85.5 186z" />
<glyph unicode="&#x51a;" horiz-adv-x="1476" d="M1430 862q0 -188 -85.5 -364.5t-230.5 -304.5l117 -193h-144l-71 119q-190 -129 -406 -129q-123 0 -223 49.5t-163 133.5t-96.5 190.5t-33.5 224.5q0 166 69 327t181.5 281t264 194t309.5 74q123 0 222.5 -50.5t161.5 -135.5t95 -192t33 -224zM639 119q166 0 315 102 l-135 225h142l88 -147q110 108 173.5 255.5t63.5 297.5q0 97 -25.5 183.5t-73.5 154t-125 106.5t-173 39q-131 0 -253 -65t-208 -169t-137 -236.5t-51 -264.5q0 -98 25.5 -183.5t74 -152.5t125.5 -106t174 -39z" />
<glyph unicode="&#x51b;" horiz-adv-x="1212" d="M49 418q0 171 89 326.5t231.5 248t294.5 92.5q115 0 202 -63t125 -164l43 209h125l-278 -1317q-4 -20 -4 -22q0 -19 9 -27t29 -10l-24 -121q-35 -6 -72 -2q-43 3 -68.5 29t-25.5 67q0 7 4 27l113 530q-200 -241 -436 -241q-165 0 -261 126.5t-96 311.5zM870 354l72 336 q-6 112 -84.5 192.5t-189.5 80.5q-120 0 -231 -77t-176.5 -198.5t-65.5 -247.5q0 -144 76 -241t204 -97q110 0 212.5 70t182.5 182z" />
<glyph unicode="&#x51c;" horiz-adv-x="2041" d="M195 1454h153l221 -1288l400 657l-109 621h135l82 -516l305 516h136l-373 -621l121 -657l766 1288h157l-895 -1454h-123l-135 719l-442 -719h-125z" />
<glyph unicode="&#x51d;" horiz-adv-x="1546" d="M109 1067h143l172 -938q153 181 281 406l-123 532h143l78 -354q86 177 137 354h133q-75 -259 -229 -530l88 -408q177 226 304.5 467.5t190.5 470.5h136q-157 -538 -588 -1067h-150l-82 377q-133 -211 -276 -377h-150z" />
<glyph unicode="&#x524;" horiz-adv-x="1560" d="M1452 1454l-281 -1327h201l-84 -403h-125l58 276h-217l280 1327h-813l-278 -1327h-144l307 1454h1096z" />
<glyph unicode="&#x525;" horiz-adv-x="1263" d="M1116 1067l-201 -944h185l-78 -371h-129l53 248h-196l202 956h-577l-201 -956h-139l225 1067h856z" />
<glyph unicode="&#x1e08;" horiz-adv-x="1343" d="M1155 1882l-215 -225l-86 35l156 190h145zM893 1333q-121 0 -227.5 -43.5t-183 -117t-132 -167.5t-83 -197t-27.5 -204q0 -134 46.5 -243.5t140.5 -176.5t220 -67q125 0 252.5 68.5t216.5 201.5l107 -61q-101 -161 -263.5 -248t-328.5 -90q57 -67 57 -142q0 -99 -64 -157 t-169 -58q-108 0 -193 58l57 80q72 -45 136 -45q68 0 108.5 35.5t40.5 95.5q0 73 -84 141q-134 26 -232.5 117.5t-145 215.5t-46.5 263q0 122 37.5 247t110 236t169.5 198t226.5 138t271.5 51q190 0 306 -86.5t153 -230.5l-121 -66q-73 254 -356 254z" />
<glyph unicode="&#x1e09;" horiz-adv-x="1077" d="M975 1495l-215 -225l-86 35l155 190h146zM477 102q97 0 195 54.5t135 128.5l129 -41q-55 -97 -158 -165.5t-223 -90.5q57 -67 57 -142q0 -99 -64 -157t-169 -58q-108 0 -193 58l58 80q37 -23 66.5 -34t68.5 -11q68 0 108.5 35.5t40.5 95.5q0 63 -65 125h-2 q-188 0 -299 129t-111 323q0 170 85 320.5t232.5 241.5t319.5 91q145 0 239 -67.5t124 -186.5l-144 -43q-26 85 -88 130t-151 45t-175.5 -41t-152 -109.5t-105.5 -164t-40 -197.5q0 -151 78.5 -250t203.5 -99z" />
<glyph unicode="&#x1e0c;" horiz-adv-x="1413" d="M358 1454h471q132 0 235 -43t167 -119t96.5 -176t32.5 -219q0 -253 -109 -458.5t-301.5 -322t-429.5 -116.5h-471zM547 127q150 0 277 61.5t211 165t130.5 238t46.5 282.5q0 205 -106.5 329t-304.5 124h-328l-256 -1200h330zM365 -340l41 201h126l-40 -201h-127z" />
<glyph unicode="&#x1e0d;" horiz-adv-x="1224" d="M51 426q0 166 83 319t221 246.5t290 93.5q120 0 206.5 -67.5t123.5 -173.5l139 651h139l-278 -1313q-4 -20 -4 -24q0 -35 39 -35l-27 -123q-54 -4 -57 -4q-43 1 -67.5 24t-24.5 58q0 26 22 129q-81 -104 -197 -165.5t-227 -61.5q-116 0 -204 62t-132.5 162.5t-44.5 221.5 zM874 367l68 329q-13 110 -98.5 188.5t-188.5 78.5q-120 0 -227 -77t-169 -196t-62 -241q0 -146 81 -246.5t211 -100.5q66 0 145 35.5t147 97.5t93 132zM367 -340l41 201h127l-41 -201h-127z" />
<glyph unicode="&#x1e0e;" horiz-adv-x="1413" d="M358 1454h471q132 0 235 -43t167 -119t96.5 -176t32.5 -219q0 -253 -109 -458.5t-301.5 -322t-429.5 -116.5h-471zM547 127q150 0 277 61.5t211 165t130.5 238t46.5 282.5q0 205 -106.5 329t-304.5 124h-328l-256 -1200h330zM168 -264l22 96h537l-22 -96h-537z" />
<glyph unicode="&#x1e0f;" horiz-adv-x="1224" d="M51 426q0 166 83 319t221 246.5t290 93.5q120 0 206.5 -67.5t123.5 -173.5l139 651h139l-278 -1313q-4 -20 -4 -24q0 -35 39 -35l-27 -123q-54 -4 -57 -4q-43 1 -67.5 24t-24.5 58q0 26 22 129q-81 -104 -197 -165.5t-227 -61.5q-116 0 -204 62t-132.5 162.5t-44.5 221.5 zM874 367l68 329q-13 110 -98.5 188.5t-188.5 78.5q-120 0 -227 -77t-169 -196t-62 -241q0 -146 81 -246.5t211 -100.5q66 0 145 35.5t147 97.5t93 132zM170 -264l23 96h536l-22 -96h-537z" />
<glyph unicode="&#x1e14;" horiz-adv-x="1191" d="M705 2267h143l78 -190l-101 -35zM569 1743l21 96h563l-20 -96h-564zM358 1454h912l-27 -127h-770l-113 -524h672l-24 -121h-672l-119 -555h789l-27 -127h-930z" />
<glyph unicode="&#x1e15;" horiz-adv-x="1093" d="M825 1690l-100 -35l-121 225h144zM1053 1452l-21 -96h-563l20 96h564zM690 1085q148 0 246 -75t98 -211q0 -318 -569 -318q-81 0 -268 11q-4 -40 -4 -60q0 -149 76 -247.5t218 -98.5q100 0 198.5 55t150.5 144l114 -35q-74 -121 -208 -195.5t-279 -74.5 q-191 0 -301.5 128.5t-110.5 323.5q0 125 49 243.5t133 209t204 145.5t253 55zM471 582q436 0 436 219q0 88 -64 132t-163 44q-118 0 -216 -56t-158 -140.5t-89 -188.5q163 -10 254 -10z" />
<glyph unicode="&#x1e16;" horiz-adv-x="1191" d="M944 2042l-86 35l156 190h145zM569 1743l21 96h563l-20 -96h-564zM358 1454h912l-27 -127h-770l-113 -524h672l-24 -121h-672l-119 -555h789l-27 -127h-930z" />
<glyph unicode="&#x1e17;" horiz-adv-x="1093" d="M1059 1880l-215 -225l-86 35l155 190h146zM469 1356l20 96h564l-21 -96h-563zM690 1085q148 0 246 -75t98 -211q0 -318 -569 -318q-81 0 -268 11q-4 -40 -4 -60q0 -149 76 -247.5t218 -98.5q100 0 198.5 55t150.5 144l114 -35q-74 -121 -208 -195.5t-279 -74.5 q-191 0 -301.5 128.5t-110.5 323.5q0 125 49 243.5t133 209t204 145.5t253 55zM471 582q436 0 436 219q0 88 -64 132t-163 44q-118 0 -216 -56t-158 -140.5t-89 -188.5q163 -10 254 -10z" />
<glyph unicode="&#x1e1c;" horiz-adv-x="1191" d="M838 1675q-70 0 -114 45t-44 115q0 23 6 47h86q-4 -20 -4 -31q0 -43 24 -73.5t60 -30.5q41 0 81.5 39t57.5 96h84q-19 -88 -87 -147.5t-150 -59.5zM1243 1327h-770l-113 -524h672l-24 -121h-672l-119 -555h789l-27 -127h-434q67 -70 67 -154q0 -99 -64 -157t-169 -58 q-108 0 -193 58l58 80q37 -23 66.5 -34t68.5 -11q68 0 108.5 35.5t40.5 95.5q0 73 -88 145h-391l309 1454h912z" />
<glyph unicode="&#x1e1d;" horiz-adv-x="1093" d="M737 1288q-70 0 -113.5 45t-43.5 115q0 23 6 47h86q-4 -20 -4 -31q0 -43 24 -73.5t60 -30.5q41 0 81.5 39t57.5 96h84q-19 -88 -87.5 -147.5t-150.5 -59.5zM465 481q-81 0 -268 11q-4 -40 -4 -60q0 -149 76 -247.5t218 -98.5q100 0 198.5 55t150.5 144l114 -35 q-64 -104 -174.5 -174.5t-236.5 -89.5q55 -64 55 -140q0 -99 -64.5 -157t-169.5 -58q-107 0 -192 58l57 80q37 -23 66.5 -34t68.5 -11q68 0 109 35.5t41 95.5q0 62 -66 125q-182 6 -287.5 133.5t-105.5 318.5q0 125 49 243.5t133 209t204 145.5t253 55q148 0 246 -75 t98 -211q0 -318 -569 -318zM680 977q-118 0 -216 -56t-158 -140.5t-89 -188.5q163 -10 254 -10q436 0 436 219q0 88 -64 132t-163 44z" />
<glyph unicode="&#x1e20;" horiz-adv-x="1406" d="M1274 1835l-21 -96h-563l21 96h563zM870 604l23 111h426l-152 -715h-123l46 213q-235 -223 -486 -223q-117 0 -214.5 51t-161 136t-98 194t-34.5 227q0 163 67.5 321.5t178 278t262.5 193t311 73.5q190 0 304 -85t153 -232l-127 -74q-35 130 -127 196t-231 66 q-105 0 -205 -41.5t-178.5 -113t-138.5 -163.5t-92.5 -198.5t-32.5 -212.5q0 -134 48 -244t141 -176.5t214 -66.5q235 0 479 241l52 244h-304z" />
<glyph unicode="&#x1e21;" horiz-adv-x="1212" d="M461 1356l20 96h563l-20 -96h-563zM-68 -215l99 68q37 -98 124 -148.5t205 -50.5q155 0 276.5 89t156.5 253l45 211q-77 -101 -192 -161t-226 -60q-113 0 -199 62t-129 161t-43 217q0 123 49.5 243.5t130.5 211.5t192.5 147.5t229.5 56.5q231 0 338 -241l47 223h123 l-227 -1071q-22 -108 -80 -195.5t-138.5 -143t-176.5 -85t-199 -29.5q-167 0 -264 62.5t-142 179.5zM872 367l70 329q-17 115 -99.5 191t-189.5 76q-123 0 -231 -80t-168.5 -198.5t-60.5 -235.5q0 -145 81.5 -246t210.5 -101q114 0 231 82t156 183z" />
<glyph unicode="&#x1e24;" horiz-adv-x="1452" d="M358 1454h142l-138 -647h809l138 647h143l-309 -1454h-144l146 680h-809l-146 -680h-141zM481 -340l41 201h127l-41 -201h-127z" />
<glyph unicode="&#x1e25;" horiz-adv-x="1144" d="M336 1495h139l-143 -670q86 120 208 190t246 70q244 0 244 -272q0 -92 -22 -188l-131 -625h-140l127 596q19 112 19 156q0 206 -174 206q-110 0 -231 -88t-183 -217l-137 -653h-140zM328 -340l41 201h127l-41 -201h-127z" />
<glyph unicode="&#x1e2a;" horiz-adv-x="1452" d="M358 1454h142l-138 -647h809l138 647h143l-309 -1454h-144l146 680h-809l-146 -680h-141zM541 -311q-73 0 -110 60t-15 147h78q-12 -53 7.5 -94.5t57.5 -41.5q35 0 72.5 39.5t56.5 96.5h78q-22 -88 -86.5 -147.5t-138.5 -59.5z" />
<glyph unicode="&#x1e2b;" horiz-adv-x="1144" d="M336 1495h139l-143 -670q86 120 208 190t246 70q244 0 244 -272q0 -92 -22 -188l-131 -625h-140l127 596q19 112 19 156q0 206 -174 206q-110 0 -231 -88t-183 -217l-137 -653h-140zM387 -311q-73 0 -110 60t-15 147h78q-12 -53 8 -94.5t58 -41.5q35 0 72.5 39.5 t56.5 96.5h77q-22 -88 -86.5 -147.5t-138.5 -59.5z" />
<glyph unicode="&#x1e2e;" horiz-adv-x="501" d="M590 2077l-86 34l155 191h146zM270 1681l41 193h119l-41 -193h-119zM565 1681l41 193h117l-39 -193h-119zM358 1452h142l-310 -1452h-141z" />
<glyph unicode="&#x1e2f;" horiz-adv-x="436" d="M473 1692l-86 34l156 191h145zM154 1296l41 193h118l-41 -193h-118zM449 1296l40 193h117l-39 -193h-118zM244 1067h139l-225 -1067h-140z" />
<glyph unicode="&#x1e36;" horiz-adv-x="1140" d="M358 1454h142l-283 -1327h795l-27 -127h-936zM385 -340l41 201h127l-41 -201h-127z" />
<glyph unicode="&#x1e37;" horiz-adv-x="540" d="M57 137q0 13 9 58l274 1300h139l-266 -1253q-4 -28 -4 -37q0 -43 25 -66.5t71 -23.5q55 0 113 22l-4 -112q-40 -15 -97 -26t-98 -11q-75 0 -118.5 39.5t-43.5 109.5zM98 -340l41 201h127l-41 -201h-127z" />
<glyph unicode="&#x1e3a;" horiz-adv-x="1140" d="M358 1454h142l-283 -1327h795l-27 -127h-936zM188 -264l23 96h537l-23 -96h-537z" />
<glyph unicode="&#x1e3b;" horiz-adv-x="540" d="M57 137q0 13 9 58l274 1300h139l-266 -1253q-4 -28 -4 -37q0 -43 25 -66.5t71 -23.5q55 0 113 22l-4 -112q-40 -15 -97 -26t-98 -11q-75 0 -118.5 39.5t-43.5 109.5zM-98 -264l22 96h537l-23 -96h-536z" />
<glyph unicode="&#x1e42;" horiz-adv-x="1720" d="M358 1454h148l321 -995l746 995h147l-309 -1454h-143l254 1194l-693 -924h-84l-299 924l-256 -1194h-141zM614 -340l41 201h127l-41 -201h-127z" />
<glyph unicode="&#x1e43;" horiz-adv-x="1798" d="M244 1067h129l-54 -242q87 121 203.5 190.5t235.5 69.5q120 0 183 -73t60 -205q88 134 206 206t243 72q238 0 238 -262q0 -82 -25 -198l-133 -625h-139l125 596q20 90 20 166q0 196 -162 196q-113 0 -220.5 -85t-172.5 -222l-137 -651h-139l124 596q23 112 23 170 q0 192 -162 192q-113 0 -220 -83.5t-175 -221.5l-137 -653h-140zM653 -340l41 201h127l-41 -201h-127z" />
<glyph unicode="&#x1e44;" horiz-adv-x="1515" d="M950 1679l43 199h127l-43 -199h-127zM358 1454h111l647 -1210l256 1208h141l-309 -1452h-121l-641 1188l-252 -1188h-141z" />
<glyph unicode="&#x1e45;" horiz-adv-x="1144" d="M766 1296l43 199h127l-43 -199h-127zM244 1067h129l-54 -242q87 117 219 188.5t265 71.5q231 0 231 -254q0 -79 -26 -206l-131 -625h-140l127 596q21 119 21 174q0 188 -160 188q-117 0 -241.5 -87.5t-188.5 -217.5l-137 -653h-140z" />
<glyph unicode="&#x1e46;" horiz-adv-x="1515" d="M358 1454h111l647 -1210l256 1208h141l-309 -1452h-121l-641 1188l-252 -1188h-141zM514 -340l41 201h127l-41 -201h-127z" />
<glyph unicode="&#x1e47;" horiz-adv-x="1144" d="M244 1067h129l-54 -242q87 117 219 188.5t265 71.5q231 0 231 -254q0 -79 -26 -206l-131 -625h-140l127 596q21 119 21 174q0 188 -160 188q-117 0 -241.5 -87.5t-188.5 -217.5l-137 -653h-140zM334 -340l41 201h127l-41 -201h-127z" />
<glyph unicode="&#x1e48;" horiz-adv-x="1515" d="M358 1454h111l647 -1210l256 1208h141l-309 -1452h-121l-641 1188l-252 -1188h-141zM317 -264l23 96h537l-23 -96h-537z" />
<glyph unicode="&#x1e49;" horiz-adv-x="1144" d="M244 1067h129l-54 -242q87 117 219 188.5t265 71.5q231 0 231 -254q0 -79 -26 -206l-131 -625h-140l127 596q21 119 21 174q0 188 -160 188q-117 0 -241.5 -87.5t-188.5 -217.5l-137 -653h-140zM137 -264l23 96h536l-22 -96h-537z" />
<glyph unicode="&#x1e4c;" horiz-adv-x="1478" d="M1094 2081l-86 35l155 190h146zM868 1772q-29 0 -52.5 -13.5t-36.5 -32.5t-19.5 -32.5t-7.5 -20.5h-86q2 11 11 31t27.5 48.5t42.5 53t61.5 41.5t78.5 17q46 0 83.5 -21.5t72 -43t73.5 -21.5q29 0 53 10t37.5 22.5t24 29t14 25t4.5 13.5h86q-2 -11 -10.5 -30t-28 -47.5 t-45 -52.5t-65.5 -41t-86 -17q-49 0 -89 20.5t-74.5 41t-68.5 20.5zM94 588q0 166 69 327t181.5 281t264 194t309.5 74q123 0 222.5 -50.5t161.5 -135.5t95 -192t33 -224q0 -165 -68.5 -325t-180 -280t-262.5 -193.5t-309 -73.5q-123 0 -223 49.5t-163 133.5t-96.5 190.5 t-33.5 224.5zM1286 852q0 97 -25.5 183t-73.5 153t-125 106t-173 39q-106 0 -206 -41.5t-179 -114t-139 -165t-92.5 -199.5t-32.5 -213q0 -98 25.5 -183.5t74 -152.5t125.5 -106t174 -39q106 0 206 42t178.5 115t138.5 165.5t92 199t32 211.5z" />
<glyph unicode="&#x1e4d;" horiz-adv-x="1173" d="M848 1698l-86 35l156 190h145zM623 1389q-38 0 -66.5 -24t-38.5 -44t-12 -31h-86q2 11 11 31t27.5 48.5t42.5 53t61.5 41.5t78.5 17q46 0 83.5 -21.5t72 -43t73.5 -21.5q29 0 53 10t38 23t24.5 29t14 24.5t4.5 13.5h86q-3 -15 -17.5 -41.5t-41 -61.5t-74 -60t-103.5 -25 q-39 0 -73 13t-54.5 28t-48 28t-55.5 13zM49 428q0 176 85.5 328t230 240.5t309.5 88.5q101 0 180.5 -35t130 -97t76.5 -143t26 -175q0 -176 -84.5 -327t-228.5 -239.5t-311 -88.5q-102 0 -182 35t-130 96.5t-76 142t-26 174.5zM944 614q0 154 -77.5 251.5t-217.5 97.5 q-86 0 -168.5 -40t-146 -108t-102.5 -165t-39 -204q0 -154 76.5 -249t217.5 -95q87 0 170 39.5t146 106.5t102 163t39 203z" />
<glyph unicode="&#x1e4e;" horiz-adv-x="1478" d="M864 2107l41 193h119l-41 -193h-119zM1159 2107l41 193h117l-39 -193h-119zM868 1772q-29 0 -52.5 -13.5t-36.5 -32.5t-19.5 -32.5t-7.5 -20.5h-86q2 11 11 31t27.5 48.5t42.5 53t61.5 41.5t78.5 17q46 0 83.5 -21.5t72 -43t73.5 -21.5q29 0 53 10t37.5 22.5t24 29t14 25 t4.5 13.5h86q-2 -11 -10.5 -30t-28 -47.5t-45 -52.5t-65.5 -41t-86 -17q-49 0 -89 20.5t-74.5 41t-68.5 20.5zM94 588q0 166 69 327t181.5 281t264 194t309.5 74q123 0 222.5 -50.5t161.5 -135.5t95 -192t33 -224q0 -165 -68.5 -325t-180 -280t-262.5 -193.5t-309 -73.5 q-123 0 -223 49.5t-163 133.5t-96.5 190.5t-33.5 224.5zM1286 852q0 97 -25.5 183t-73.5 153t-125 106t-173 39q-106 0 -206 -41.5t-179 -114t-139 -165t-92.5 -199.5t-32.5 -213q0 -98 25.5 -183.5t74 -152.5t125.5 -106t174 -39q106 0 206 42t178.5 115t138.5 165.5 t92 199t32 211.5z" />
<glyph unicode="&#x1e4f;" horiz-adv-x="1173" d="M618 1724l41 193h119l-41 -193h-119zM913 1724l41 193h117l-39 -193h-119zM623 1389q-38 0 -66.5 -24t-38.5 -44t-12 -31h-86q2 11 11 31t27.5 48.5t42.5 53t61.5 41.5t78.5 17q46 0 83.5 -21.5t72 -43t73.5 -21.5q29 0 53 10t38 23t24.5 29t14 24.5t4.5 13.5h86 q-3 -15 -17.5 -41.5t-41 -61.5t-74 -60t-103.5 -25q-39 0 -73 13t-54.5 28t-48 28t-55.5 13zM49 428q0 176 85.5 328t230 240.5t309.5 88.5q101 0 180.5 -35t130 -97t76.5 -143t26 -175q0 -176 -84.5 -327t-228.5 -239.5t-311 -88.5q-102 0 -182 35t-130 96.5t-76 142 t-26 174.5zM944 614q0 154 -77.5 251.5t-217.5 97.5q-86 0 -168.5 -40t-146 -108t-102.5 -165t-39 -204q0 -154 76.5 -249t217.5 -95q87 0 170 39.5t146 106.5t102 163t39 203z" />
<glyph unicode="&#x1e50;" horiz-adv-x="1478" d="M844 2263h143l78 -190l-100 -35zM709 1739l20 96h563l-20 -96h-563zM94 588q0 166 69 327t181.5 281t264 194t309.5 74q123 0 222.5 -50.5t161.5 -135.5t95 -192t33 -224q0 -165 -68.5 -325t-180 -280t-262.5 -193.5t-309 -73.5q-123 0 -223 49.5t-163 133.5t-96.5 190.5 t-33.5 224.5zM1286 852q0 97 -25.5 183t-73.5 153t-125 106t-173 39q-106 0 -206 -41.5t-179 -114t-139 -165t-92.5 -199.5t-32.5 -213q0 -98 25.5 -183.5t74 -152.5t125.5 -106t174 -39q106 0 206 42t178.5 115t138.5 165.5t92 199t32 211.5z" />
<glyph unicode="&#x1e51;" horiz-adv-x="1173" d="M598 1880h143l78 -190l-100 -35zM463 1356l20 96h564l-21 -96h-563zM49 428q0 176 85.5 328t230 240.5t309.5 88.5q101 0 180.5 -35t130 -97t76.5 -143t26 -175q0 -176 -84.5 -327t-228.5 -239.5t-311 -88.5q-102 0 -182 35t-130 96.5t-76 142t-26 174.5zM944 614 q0 154 -77.5 251.5t-217.5 97.5q-86 0 -168.5 -40t-146 -108t-102.5 -165t-39 -204q0 -154 76.5 -249t217.5 -95q87 0 170 39.5t146 106.5t102 163t39 203z" />
<glyph unicode="&#x1e52;" horiz-adv-x="1478" d="M1083 2038l-86 35l156 190h145zM709 1739l20 96h563l-20 -96h-563zM94 588q0 166 69 327t181.5 281t264 194t309.5 74q123 0 222.5 -50.5t161.5 -135.5t95 -192t33 -224q0 -165 -68.5 -325t-180 -280t-262.5 -193.5t-309 -73.5q-123 0 -223 49.5t-163 133.5t-96.5 190.5 t-33.5 224.5zM1286 852q0 97 -25.5 183t-73.5 153t-125 106t-173 39q-106 0 -206 -41.5t-179 -114t-139 -165t-92.5 -199.5t-32.5 -213q0 -98 25.5 -183.5t74 -152.5t125.5 -106t174 -39q106 0 206 42t178.5 115t138.5 165.5t92 199t32 211.5z" />
<glyph unicode="&#x1e53;" horiz-adv-x="1173" d="M838 1655l-86 35l155 190h146zM463 1356l20 96h564l-21 -96h-563zM49 428q0 176 85.5 328t230 240.5t309.5 88.5q101 0 180.5 -35t130 -97t76.5 -143t26 -175q0 -176 -84.5 -327t-228.5 -239.5t-311 -88.5q-102 0 -182 35t-130 96.5t-76 142t-26 174.5zM944 614 q0 154 -77.5 251.5t-217.5 97.5q-86 0 -168.5 -40t-146 -108t-102.5 -165t-39 -204q0 -154 76.5 -249t217.5 -95q87 0 170 39.5t146 106.5t102 163t39 203z" />
<glyph unicode="&#x1e5a;" horiz-adv-x="1286" d="M49 0l309 1454h584q99 0 174.5 -55t113.5 -140.5t38 -183.5q0 -175 -121 -327.5t-289 -186.5l219 -561h-162l-208 537h-402l-115 -537h-141zM780 664q90 0 169.5 59t125 150t45.5 186q0 111 -60 189.5t-153 78.5h-434l-141 -663h448zM381 -340l41 201h127l-41 -201h-127z " />
<glyph unicode="&#x1e5b;" horiz-adv-x="702" d="M244 1067h131l-56 -256q80 116 183 185t205 73q25 0 49 -4l-27 -121q-133 -5 -248.5 -78.5t-183.5 -201.5l-139 -664h-140zM-43 -340l41 201h127l-41 -201h-127z" />
<glyph unicode="&#x1e5e;" horiz-adv-x="1286" d="M49 0l309 1454h584q99 0 174.5 -55t113.5 -140.5t38 -183.5q0 -175 -121 -327.5t-289 -186.5l219 -561h-162l-208 537h-402l-115 -537h-141zM780 664q90 0 169.5 59t125 150t45.5 186q0 111 -60 189.5t-153 78.5h-434l-141 -663h448zM184 -264l23 96h536l-22 -96h-537z " />
<glyph unicode="&#x1e5f;" horiz-adv-x="702" d="M244 1067h131l-56 -256q80 116 183 185t205 73q25 0 49 -4l-27 -121q-133 -5 -248.5 -78.5t-183.5 -201.5l-139 -664h-140zM-240 -264l23 96h536l-22 -96h-537z" />
<glyph unicode="&#x1e60;" horiz-adv-x="1198" d="M791 1710l43 199h127l-43 -199h-127zM-18 199l96 116q62 -85 179.5 -142.5t268.5 -57.5q185 0 293.5 79t108.5 216q0 45 -16.5 80t-42.5 59.5t-75 46.5t-97.5 37t-125.5 35q-78 21 -130 39t-101 43.5t-76.5 56t-44 73t-16.5 97.5q0 147 78 259t211 170t299 58 q262 0 411 -168l-92 -114q-44 70 -135.5 112.5t-210.5 42.5q-198 0 -302 -88.5t-104 -228.5q0 -41 14 -71.5t36.5 -52.5t67.5 -41.5t89.5 -33.5t120.5 -33q83 -21 139.5 -39.5t109 -46t83.5 -61t49 -80.5t18 -108q0 -115 -46 -205t-126.5 -146t-185.5 -85t-229 -29 q-323 0 -516 211z" />
<glyph unicode="&#x1e61;" horiz-adv-x="958" d="M578 1296l43 199h127l-43 -199h-127zM-41 139l82 94q134 -143 330 -143q138 0 224.5 61.5t86.5 161.5q0 22 -6.5 40t-14.5 31.5t-28.5 26.5t-36 21.5t-49.5 19.5t-56 17.5t-69 19.5q-69 19 -107 32t-79 32t-60.5 40.5t-32 53.5t-12.5 74q0 109 61 192.5t163.5 127.5 t228.5 44q117 0 205 -39t135 -106l-86 -82q-83 119 -267 119q-129 0 -216 -57.5t-87 -165.5q0 -64 44 -92t171 -62q72 -20 119.5 -35.5t93 -38.5t71 -48.5t41 -61.5t15.5 -82q0 -157 -128.5 -255.5t-336.5 -98.5q-127 0 -231 41t-168 118z" />
<glyph unicode="&#x1e62;" horiz-adv-x="1198" d="M-18 199l96 116q62 -85 179.5 -142.5t268.5 -57.5q185 0 293.5 79t108.5 216q0 45 -16.5 80t-42.5 59.5t-75 46.5t-97.5 37t-125.5 35q-78 21 -130 39t-101 43.5t-76.5 56t-44 73t-16.5 97.5q0 147 78 259t211 170t299 58q262 0 411 -168l-92 -114q-44 70 -135.5 112.5 t-210.5 42.5q-198 0 -302 -88.5t-104 -228.5q0 -41 14 -71.5t36.5 -52.5t67.5 -41.5t89.5 -33.5t120.5 -33q83 -21 139.5 -39.5t109 -46t83.5 -61t49 -80.5t18 -108q0 -115 -46 -205t-126.5 -146t-185.5 -85t-229 -29q-323 0 -516 211zM356 -340l41 201h127l-41 -201h-127z " />
<glyph unicode="&#x1e63;" horiz-adv-x="958" d="M-41 139l82 94q134 -143 330 -143q138 0 224.5 61.5t86.5 161.5q0 22 -6.5 40t-14.5 31.5t-28.5 26.5t-36 21.5t-49.5 19.5t-56 17.5t-69 19.5q-69 19 -107 32t-79 32t-60.5 40.5t-32 53.5t-12.5 74q0 109 61 192.5t163.5 127.5t228.5 44q117 0 205 -39t135 -106l-86 -82 q-83 119 -267 119q-129 0 -216 -57.5t-87 -165.5q0 -64 44 -92t171 -62q72 -20 119.5 -35.5t93 -38.5t71 -48.5t41 -61.5t15.5 -82q0 -157 -128.5 -255.5t-336.5 -98.5q-127 0 -231 41t-168 118zM242 -340l41 201h127l-41 -201h-127z" />
<glyph unicode="&#x1e64;" horiz-adv-x="1198" d="M889 2138l43 199h127l-43 -199h-127zM877 1683l-86 35l155 191h146zM-18 199l96 116q62 -85 179.5 -142.5t268.5 -57.5q185 0 293.5 79t108.5 216q0 45 -16.5 80t-42.5 59.5t-75 46.5t-97.5 37t-125.5 35q-78 21 -130 39t-101 43.5t-76.5 56t-44 73t-16.5 97.5 q0 147 78 259t211 170t299 58q262 0 411 -168l-92 -114q-44 70 -135.5 112.5t-210.5 42.5q-198 0 -302 -88.5t-104 -228.5q0 -41 14 -71.5t36.5 -52.5t67.5 -41.5t89.5 -33.5t120.5 -33q83 -21 139.5 -39.5t109 -46t83.5 -61t49 -80.5t18 -108q0 -115 -46 -205t-126.5 -146 t-185.5 -85t-229 -29q-323 0 -516 211z" />
<glyph unicode="&#x1e65;" horiz-adv-x="958" d="M676 1724l43 199h127l-43 -199h-127zM664 1270l-86 35l155 190h146zM-41 139l82 94q134 -143 330 -143q138 0 224.5 61.5t86.5 161.5q0 22 -6.5 40t-14.5 31.5t-28.5 26.5t-36 21.5t-49.5 19.5t-56 17.5t-69 19.5q-69 19 -107 32t-79 32t-60.5 40.5t-32 53.5t-12.5 74 q0 109 61 192.5t163.5 127.5t228.5 44q117 0 205 -39t135 -106l-86 -82q-83 119 -267 119q-129 0 -216 -57.5t-87 -165.5q0 -64 44 -92t171 -62q72 -20 119.5 -35.5t93 -38.5t71 -48.5t41 -61.5t15.5 -82q0 -157 -128.5 -255.5t-336.5 -98.5q-127 0 -231 41t-168 118z" />
<glyph unicode="&#x1e66;" horiz-adv-x="1198" d="M883 2138l43 199h127l-43 -199h-127zM631 1868l86 41l139 -129l193 129l69 -41l-231 -176h-103zM-18 199l96 116q62 -85 179.5 -142.5t268.5 -57.5q185 0 293.5 79t108.5 216q0 45 -16.5 80t-42.5 59.5t-75 46.5t-97.5 37t-125.5 35q-78 21 -130 39t-101 43.5t-76.5 56 t-44 73t-16.5 97.5q0 147 78 259t211 170t299 58q262 0 411 -168l-92 -114q-44 70 -135.5 112.5t-210.5 42.5q-198 0 -302 -88.5t-104 -228.5q0 -41 14 -71.5t36.5 -52.5t67.5 -41.5t89.5 -33.5t120.5 -33q83 -21 139.5 -39.5t109 -46t83.5 -61t49 -80.5t18 -108 q0 -115 -46 -205t-126.5 -146t-185.5 -85t-229 -29q-323 0 -516 211z" />
<glyph unicode="&#x1e67;" horiz-adv-x="958" d="M670 1724l43 199h127l-43 -199h-127zM418 1454l86 41l139 -129l193 129l69 -41l-231 -176h-103zM-41 139l82 94q134 -143 330 -143q138 0 224.5 61.5t86.5 161.5q0 22 -6.5 40t-14.5 31.5t-28.5 26.5t-36 21.5t-49.5 19.5t-56 17.5t-69 19.5q-69 19 -107 32t-79 32 t-60.5 40.5t-32 53.5t-12.5 74q0 109 61 192.5t163.5 127.5t228.5 44q117 0 205 -39t135 -106l-86 -82q-83 119 -267 119q-129 0 -216 -57.5t-87 -165.5q0 -64 44 -92t171 -62q72 -20 119.5 -35.5t93 -38.5t71 -48.5t41 -61.5t15.5 -82q0 -157 -128.5 -255.5t-336.5 -98.5 q-127 0 -231 41t-168 118z" />
</font>
</defs>
</svg>
