<?xml version="1.0" standalone="no"?>
<!DOCTYPE svg PUBLIC "-//W3C//DTD SVG 1.1//EN" "http://www.w3.org/Graphics/SVG/1.1/DTD/svg11.dtd" >
<svg xmlns="http://www.w3.org/2000/svg" xmlns:xlink="http://www.w3.org/1999/xlink" version="1.1">
<metadata></metadata>
<defs>
<font id="rawlinesemibold" horiz-adv-x="1540" >
<font-face units-per-em="2048" ascent="1638" descent="-410" />
<missing-glyph horiz-adv-x="505" />
<glyph unicode="fi" horiz-adv-x="1118" d="M197 870h-144v174h144v43q0 85 27.5 161.5t78.5 136.5t131 95.5t178 35.5q189 0 365 -119l-92 -168q-49 42 -117.5 68t-140.5 26q-99 0 -152 -67.5t-53 -161.5v-50h561v-1044h-225v870h-336v-870h-225v870z" />
<glyph unicode="fl" horiz-adv-x="1290" d="M1061 -14q-115 0 -181.5 62.5t-66.5 168.5v881q0 46 -9 83.5t-29.5 71t-59.5 52t-94 18.5q-99 0 -147.5 -67.5t-51.5 -184.5v-27h196v-174h-196v-870h-225v870h-144v174h144v62q0 193 109.5 301.5t309.5 108.5q207 0 314.5 -100.5t107.5 -270.5v-832q0 -73 21 -100 t63 -27q58 0 142 29l32 -182q-40 -17 -109.5 -32t-125.5 -15z" />
<glyph unicode="&#xd;" horiz-adv-x="0" />
<glyph unicode=" "  horiz-adv-x="505" />
<glyph unicode="&#x09;" horiz-adv-x="505" />
<glyph unicode="&#xa0;" horiz-adv-x="505" />
<glyph unicode="!" horiz-adv-x="581" d="M178 518v950h225v-950h-225zM178 0v281h225v-281h-225z" />
<glyph unicode="&#x22;" horiz-adv-x="731" d="M131 1026v451h193v-451h-193zM408 1026v451h192v-451h-192z" />
<glyph unicode="#" horiz-adv-x="1445" d="M1370 893h-285l-77 -324h270v-172h-311l-97 -397h-184l98 397h-297l-96 -397h-184l100 397h-231v172h270l78 324h-256v160h297l96 401h184l-98 -401h295l98 401h185l-101 -401h246v-160zM825 569l78 324h-297l-78 -324h297z" />
<glyph unicode="$" horiz-adv-x="1286" d="M1204 403q0 -104 -38 -183.5t-106.5 -128.5t-155.5 -75t-193 -30v-215h-125v219q-295 22 -514 192l104 197q53 -55 172 -110.5t252 -71.5v426l-41 10q-115 30 -190 61t-132.5 76t-83.5 106.5t-26 145.5q0 192 127 307t332 133v207h125v-207q240 -17 436 -162l-105 -188 q-42 46 -140 90.5t-206 54.5v-426l29 -6q96 -23 164 -45.5t131 -57t101 -77t60.5 -103.5t22.5 -139zM367 1059q0 -81 53.5 -124t179.5 -77v399q-233 -17 -233 -198zM696 193q127 5 194.5 52t67.5 134q0 84 -63 131.5t-199 85.5v-403z" />
<glyph unicode="%" horiz-adv-x="1552" d="M74 1169q0 127 95 216.5t230 89.5q136 0 231 -89t95 -217q0 -126 -95 -214.5t-231 -88.5q-135 0 -230 88.5t-95 214.5zM166 82l575 682l541 702l107 -92l-566 -674l-553 -712zM565 1169q0 78 -49 133.5t-117 55.5t-117 -56.5t-49 -132.5t49 -131t117 -55t117 56t49 130z M827 285q0 126 95.5 214.5t230.5 88.5q136 0 231 -88.5t95 -214.5q0 -128 -95 -216.5t-231 -88.5q-135 0 -230.5 89t-95.5 216zM1319 285q0 76 -49.5 131t-116.5 55q-68 0 -117 -56t-49 -130q0 -78 49 -133.5t117 -55.5q69 0 117.5 56t48.5 133z" />
<glyph unicode="&#x26;" horiz-adv-x="1425" d="M1419 0h-297l-131 139q-186 -159 -424 -159q-209 0 -344 120.5t-135 296.5q0 68 21 129.5t61 112.5t84.5 92t103.5 82q-95 105 -132.5 175.5t-37.5 146.5q0 148 109.5 243t275.5 95q156 0 263.5 -83t107.5 -227q0 -113 -70.5 -201.5t-203.5 -177.5l327 -342 q74 145 74 330h184q0 -267 -127 -469zM573 1305q-77 0 -127.5 -47.5t-50.5 -116.5q0 -40 27 -80.5t113 -132.5q105 67 153.5 118.5t48.5 112.5q0 64 -46.5 105t-117.5 41zM592 158q150 0 276 110l-376 400q-91 -65 -139 -130.5t-48 -142.5q0 -104 83.5 -170.5t203.5 -66.5z " />
<glyph unicode="'" horiz-adv-x="454" d="M131 1024v453h193v-453h-193z" />
<glyph unicode="(" horiz-adv-x="606" d="M375 1536l174 -74q-39 -58 -81.5 -142t-84 -187t-68 -218.5t-26.5 -212.5q0 -302 254 -714l-164 -84q-301 444 -301 805q0 192 76.5 387.5t220.5 439.5z" />
<glyph unicode=")" horiz-adv-x="606" d="M227 -96l-166 84q256 416 256 714q0 97 -27 212.5t-68.5 218.5t-83.5 186.5t-81 142.5l172 74q144 -244 220.5 -439.5t76.5 -387.5q0 -363 -299 -805z" />
<glyph unicode="*" horiz-adv-x="690" d="M164 1085l92 138l-143 45l32 102l146 -59l-8 155h125l-9 -155l146 59l30 -102l-141 -45l92 -138l-90 -61l-90 145l-92 -145z" />
<glyph unicode="+" horiz-adv-x="858" d="M758 817v-180h-228v-248h-202v248h-228v180h228v248h202v-248h228z" />
<glyph unicode="," horiz-adv-x="452" d="M150 -199l49 211h-74v250h203v-250l-72 -211h-106z" />
<glyph unicode="-" horiz-adv-x="862" d="M125 459v203h612v-203h-612z" />
<glyph unicode="." horiz-adv-x="436" d="M125 0v262h186v-262h-186z" />
<glyph unicode="/" horiz-adv-x="1359" d="M1303 1454l-998 -1454h-250l998 1454h250z" />
<glyph unicode="0" horiz-adv-x="1423" d="M90 717q0 105 27.5 210.5t81.5 200t128 167.5t174 116t212 43q118 0 221 -46t175 -122t123.5 -172.5t76 -198t24.5 -198.5q0 -106 -27 -212t-81 -199.5t-127.5 -166t-173.5 -115.5t-211 -44q-119 2 -222 47.5t-175 120t-124 170t-77 197.5t-25 202zM713 186 q77 0 142 33.5t109.5 88.5t75.5 125t45.5 142t14.5 142q0 75 -16 150t-48.5 143.5t-78 121t-108.5 84t-136 31.5q-96 0 -173 -51t-122.5 -131t-69.5 -170.5t-24 -177.5q3 -96 28.5 -188t71.5 -170t121 -125.5t168 -47.5z" />
<glyph unicode="1" horiz-adv-x="952" d="M907 203v-203h-772v203h281v1036q-38 -53 -144.5 -114.5t-183.5 -61.5v209q41 0 89 19.5t88 47t75 57t54.5 49t21.5 23.5h231v-1265h260z" />
<glyph unicode="2" horiz-adv-x="1226" d="M90 0q0 242 74 385.5t237 241.5q45 27 123.5 66t128.5 66.5t103 68t79.5 92t26.5 116.5q0 102 -64.5 166t-183.5 64q-117 0 -212.5 -56t-159.5 -131l-144 150q20 25 49.5 52.5t81 63t109.5 63t138.5 46.5t164.5 19q225 0 350 -120.5t125 -308.5q0 -93 -28.5 -165 t-97.5 -130.5t-110.5 -85.5t-138.5 -78q-2 -2 -3.5 -2.5t-4 -2t-4.5 -2.5q-115 -58 -187 -105.5t-111 -92.5t-55 -83.5t-24 -93.5h766v-203h-1028z" />
<glyph unicode="3" horiz-adv-x="1198" d="M567 -16q-182 0 -311.5 76.5t-173.5 209.5l123 148q22 -90 118 -157.5t238 -67.5q136 0 221.5 61.5t85.5 165.5q0 115 -108 176t-303 61h-70v181h70q174 0 273 56t99 163q0 99 -77 159t-187 60q-113 0 -199 -51.5t-128 -132.5l-148 161q64 100 197.5 160t285.5 60 q215 0 355.5 -112.5t140.5 -281.5q0 -123 -73.5 -207.5t-204.5 -113.5q138 -26 223.5 -129.5t85.5 -241.5q0 -124 -73 -217t-193 -139.5t-267 -46.5z" />
<glyph unicode="4" horiz-adv-x="1189" d="M705 0v352h-650v201l719 901h156v-899h180v-203h-180v-352h-225zM285 555h444v557z" />
<glyph unicode="5" horiz-adv-x="1153" d="M549 -20q-156 0 -281 71t-192 193l135 129q58 -89 149 -141t191 -52q127 0 209 79t82 204q0 122 -78.5 199t-196.5 77q-77 0 -146 -35.5t-110 -97.5h-200l165 848h711v-207h-547l-73 -395q76 82 229 82q205 0 341 -131t136 -334q0 -216 -148.5 -352.5t-375.5 -136.5z" />
<glyph unicode="6" horiz-adv-x="1243" d="M651 971q-115 0 -206 -54t-136 -145q3 233 94.5 364.5t245.5 131.5q100 0 184 -50.5t130 -136.5l133 140q-72 115 -188.5 179t-254.5 64q-258 0 -406.5 -215.5t-148.5 -623.5q0 -300 144.5 -472.5t388.5 -172.5q222 0 373 146t151 357q0 135 -66.5 247t-182.5 176.5 t-255 64.5zM322 483q0 126 91 217t218 91t218 -91t91 -217q0 -127 -91.5 -219t-217.5 -92t-217.5 92t-91.5 219z" />
<glyph unicode="7" horiz-adv-x="1122" d="M772 1247h-704v207h1060l-729 -1454h-254z" />
<glyph unicode="8" horiz-adv-x="1230" d="M612 -16q-220 0 -369 127t-149 319q0 119 75 211t177 137q-87 38 -145 115.5t-58 169.5q0 91 42.5 167t111 123.5t151 74t166.5 26.5q85 0 168 -26t152.5 -73.5t112.5 -123t43 -166.5q0 -92 -59.5 -170.5t-147.5 -116.5q108 -48 180 -141.5t72 -216.5q0 -128 -72 -229 t-190.5 -154t-260.5 -53zM614 856q94 0 170 55.5t76 147.5q0 86 -72.5 140t-173.5 54q-100 0 -171.5 -55t-71.5 -143q0 -91 75 -145t168 -54zM614 684q-117 0 -202.5 -70t-85.5 -180t88.5 -179t201.5 -69q114 0 202.5 71.5t88.5 176.5q0 112 -89.5 181t-203.5 69z" />
<glyph unicode="9" horiz-adv-x="1241" d="M590 473q116 0 207.5 54t134.5 145q-1 -233 -93 -363.5t-247 -130.5q-98 0 -182.5 50.5t-130.5 136.5l-134 -140q72 -117 188.5 -181t256.5 -64q257 0 405 216.5t148 624.5q0 300 -144 471.5t-387 171.5q-146 0 -267 -66.5t-190 -182t-69 -254.5q0 -204 146 -346 t358 -142zM922 961q0 -124 -92 -215t-218 -91t-217.5 91t-91.5 217q0 128 90.5 219.5t216.5 91.5t219 -93t93 -220z" />
<glyph unicode=":" horiz-adv-x="456" d="M135 801v260h187v-260h-187zM135 0v262h187v-262h-187z" />
<glyph unicode=";" horiz-adv-x="489" d="M145 801v260h185v-260h-185zM168 -199l49 211h-74v250h203v-250l-72 -211h-106z" />
<glyph unicode="&#x3c;" horiz-adv-x="1048" d="M68 582l860 520v-240l-535 -332l535 -323v-250l-860 512v113z" />
<glyph unicode="=" horiz-adv-x="897" d="M131 649v150h633v-150h-633zM131 332v149h633v-149h-633z" />
<glyph unicode="&#x3e;" horiz-adv-x="1048" d="M983 469l-862 -512v250l534 323l-534 332v240l862 -520v-113z" />
<glyph unicode="?" horiz-adv-x="987" d="M272 453q0 112 38.5 191.5t131.5 137.5q11 7 51 29t62.5 35.5t57.5 41t54.5 53t34.5 62.5t15 78q0 95 -66.5 151t-158.5 56q-90 0 -161 -52t-114 -128l-147 100q55 124 171.5 194.5t256.5 70.5q79 0 151.5 -24t132.5 -71t95.5 -125.5t35.5 -179.5q0 -69 -17 -123.5 t-52 -95.5t-73 -70t-95 -61q-6 -3 -38.5 -22t-40 -24t-34 -23t-35 -28.5t-26 -31.5t-23.5 -39.5t-12 -45t-6 -56.5h-189zM279 0v258h186v-258h-186z" />
<glyph unicode="@" horiz-adv-x="1726" d="M1620 455q0 -32 -2 -64.5t-9.5 -83t-20 -94.5t-36 -90.5t-55 -79.5t-80.5 -54.5t-108 -21.5q-51 0 -87.5 14.5t-56.5 41.5t-29.5 55.5t-13.5 64.5q-62 -65 -153.5 -104t-194.5 -39q-147 0 -229 78.5t-82 204.5q0 63 22.5 114t59 83t87 53.5t103 30.5t109.5 9 q128 0 243 -45q0 136 -52.5 207.5t-188.5 71.5q-163 0 -279 -92l-45 123q155 102 344 102q70 0 125.5 -14t93 -36.5t64.5 -57.5t42 -69.5t23.5 -81t10.5 -82.5t2 -83v-221q0 -42 1.5 -70t7.5 -59.5t16.5 -49.5t30 -30t46.5 -12q55 0 95 41t59.5 105t28 123.5t8.5 115.5 q0 192 -84.5 347.5t-237.5 245t-344 89.5q-141 0 -264 -50.5t-211 -139t-138.5 -213t-50.5 -267.5q0 -139 48 -263t132 -215t205 -144.5t261 -53.5q87 0 158.5 19.5t158.5 58.5l33 -90q-168 -82 -352 -82q-152 0 -288.5 57t-237 157.5t-159.5 245t-59 310.5q0 140 41 262.5 t114 213t170 156.5t210.5 99t234.5 33q152 0 289 -53.5t242 -151t167 -247t62 -328.5zM1085 340v78q-2 0 -48 13.5t-94.5 21.5t-98.5 8q-109 0 -175.5 -41t-66.5 -131q0 -73 49.5 -119.5t134.5 -46.5q94 0 185 43q114 54 114 174z" />
<glyph unicode="A" horiz-adv-x="1382" d="M584 1454h217l565 -1454h-242l-153 395h-561l-152 -395h-244zM926 565l-234 637l-241 -637h475z" />
<glyph unicode="B" horiz-adv-x="1382" d="M858 0h-694v1454h749q98 0 176 -55.5t117 -139t39 -176.5q0 -109 -56 -202t-153 -136q126 -37 198.5 -135t72.5 -235q0 -170 -129.5 -272.5t-319.5 -102.5zM393 1255v-428h422q85 0 143 60.5t58 152.5q0 94 -53.5 154.5t-135.5 60.5h-434zM872 643h-479v-444h465 q90 0 151.5 64.5t61.5 154.5q0 91 -57 158t-142 67z" />
<glyph unicode="C" horiz-adv-x="1400" d="M776 1462q191 0 335.5 -86.5t217.5 -230.5l-180 -121q-29 63 -73 109.5t-96 72t-104.5 37.5t-107.5 12q-88 0 -164 -30.5t-130 -81.5t-93 -119t-57.5 -143t-18.5 -152q0 -141 59.5 -263t168.5 -196.5t241 -74.5q75 0 146.5 23.5t138 79t102.5 136.5l191 -108 q-43 -104 -140 -183t-213 -117t-233 -38q-148 0 -279.5 65t-221 171t-141.5 240.5t-52 272.5q0 106 30 210.5t90.5 197t143.5 163.5t197 112.5t243 41.5z" />
<glyph unicode="D" horiz-adv-x="1466" d="M164 0v1454h516q171 0 307.5 -56.5t223.5 -156t132.5 -230t45.5 -282.5q0 -330 -193.5 -529.5t-515.5 -199.5h-516zM680 1251h-287v-1048h287q150 0 258.5 69.5t162.5 187.5t54 269q0 233 -126.5 377.5t-348.5 144.5z" />
<glyph unicode="E" horiz-adv-x="1234" d="M1161 203v-203h-997v1454h979v-203h-750v-413h649v-191h-649v-444h768z" />
<glyph unicode="F" horiz-adv-x="1185" d="M164 0v1454h969v-203h-740v-434h619v-190h-619v-627h-229z" />
<glyph unicode="G" horiz-adv-x="1472" d="M877 735h497v-735h-192v180q-181 -190 -424 -190q-141 0 -268.5 61t-218 162t-144 237.5t-53.5 282.5t53 280.5t143.5 233.5t220 158t275.5 59q201 0 344.5 -84.5t218.5 -232.5l-176 -127q-59 116 -162 176.5t-231 60.5q-133 0 -238 -74.5t-160 -195t-55 -260.5 q0 -221 135 -375.5t334 -154.5q226 0 406 213v155h-305v170z" />
<glyph unicode="H" horiz-adv-x="1521" d="M1358 1454v-1454h-232v641h-733v-641h-229v1454h229v-608h733v608h232z" />
<glyph unicode="I" horiz-adv-x="557" d="M164 0v1454h229v-1454h-229z" />
<glyph unicode="J" horiz-adv-x="999" d="M76 256q39 -28 107.5 -50t152.5 -22q72 0 122 19.5t82 55.5t50 99t24.5 138.5t6.5 185.5v772h231v-739q0 -89 -3.5 -157.5t-12.5 -141t-26 -127t-43 -106.5t-64.5 -88t-89.5 -63.5t-119 -41t-152 -13.5q-189 0 -322 91z" />
<glyph unicode="K" horiz-adv-x="1351" d="M164 0v1452h229v-747l684 749h254l-573 -643l606 -811h-260l-492 666l-219 -228v-438h-229z" />
<glyph unicode="L" horiz-adv-x="1196" d="M164 0v1454h229v-1251h781v-203h-1010z" />
<glyph unicode="M" horiz-adv-x="1781" d="M1386 0v1036l-428 -786h-135l-430 786v-1036h-229v1454h246l481 -889l481 889h246v-1454h-232z" />
<glyph unicode="N" horiz-adv-x="1570" d="M393 1028v-1028h-229v1454h188l824 -1051v1049h231v-1452h-201z" />
<glyph unicode="O" d="M72 727q0 144 53.5 278.5t145.5 235.5t223 162t278 61q151 0 283 -64t220.5 -168.5t139.5 -237t51 -269.5q0 -144 -53.5 -278t-144.5 -235t-222 -161.5t-278 -60.5q-122 0 -232 40.5t-193.5 111.5t-145 164t-93.5 201.5t-32 219.5zM770 197q106 0 195 46t146 121.5 t88.5 169.5t31.5 193q0 103 -33.5 198.5t-92 169t-146 117t-189.5 43.5q-106 0 -195.5 -45.5t-147.5 -120.5t-90 -169t-32 -193q0 -138 55.5 -258t163.5 -196t246 -76z" />
<glyph unicode="P" horiz-adv-x="1275" d="M164 0v1454h610q126 0 231.5 -70t162.5 -178t57 -225q0 -91 -32 -177t-88.5 -152t-140 -106t-178.5 -40h-393v-506h-229zM393 709h379q96 0 157.5 77t61.5 195t-68 194t-163 76h-367v-542z" />
<glyph unicode="Q" horiz-adv-x="1536" d="M1466 725q0 -142 -50.5 -274t-143.5 -234l190 -217h-221l-94 106q-166 -116 -379 -116q-122 1 -232 41.5t-193.5 111.5t-145 163.5t-93.5 201t-32 219.5q0 144 53.5 278.5t145.5 235.5t223 162t278 61q151 0 283 -64t220.5 -168.5t139.5 -237t51 -269.5zM770 197 q134 0 238 71l-209 238h221l106 -121q105 148 105 342q0 103 -33.5 199t-92 169.5t-146 117.5t-189.5 44q-106 0 -195.5 -46t-147.5 -121t-90 -169.5t-32 -193.5q0 -138 55.5 -258t163.5 -196t246 -76z" />
<glyph unicode="R" horiz-adv-x="1353" d="M164 0v1454h633q95 0 180.5 -41t143.5 -108t92 -152t34 -172q0 -148 -78 -267.5t-206 -160.5l342 -553h-258l-316 506h-338v-506h-229zM393 709h402q95 0 157 79.5t62 192.5q0 111 -70 190.5t-162 79.5h-389v-542z" />
<glyph unicode="S" horiz-adv-x="1251" d="M1024 1112q-47 52 -160 100t-233 48q-142 0 -212.5 -52.5t-70.5 -148.5q0 -30 8 -54t20.5 -42.5t37.5 -35.5t49.5 -29t67 -25.5t79.5 -23t97 -24.5q96 -23 164 -45.5t131 -57t101 -77t60.5 -103.5t22.5 -139q0 -87 -27.5 -157t-75.5 -118t-116 -80.5t-146 -47t-168 -14.5 q-166 0 -321 50.5t-279 145.5l105 197q63 -65 205.5 -125.5t293.5 -60.5q136 0 209.5 48t73.5 138q0 36 -11 65t-38 52.5t-55.5 40.5t-81 35t-96 30t-117.5 31q-115 30 -190 61t-132.5 76t-83.5 106.5t-26 145.5q0 105 40.5 189.5t111.5 139.5t167 84t209 29q268 0 491 -164 z" />
<glyph unicode="T" horiz-adv-x="1261" d="M1231 1251h-483v-1251h-232v1251h-485v203h1200v-203z" />
<glyph unicode="U" d="M770 -10q-135 0 -242.5 40t-178.5 107t-118 161.5t-67.5 198t-20.5 220.5v737h230v-737q0 -83 12 -156.5t41.5 -141.5t73.5 -116t113 -77t157 -29q89 0 158.5 29.5t113.5 78.5t73 117t40.5 140.5t11.5 154.5v737h232v-737q0 -153 -36 -281.5t-109.5 -230t-197 -158.5 t-286.5 -57z" />
<glyph unicode="V" horiz-adv-x="1388" d="M256 1454l438 -1173l436 1173h244l-571 -1454h-217l-574 1454h244z" />
<glyph unicode="W" horiz-adv-x="2152" d="M680 1448h215l180 -494l182 494h216l-250 -647l217 -535l452 1188h252l-596 -1454h-198l-273 651l-274 -651h-201l-594 1454h250l455 -1188l217 535z" />
<glyph unicode="X" horiz-adv-x="1312" d="M256 1454l401 -571l402 571h254l-525 -737l508 -717h-254l-385 551l-385 -551h-256l508 717l-524 737h256z" />
<glyph unicode="Y" horiz-adv-x="1345" d="M270 1454l402 -723l405 723h252l-543 -934v-520h-229v524l-539 930h252z" />
<glyph unicode="Z" horiz-adv-x="1288" d="M63 176l879 1075h-858v203h1130v-176l-856 -1075h859v-203h-1154v176z" />
<glyph unicode="[" horiz-adv-x="598" d="M170 -82v1598h334v-183h-125v-1233h125v-182h-334z" />
<glyph unicode="\" horiz-adv-x="1253" d="M307 1454l891 -1454h-250l-893 1454h252z" />
<glyph unicode="]" horiz-adv-x="598" d="M94 -82v182h125v1233h-125v183h334v-1598h-334z" />
<glyph unicode="^" horiz-adv-x="1165" d="M84 621l405 833h189l403 -833h-188l-309 639l-316 -639h-184z" />
<glyph unicode="_" horiz-adv-x="1003" d="M121 -203v203h762v-203h-762z" />
<glyph unicode="`" horiz-adv-x="497" d="M96 1495h215l117 -225l-143 -45z" />
<glyph unicode="a" horiz-adv-x="1155" d="M57 313q0 153 127 246.5t330 93.5q163 0 279 -43v68q0 113 -69 176.5t-194 63.5q-86 0 -166 -30t-174 -91l-75 151q213 142 440 142q217 0 340 -114.5t123 -322.5v-399q0 -38 13.5 -55.5t45.5 -18.5v-180q-54 -10 -96 -10q-68 0 -106.5 33t-45.5 83l-6 62 q-69 -89 -176.5 -138.5t-220.5 -49.5q-160 0 -264.5 95.5t-104.5 237.5zM739 248q54 54 54 100v123q-118 45 -246 45q-124 0 -200.5 -50t-76.5 -134q0 -76 58.5 -131.5t160.5 -55.5q70 0 138 29t112 74z" />
<glyph unicode="b" horiz-adv-x="1286" d="M334 195v-195h-199v1495h225v-627q65 105 162 163.5t221 58.5q105 0 195 -46t151 -123.5t95.5 -179t34.5 -211.5q0 -151 -66 -277t-182.5 -199.5t-257.5 -73.5q-121 0 -221 57.5t-158 157.5zM987 530q0 149 -90.5 258t-226.5 109q-99 0 -182 -65.5t-128 -165.5v-283 q24 -89 113 -150t180 -61q144 0 239 106.5t95 251.5z" />
<glyph unicode="c" horiz-adv-x="1144" d="M621 -20q-162 0 -290.5 77t-196.5 203.5t-68 276.5q0 113 39.5 213.5t110.5 176t176 119.5t229 44q162 0 282 -72t182 -195l-219 -69q-38 67 -104 105t-146 38q-136 0 -227.5 -101.5t-91.5 -258.5q0 -154 94 -259.5t227 -105.5q83 0 156 42.5t98 104.5l222 -65 q-54 -123 -181 -198.5t-292 -75.5z" />
<glyph unicode="d" horiz-adv-x="1304" d="M68 535q0 152 61 278.5t172.5 201.5t249.5 75q119 0 219 -61.5t158 -160.5v627h225v-1241q0 -39 14 -56t47 -18v-180q-59 -10 -98 -10q-63 0 -106.5 36t-46.5 89l-2 80q-61 -101 -164 -158t-219 -57q-145 0 -262.5 75.5t-182.5 202t-65 277.5zM928 385v281 q-35 97 -126 164t-184 67q-92 0 -165.5 -52.5t-112.5 -136t-39 -178.5q0 -149 96.5 -253.5t237.5 -104.5q91 0 180.5 62.5t112.5 150.5z" />
<glyph unicode="e" horiz-adv-x="1218" d="M621 -20q-163 0 -291 76t-196 201t-68 275q0 113 40.5 215t111.5 178t176.5 120.5t228.5 44.5t226.5 -45t173 -120.5t108 -174.5t38.5 -207q0 -28 -6 -82h-858q10 -139 103.5 -227.5t220.5 -88.5q92 0 171 45.5t109 118.5l193 -55q-57 -123 -186 -198.5t-295 -75.5z M299 610h647q-12 139 -103.5 226.5t-221.5 87.5q-129 0 -221 -88.5t-101 -225.5z" />
<glyph unicode="f" horiz-adv-x="729" d="M197 0v870h-144v174h144v43q0 197 92.5 313t249.5 116q127 0 249 -66l-49 -168q-71 43 -153 43q-80 0 -122 -59.5t-42 -171.5v-50h274v-174h-274v-870h-225z" />
<glyph unicode="g" horiz-adv-x="1288" d="M70 535q0 152 62.5 278.5t177 201.5t257.5 75q124 0 222.5 -59.5t164.5 -162.5v203h199v-1040q0 -151 -75 -263t-203 -168.5t-291 -56.5q-324 0 -494 230l127 118q60 -85 157.5 -130.5t209.5 -45.5q95 0 171 32.5t124.5 106t48.5 177.5v164q-56 -95 -156.5 -150 t-212.5 -55q-140 0 -253.5 76t-174.5 200t-61 269zM928 385v281q-40 101 -128 166t-184 65q-94 0 -168 -54.5t-111.5 -138t-37.5 -176.5q0 -147 97 -251.5t237 -104.5q99 0 184.5 63t110.5 150z" />
<glyph unicode="h" horiz-adv-x="1222" d="M1096 0h-226v600q0 144 -52 216.5t-150 72.5q-94 0 -184.5 -72t-123.5 -180v-637h-225v1495h225v-639q62 109 168 171.5t230 62.5q338 0 338 -437v-653z" />
<glyph unicode="i" horiz-adv-x="495" d="M135 1247v248h225v-248h-225zM135 0v1071h225v-1071h-225z" />
<glyph unicode="j" horiz-adv-x="507" d="M147 1247v248h226v-248h-226zM-236 -299l101 152q51 -48 131 -48q61 0 106 45t45 111v1110h226v-1094q0 -160 -102.5 -264t-247.5 -104q-157 0 -259 92z" />
<glyph unicode="k" horiz-adv-x="1122" d="M881 0l-344 494l-177 -168v-326h-225v1495h225v-942l496 516h242l-416 -448l438 -621h-239z" />
<glyph unicode="l" horiz-adv-x="616" d="M137 1495h225v-1186q0 -76 22 -101.5t65 -25.5q76 0 139 29l33 -178q-49 -22 -116 -35.5t-122 -13.5q-116 0 -181 64t-65 179v1268z" />
<glyph unicode="m" horiz-adv-x="1898" d="M1774 0h-226v600q0 289 -192 289q-95 0 -175 -70.5t-114 -183.5v-635h-225v600q0 289 -191 289q-95 0 -176 -70t-115 -182v-637h-225v1071h205v-215q63 113 167 173.5t236 60.5q127 0 206.5 -67.5t99.5 -176.5q68 119 170.5 181.5t232.5 62.5q322 0 322 -437v-653z" />
<glyph unicode="n" horiz-adv-x="1222" d="M1096 0h-226v600q0 149 -47.5 219t-142.5 70q-98 0 -191.5 -72.5t-128.5 -179.5v-637h-225v1071h205v-215q62 108 179 171t257 63q75 0 131.5 -23t92 -62t57.5 -96.5t30.5 -119t8.5 -136.5v-653z" />
<glyph unicode="o" horiz-adv-x="1232" d="M66 535q0 111 40 212t110 177t174.5 121t225.5 45q162 0 289.5 -77t194.5 -203t67 -275t-67 -275t-194.5 -203t-289.5 -77q-123 0 -227.5 45t-174.5 121t-109 177t-39 212zM616 172q134 0 227 105t93 258t-93 257.5t-227 104.5q-133 0 -226 -106t-93 -259 q0 -154 92.5 -257t226.5 -103z" />
<glyph unicode="p" horiz-adv-x="1286" d="M360 201v-637h-225v1507h199v-192q63 98 161.5 154.5t217.5 56.5q107 0 202 -45t161 -120t104.5 -176.5t38.5 -211.5q0 -154 -60 -281t-169.5 -201.5t-246.5 -74.5q-125 0 -224.5 59.5t-158.5 161.5zM987 537q0 150 -96 255t-238 105q-90 0 -179.5 -62t-113.5 -149v-280 q42 -101 128 -167.5t182 -66.5q92 0 165.5 52.5t112.5 135.5t39 177z" />
<glyph unicode="q" horiz-adv-x="1286" d="M70 537q0 151 65.5 277.5t181 201t256.5 74.5q120 0 219.5 -58t159.5 -155v194h199v-1507h-225v637q-134 -221 -383 -221q-136 0 -245.5 76.5t-168.5 203.5t-59 277zM926 377v282q-20 95 -112 166.5t-189 71.5q-92 0 -168 -52.5t-117 -136.5t-41 -178q0 -150 92.5 -254 t233.5 -104q185 0 301 205z" />
<glyph unicode="r" horiz-adv-x="765" d="M737 877q-132 -3 -233.5 -61.5t-143.5 -160.5v-655h-225v1071h209v-240q56 110 145.5 177t190.5 73q43 0 57 -2v-202z" />
<glyph unicode="s" horiz-adv-x="1005" d="M516 -20q-137 0 -257.5 45t-205.5 131l84 151q178 -155 371 -155q97 0 155 36.5t58 104.5q0 16 -3 30t-11.5 25.5t-16.5 20t-24.5 17t-29 14t-36.5 13.5t-40 12.5t-47.5 13t-51.5 14.5q-94 29 -152.5 54t-106 60t-68.5 82t-21 111q0 153 116 241.5t306 88.5 q243 0 391 -148l-97 -149q-139 127 -307 127q-85 0 -141.5 -32t-56.5 -104q0 -26 10 -46t24 -33.5t46.5 -28t59 -23t79.5 -24.5q48 -14 79 -23.5t70.5 -23t64 -24.5t53.5 -27t46.5 -31.5t35.5 -36t27 -43t15 -50.5t6 -61q0 -154 -115 -241.5t-309 -87.5z" />
<glyph unicode="t" horiz-adv-x="751" d="M731 55q-150 -71 -280 -71q-114 0 -187.5 60.5t-73.5 182.5v670h-141v174h141v352h226v-352h233v-174h-233v-598q3 -54 34 -81.5t80 -27.5q71 0 154 43z" />
<glyph unicode="u" horiz-adv-x="1247" d="M125 416v655h225v-610q0 -143 52 -216t153 -73q98 0 183.5 60.5t131.5 170.5v668h226v-817q0 -39 14 -56t47 -18v-180q-59 -10 -100 -10q-62 0 -104 33.5t-46 87.5l-4 106q-71 -115 -185.5 -176t-252.5 -61q-167 0 -253.5 110.5t-86.5 325.5z" />
<glyph unicode="v" horiz-adv-x="1114" d="M434 0l-407 1071h233l305 -862l305 862h217l-407 -1071h-246z" />
<glyph unicode="w" horiz-adv-x="1699" d="M1470 1071h216l-451 -1071h-193l-192 483l-193 -483h-192l-453 1071h215l344 -852l152 395l-184 455h190l121 -334l119 334h190l-182 -455l151 -395z" />
<glyph unicode="x" horiz-adv-x="1069" d="M262 1071l254 -366l19 -35l18 35l252 366h244l-385 -536l389 -535h-244l-256 365l-18 32l-19 -32l-256 -365h-244l390 532l-386 539h242z" />
<glyph unicode="y" horiz-adv-x="1120" d="M172 -252q72 -14 109 -14q52 0 85.5 50.5t92.5 215.5l-441 1071h236l328 -842l290 842h218l-486 -1319q-34 -96 -117.5 -156.5t-203.5 -60.5q-54 0 -111 16v197z" />
<glyph unicode="z" horiz-adv-x="1009" d="M57 141l635 770h-612v160h858v-141l-631 -770h637v-160h-887v141z" />
<glyph unicode="{" horiz-adv-x="600" d="M389 1333v-459q0 -78 -65 -137q30 -27 47.5 -64.5t17.5 -72.5v-481h113v-182h-271q-17 0 -32 14.5t-15 46.5v532q0 49 -27 85t-67 44v160q40 0 67 41.5t27 83.5v510q0 33 15.5 47.5t31.5 14.5h271v-183h-113z" />
<glyph unicode="|" horiz-adv-x="524" d="M166 -266v1853h192v-1853h-192z" />
<glyph unicode="}" horiz-adv-x="600" d="M100 1333v183h269q15 0 31 -14.5t16 -47.5v-510q0 -42 27 -83.5t67 -41.5v-160q-41 -8 -67.5 -44t-26.5 -85v-532q0 -32 -15 -46.5t-32 -14.5h-269v182h113v481q0 36 16 73.5t47 63.5q-63 57 -63 137v459h-113z" />
<glyph unicode="~" horiz-adv-x="1124" d="M385 725q47 0 96.5 -17.5t85 -39t81.5 -39t85 -17.5q31 0 57 10t41 24.5t25 30.5t14 26t4 14h130q0 -9 -8 -33t-29 -60.5t-50 -69t-78.5 -56t-107.5 -23.5q-48 0 -99 17.5t-87 39t-80.5 39t-81.5 17.5q-30 0 -54 -11.5t-38 -27t-23.5 -33t-12.5 -28t-3 -13.5h-127 q0 15 8 42t28 63.5t48 68.5t74.5 54t101.5 22z" />
<glyph unicode="&#xa1;" horiz-adv-x="577" d="M401 1460v-280h-225v280h225zM401 942v-950h-225v950h225z" />
<glyph unicode="&#xa2;" horiz-adv-x="1187" d="M565 -246v228q-137 11 -249 93t-172 202.5t-60 250.5q0 139 55.5 258t166.5 200.5t259 100.5v234h107v-234q146 -4 257.5 -72.5t174.5 -191.5l-217 -69q-36 62 -92.5 96t-122.5 39v-711q69 8 135.5 47t85.5 94l219 -65q-35 -86 -115 -150.5t-165 -94t-160 -29.5v-226 h-107zM565 188v693q-114 -18 -182 -121t-68 -232q0 -121 70.5 -217.5t179.5 -122.5z" />
<glyph unicode="&#xa3;" horiz-adv-x="1081" d="M946 197l55 -168q-110 -60 -231 -60q-61 0 -180 28t-184 28q-115 0 -246 -41l-54 161q120 106 176 203.5t56 196.5q0 21 -4 57h-221v172h163q-9 19 -39.5 78.5t-42.5 87t-25 75.5t-13 91q0 149 118.5 253.5t286.5 104.5q118 0 225.5 -57.5t178.5 -157.5l-121 -139 q-49 76 -129 123t-158 47q-85 0 -141 -56t-56 -139q0 -46 17.5 -93t54 -115t51.5 -103h373v-172h-324q3 -21 3 -47q0 -97 -43 -183.5t-146 -195.5q90 23 154 23q53 0 144 -18.5t138 -18.5q64 0 164 35z" />
<glyph unicode="&#xa4;" horiz-adv-x="1116" d="M338 1006q94 65 221 65q122 0 219 -65l144 145l98 -96l-146 -144q68 -96 68 -221q0 -123 -70 -221l148 -143l-88 -86l-150 139q-98 -68 -223 -68q-126 0 -227 68l-150 -139l-86 86l146 145q-68 100 -68 219q0 125 66 219l-144 146l97 96zM559 459q88 0 148.5 67t60.5 166 t-60.5 164.5t-148.5 65.5t-148.5 -66.5t-60.5 -167.5q0 -97 60.5 -163t148.5 -66z" />
<glyph unicode="&#xa5;" horiz-adv-x="1431" d="M979 797h158v-150h-238l-72 -127v-59h312v-150h-312v-311h-231v311h-307v150h307v63l-68 123h-239v150h162l-392 657h252l402 -729l405 729h252z" />
<glyph unicode="&#xa6;" horiz-adv-x="528" d="M360 1587v-817h-192v817h192zM360 551v-817h-192v817h192z" />
<glyph unicode="&#xa7;" horiz-adv-x="1073" d="M987 215q0 -81 -28 -148.5t-73 -112t-103.5 -76t-118 -45t-117.5 -13.5q-73 0 -142.5 19.5t-124 52.5t-93 64.5t-70.5 66.5l145 139q124 -127 275 -127q87 0 152 46.5t65 125.5q0 34 -12.5 59t-30.5 39t-47 23t-52.5 12.5t-56.5 5.5q-194 12 -305 104.5t-111 247.5 q0 95 45 160q-38 33 -65 94.5t-27 137.5q0 155 125.5 264.5t294.5 109.5q81 0 149.5 -21t119 -58.5t83.5 -72t64 -79.5l-174 -82q-31 55 -92.5 84t-135.5 29q-86 0 -146.5 -47.5t-60.5 -124.5q0 -85 54.5 -119.5t152.5 -36.5q63 -1 122 -12.5t116 -36.5t99 -62.5t67.5 -95 t25.5 -129.5q0 -55 -14.5 -102t-34.5 -72q80 -64 80 -211zM696 483q21 17 34 48.5t13 64.5q0 42 -19.5 74.5t-51 49.5t-66.5 25.5t-71 8.5q-90 0 -136 22q-41 -38 -41 -106q0 -55 24.5 -90t65.5 -49t83 -20t91 -12t74 -16z" />
<glyph unicode="&#xa8;" horiz-adv-x="841" d="M145 1260v225h189v-225h-189zM508 1260v225h188v-225h-188z" />
<glyph unicode="&#xa9;" horiz-adv-x="1716" d="M92 727q0 156 58 293t158.5 234.5t242 153.5t303.5 56q163 0 306.5 -56t245.5 -153.5t161 -234.5t59 -293q0 -157 -59 -294.5t-161 -235.5t-245.5 -154.5t-306.5 -56.5q-162 0 -303.5 56.5t-242 154.5t-158.5 235.5t-58 294.5zM1520 723q0 180 -86.5 327.5t-239 231.5 t-340.5 84q-138 0 -260.5 -49.5t-209 -135t-137 -204t-50.5 -252.5q0 -133 50 -251.5t136.5 -204t209 -135.5t261.5 -50q185 0 337 80.5t240.5 227t88.5 331.5zM373 727q0 73 19 142t59 131t97 108t138 73t176 27q150 0 262.5 -65.5t165.5 -181.5l-215 -68q-32 67 -90.5 96 t-122.5 29q-122 0 -192 -85.5t-70 -205.5q0 -130 82 -209.5t184 -79.5q66 0 127.5 35t91.5 94l215 -65q-44 -102 -159.5 -178t-270.5 -76q-213 0 -355 135.5t-142 343.5z" />
<glyph unicode="&#xaa;" horiz-adv-x="903" d="M88 930q0 104 85.5 169.5t219.5 65.5q107 0 185 -32v45q0 76 -43 117.5t-125 41.5q-103 0 -230 -82l-53 109q143 94 299 94q154 0 239 -78t85 -223v-242q0 -27 11 -39t36 -14v-149q-41 -8 -76 -8q-100 0 -113 86l-2 43q-104 -134 -272 -134q-104 0 -175 66t-71 164z M551 895q27 21 27 53v88q-65 29 -154 29q-77 0 -125.5 -33.5t-48.5 -87.5q0 -50 38 -83.5t95 -33.5q51 0 96.5 18.5t71.5 49.5z" />
<glyph unicode="&#xab;" horiz-adv-x="1271" d="M78 582l528 379v-187l-348 -244l348 -235v-184l-528 358v113zM621 582l530 379v-187l-350 -244l350 -235v-184l-530 358v113z" />
<glyph unicode="&#xac;" horiz-adv-x="1230" d="M1092 793v-562h-193v359h-770v203h963z" />
<glyph unicode="&#xad;" horiz-adv-x="1212" d="M125 459v203h962v-203h-962z" />
<glyph unicode="&#xae;" horiz-adv-x="1716" d="M92 727q0 156 58 293t158.5 234.5t243 153.5t304.5 56q163 0 306 -56t244.5 -153.5t160.5 -234.5t59 -293q0 -157 -59 -294.5t-160.5 -235.5t-244.5 -154.5t-306 -56.5q-162 0 -304.5 56.5t-243 154.5t-158.5 235.5t-58 294.5zM1516 725q0 133 -50 251.5t-137 204 t-210 135.5t-263 50q-186 0 -336 -85t-233.5 -231t-83.5 -323q0 -179 83.5 -326.5t233.5 -233t336 -85.5q184 0 334.5 81t238 228.5t87.5 333.5zM532 1182h396q79 0 145 -44t101.5 -112t35.5 -141q0 -91 -50.5 -166t-131.5 -101l219 -346h-182l-201 318h-170v-318h-162v910z M918 729q62 0 97.5 42.5t35.5 113.5t-40 113t-100 42h-217v-311h224z" />
<glyph unicode="&#xaf;" horiz-adv-x="841" d="M119 1319v143h606v-143h-606z" />
<glyph unicode="&#xb0;" horiz-adv-x="569" d="M285 1483q84 0 139 -54.5t55 -136.5q0 -89 -54.5 -144.5t-139.5 -55.5q-83 0 -139 57t-56 143q0 82 56 136.5t139 54.5zM203 1288q0 -33 24 -57q22 -25 58 -25q38 0 57 25q25 25 25 57q0 29 -25 58q-16 22 -57 22q-36 0 -58 -22q-24 -27 -24 -58z" />
<glyph unicode="&#xb1;" horiz-adv-x="960" d="M831 854v-182h-249v-271h-203v271h-250v182h250v268h203v-268h249zM129 82v182h700v-182h-700z" />
<glyph unicode="&#xb2;" horiz-adv-x="831" d="M66 809q0 159 59.5 245.5t204.5 145.5q15 6 53.5 20t57 22t49.5 22t47.5 27t34.5 30.5t26 38.5t8 45q0 59 -49.5 95t-138.5 36q-152 0 -256 -109l-88 99q37 47 133 93t229 46q155 0 238.5 -70t83.5 -188q0 -50 -19.5 -92.5t-46 -69t-68 -50t-72 -35t-71.5 -23.5 q-194 -63 -194 -195h461v-133h-682z" />
<glyph unicode="&#xb3;" horiz-adv-x="819" d="M61 965l76 94q17 -47 86 -87t166 -40q92 0 153.5 33t61.5 90q0 62 -74.5 94.5t-212.5 32.5h-49v125h47q260 0 260 114q0 57 -55.5 88t-132.5 31q-160 0 -233 -104l-88 104q41 58 132 91.5t193 33.5q146 0 240 -66t94 -167q0 -70 -47 -117t-135 -64q93 -13 149 -73.5 t56 -143.5q0 -77 -50.5 -132t-129 -80t-173.5 -25q-129 0 -219.5 44.5t-114.5 123.5z" />
<glyph unicode="&#xb4;" horiz-adv-x="497" d="M244 1225l-148 45l117 225h215z" />
<glyph unicode="&#xb5;" horiz-adv-x="1320" d="M158 1071h225v-610q0 -289 209 -289q95 0 181 61t132 170v668h225v-805q0 -38 15.5 -54.5t50.5 -18.5v-193q-61 -10 -104 -10q-65 0 -107 37t-45 92l-2 98q-44 -93 -146.5 -165t-211.5 -72q-81 0 -134.5 40.5t-74.5 98.5l12 -553h-225v1505z" />
<glyph unicode="&#xb6;" horiz-adv-x="1304" d="M649 1454h563v-172h-143v-1446h-192v606h-121v-606h-195v606q-223 3 -356 139t-133 363q0 242 151.5 376t425.5 134zM561 614v668q-143 -3 -222 -93t-79 -241t85.5 -237.5t215.5 -96.5zM877 1282h-121v-668h121v668z" />
<glyph unicode="&#xb7;" horiz-adv-x="436" d="M125 498v280h186v-280h-186z" />
<glyph unicode="&#xb8;" horiz-adv-x="634" d="M305 -395q-127 0 -242 59l58 121q78 -43 145 -43q58 0 90.5 24.5t32.5 71.5q0 46 -31.5 84t-95.5 78l78 53q93 -59 140.5 -117.5t47.5 -138.5q0 -88 -58.5 -140t-164.5 -52z" />
<glyph unicode="&#xb9;" horiz-adv-x="591" d="M549 944v-135h-449v135h162v572q-25 -32 -86.5 -67.5t-107.5 -35.5v137q24 0 52.5 11.5t52.5 27.5t44.5 33t32 29t12.5 14h137v-721h150z" />
<glyph unicode="&#xba;" horiz-adv-x="913" d="M80 1077q0 160 104 270.5t273 110.5t273 -110.5t104 -270.5q0 -156 -104.5 -266.5t-272.5 -110.5t-272.5 110.5t-104.5 266.5zM457 848q85 0 143.5 66t58.5 165t-58.5 164.5t-143.5 65.5t-144 -66.5t-59 -165.5q0 -98 59 -163.5t144 -65.5z" />
<glyph unicode="&#xbb;" horiz-adv-x="1271" d="M651 469l-528 -358v184l348 235l-348 244v187l528 -379v-113zM1194 469l-528 -358v184l350 235l-350 244v187l528 -379v-113z" />
<glyph unicode="&#xbc;" horiz-adv-x="1748" d="M549 776v-135h-449v135h162v572q-25 -32 -86.5 -67.5t-107.5 -35.5v135q24 0 52.5 11.5t52.5 28t44.5 33.5t32 29.5t12.5 14.5h137v-721h150zM168 82l575 682l541 702l107 -92l-566 -674l-553 -712zM1430 0v203h-455v127l500 518h98v-520h119v-125h-119v-203h-143z M1112 328h322v338z" />
<glyph unicode="&#xbd;" horiz-adv-x="1783" d="M549 776v-135h-449v135h162v572q-25 -32 -86.5 -67.5t-107.5 -35.5v135q24 0 52.5 11.5t52.5 28t44.5 33.5t32 29.5t12.5 14.5h137v-721h150zM168 82l575 682l541 702l107 -92l-566 -674l-553 -712zM1032 0q0 159 58 245.5t198 145.5q18 7 61.5 24t64.5 26t54 27t49 34 t29 40t13 52q0 60 -49 96.5t-136 36.5q-151 0 -248 -111l-86 101q36 48 129.5 93.5t223.5 45.5q151 0 232 -70t81 -190q0 -50 -18.5 -92t-44 -68.5t-66 -49.5t-70 -34t-69.5 -24q-191 -62 -191 -195h461v-133h-676z" />
<glyph unicode="&#xbe;" horiz-adv-x="1976" d="M61 797l76 94q17 -47 86 -87t166 -40q92 0 153.5 33t61.5 90q0 62 -74.5 94.5t-212.5 32.5h-49v125h47q260 0 260 114q0 55 -56 87t-132 32q-160 0 -233 -104l-88 104q41 58 132 91.5t193 33.5q145 0 239.5 -66.5t94.5 -166.5q0 -70 -47 -117t-135 -64q93 -13 149 -73.5 t56 -143.5q0 -77 -50.5 -132.5t-129 -81t-173.5 -25.5q-128 0 -218.5 45.5t-115.5 124.5zM395 82l576 682l540 702l107 -92l-565 -674l-553 -712zM1657 0v203h-455v127l500 518h98v-520h119v-125h-119v-203h-143zM1339 328h322v338z" />
<glyph unicode="&#xbf;" horiz-adv-x="974" d="M700 1036v-258h-186v258h186zM707 584q0 -112 -38.5 -192.5t-131.5 -137.5q-11 -7 -51 -29t-62.5 -35.5t-57.5 -41t-54.5 -53t-34.5 -62.5t-15 -78q0 -95 66.5 -151t158.5 -56q90 0 161 52t114 128l147 -100q-55 -124 -171 -194t-257 -70q-80 0 -152 24t-132 70.5 t-95.5 125t-35.5 179.5q0 69 17 123.5t52 95.5t73 70t95 61q7 4 34 19.5t35.5 21t31.5 20.5t32 24l26 26t24 32t16 35t12.5 43.5t3.5 49.5h189z" />
<glyph unicode="&#xc0;" horiz-adv-x="1382" d="M459 1876h215l117 -225l-144 -45zM584 1454h217l565 -1454h-242l-153 395h-561l-152 -395h-244zM926 565l-234 637l-241 -637h475z" />
<glyph unicode="&#xc1;" horiz-adv-x="1382" d="M770 1604l-147 45l116 225h215zM584 1454h217l565 -1454h-242l-153 395h-561l-152 -395h-244zM926 565l-234 637l-241 -637h475z" />
<glyph unicode="&#xc2;" horiz-adv-x="1382" d="M399 1679l213 195h162l213 -195l-121 -57l-174 129l-174 -129zM584 1454h217l565 -1454h-242l-153 395h-561l-152 -395h-244zM926 565l-234 637l-241 -637h475z" />
<glyph unicode="&#xc3;" horiz-adv-x="1382" d="M557 1726q-32 0 -54 -13.5t-31 -33t-12 -32t-3 -19.5h-127q0 15 6 41t22.5 60.5t40 64t63 50t87.5 20.5q51 0 97 -22.5t88 -45t83 -22.5q28 0 49.5 10t33 23t18.5 28.5t8.5 24.5t1.5 14h129q0 -13 -6.5 -38t-24 -60t-42.5 -65t-67.5 -51.5t-93.5 -21.5q-53 0 -101 22 t-88.5 44t-76.5 22zM584 1454h217l565 -1454h-242l-153 395h-561l-152 -395h-244zM926 565l-234 637l-241 -637h475z" />
<glyph unicode="&#xc4;" horiz-adv-x="1382" d="M418 1640v226h188v-226h-188zM780 1640v226h189v-226h-189zM584 1454h217l565 -1454h-242l-153 395h-561l-152 -395h-244zM926 565l-234 637l-241 -637h475z" />
<glyph unicode="&#xc5;" horiz-adv-x="1382" d="M692 1915q92 0 148.5 -50.5t56.5 -133.5q0 -81 -56 -130t-149 -49q-90 0 -146.5 49t-56.5 130q0 83 56.5 133.5t146.5 50.5zM600 1731q0 -39 26.5 -66t65.5 -27t67.5 27t28.5 66q0 43 -27 68.5t-69 25.5q-39 0 -65.5 -25.5t-26.5 -68.5zM584 1454h217l565 -1454h-242 l-153 395h-561l-152 -395h-244zM926 565l-234 637l-241 -637h475z" />
<glyph unicode="&#xc6;" horiz-adv-x="1972" d="M866 1454h1016v-203h-725v-409h615v-203h-615v-436h744v-203h-973v395h-490l-241 -395h-248zM911 600v590l-372 -590h372z" />
<glyph unicode="&#xc7;" horiz-adv-x="1400" d="M1352 326q-56 -134 -193 -221.5t-299 -110.5q105 -88 105 -197q0 -88 -59 -140t-165 -52q-126 0 -241 59l57 121q78 -43 145 -43q58 0 90.5 24.5t32.5 71.5q0 80 -110 152q-139 11 -260.5 80t-204.5 173t-130.5 233t-47.5 261q0 106 30 210.5t90.5 197t143.5 163.5 t197 112.5t243 41.5q191 0 335.5 -86.5t217.5 -230.5l-180 -121q-29 63 -73 109.5t-96 72t-104.5 37.5t-107.5 12q-88 0 -164 -30.5t-130 -81.5t-93 -119t-57.5 -143t-18.5 -152q0 -141 59.5 -263t168.5 -196.5t241 -74.5q75 0 146.5 23.5t138 79t102.5 136.5z" />
<glyph unicode="&#xc8;" horiz-adv-x="1234" d="M442 1876h215l117 -225l-143 -45zM1161 203v-203h-997v1454h979v-203h-750v-413h649v-191h-649v-444h768z" />
<glyph unicode="&#xc9;" horiz-adv-x="1234" d="M754 1604l-148 45l117 225h215zM1161 203v-203h-997v1454h979v-203h-750v-413h649v-191h-649v-444h768z" />
<glyph unicode="&#xca;" horiz-adv-x="1234" d="M383 1679l213 195h162l213 -195l-121 -57l-174 129l-174 -129zM1161 203v-203h-997v1454h979v-203h-750v-413h649v-191h-649v-444h768z" />
<glyph unicode="&#xcb;" horiz-adv-x="1234" d="M401 1640v226h189v-226h-189zM764 1640v226h188v-226h-188zM1161 203v-203h-997v1454h979v-203h-750v-413h649v-191h-649v-444h768z" />
<glyph unicode="&#xcc;" horiz-adv-x="557" d="M45 1876h215l117 -225l-144 -45zM164 0v1454h229v-1454h-229z" />
<glyph unicode="&#xcd;" horiz-adv-x="557" d="M356 1604l-147 45l117 225h215zM164 0v1454h229v-1454h-229z" />
<glyph unicode="&#xce;" horiz-adv-x="557" d="M-14 1679l213 195h161l213 -195l-120 -57l-174 129l-175 -129zM164 0v1454h229v-1454h-229z" />
<glyph unicode="&#xcf;" horiz-adv-x="557" d="M4 1640v226h189v-226h-189zM367 1640v226h188v-226h-188zM164 0v1454h229v-1454h-229z" />
<glyph unicode="&#xd0;" horiz-adv-x="1478" d="M692 1454q171 0 307.5 -56.5t223.5 -156t132.5 -230t45.5 -282.5q0 -330 -193.5 -529.5t-515.5 -199.5h-516v645h-108v172h108v637h516zM692 203q150 0 258.5 69.5t162.5 187.5t54 269q0 233 -126.5 377.5t-348.5 144.5h-286v-434h309v-172h-309v-442h286z" />
<glyph unicode="&#xd1;" horiz-adv-x="1570" d="M651 1726q-32 0 -54 -13.5t-31 -33t-12 -32t-3 -19.5h-127q0 15 6 41t22.5 60.5t40 64t63 50t87.5 20.5q51 0 97 -22.5t88 -45t83 -22.5q28 0 49.5 10t33 23t18.5 28.5t8.5 24.5t1.5 14h129q0 -13 -6.5 -38t-23.5 -60t-42 -65t-67.5 -51.5t-93.5 -21.5q-53 0 -101 22 t-89 44t-77 22zM393 1028v-1028h-229v1454h188l824 -1051v1049h231v-1452h-201z" />
<glyph unicode="&#xd2;" d="M539 1876h215l116 -225l-143 -45zM72 727q0 144 53.5 278.5t145.5 235.5t223 162t278 61q151 0 283 -64t220.5 -168.5t139.5 -237t51 -269.5q0 -144 -53.5 -278t-144.5 -235t-222 -161.5t-278 -60.5q-122 0 -232 40.5t-193.5 111.5t-145 164t-93.5 201.5t-32 219.5z M770 197q106 0 195 46t146 121.5t88.5 169.5t31.5 193q0 103 -33.5 198.5t-92 169t-146 117t-189.5 43.5q-106 0 -195.5 -45.5t-147.5 -120.5t-90 -169t-32 -193q0 -138 55.5 -258t163.5 -196t246 -76z" />
<glyph unicode="&#xd3;" d="M850 1604l-148 45l117 225h215zM72 727q0 144 53.5 278.5t145.5 235.5t223 162t278 61q151 0 283 -64t220.5 -168.5t139.5 -237t51 -269.5q0 -144 -53.5 -278t-144.5 -235t-222 -161.5t-278 -60.5q-122 0 -232 40.5t-193.5 111.5t-145 164t-93.5 201.5t-32 219.5z M770 197q106 0 195 46t146 121.5t88.5 169.5t31.5 193q0 103 -33.5 198.5t-92 169t-146 117t-189.5 43.5q-106 0 -195.5 -45.5t-147.5 -120.5t-90 -169t-32 -193q0 -138 55.5 -258t163.5 -196t246 -76z" />
<glyph unicode="&#xd4;" d="M479 1679l213 195h162l213 -195l-121 -57l-174 129l-174 -129zM72 727q0 144 53.5 278.5t145.5 235.5t223 162t278 61q151 0 283 -64t220.5 -168.5t139.5 -237t51 -269.5q0 -144 -53.5 -278t-144.5 -235t-222 -161.5t-278 -60.5q-122 0 -232 40.5t-193.5 111.5t-145 164 t-93.5 201.5t-32 219.5zM770 197q106 0 195 46t146 121.5t88.5 169.5t31.5 193q0 103 -33.5 198.5t-92 169t-146 117t-189.5 43.5q-106 0 -195.5 -45.5t-147.5 -120.5t-90 -169t-32 -193q0 -138 55.5 -258t163.5 -196t246 -76z" />
<glyph unicode="&#xd5;" d="M637 1726q-32 0 -54 -13.5t-31 -33t-12 -32t-3 -19.5h-127q0 15 6 41t22.5 60.5t40 64t63 50t87.5 20.5q51 0 97 -22.5t88 -45t83 -22.5q28 0 49.5 10t33 23t18.5 28.5t8.5 24.5t1.5 14h129q0 -13 -6.5 -38t-24 -60t-42.5 -65t-67.5 -51.5t-93.5 -21.5q-53 0 -101 22 t-88.5 44t-76.5 22zM72 727q0 144 53.5 278.5t145.5 235.5t223 162t278 61q151 0 283 -64t220.5 -168.5t139.5 -237t51 -269.5q0 -144 -53.5 -278t-144.5 -235t-222 -161.5t-278 -60.5q-122 0 -232 40.5t-193.5 111.5t-145 164t-93.5 201.5t-32 219.5zM770 197q106 0 195 46 t146 121.5t88.5 169.5t31.5 193q0 103 -33.5 198.5t-92 169t-146 117t-189.5 43.5q-106 0 -195.5 -45.5t-147.5 -120.5t-90 -169t-32 -193q0 -138 55.5 -258t163.5 -196t246 -76z" />
<glyph unicode="&#xd6;" d="M498 1640v226h188v-226h-188zM860 1640v226h189v-226h-189zM72 727q0 144 53.5 278.5t145.5 235.5t223 162t278 61q151 0 283 -64t220.5 -168.5t139.5 -237t51 -269.5q0 -144 -53.5 -278t-144.5 -235t-222 -161.5t-278 -60.5q-122 0 -232 40.5t-193.5 111.5t-145 164 t-93.5 201.5t-32 219.5zM770 197q106 0 195 46t146 121.5t88.5 169.5t31.5 193q0 103 -33.5 198.5t-92 169t-146 117t-189.5 43.5q-106 0 -195.5 -45.5t-147.5 -120.5t-90 -169t-32 -193q0 -138 55.5 -258t163.5 -196t246 -76z" />
<glyph unicode="&#xd7;" horiz-adv-x="962" d="M848 336l-141 -139l-226 223l-225 -223l-139 141l221 223l-215 219l141 140l217 -218l219 220l140 -142l-217 -219z" />
<glyph unicode="&#xd8;" horiz-adv-x="1538" d="M1255 1253q100 -106 155.5 -244.5t55.5 -283.5q0 -144 -53.5 -278t-144.5 -235t-222 -161.5t-278 -60.5q-173 0 -324 82l-49 -72h-250l138 199q-100 104 -155.5 243t-55.5 285q0 144 53.5 278.5t145.5 235.5t223 162t278 61q174 0 320 -84l51 74h250zM305 727 q0 -194 105 -342l563 819q-91 51 -203 51q-106 0 -195.5 -45.5t-147.5 -120.5t-90 -169t-32 -193zM770 197q106 0 195 46t146 121.5t88.5 169.5t31.5 193q0 195 -105 340l-561 -819q91 -51 205 -51z" />
<glyph unicode="&#xd9;" d="M537 1876h215l116 -225l-143 -45zM770 -10q-135 0 -242.5 40t-178.5 107t-118 161.5t-67.5 198t-20.5 220.5v737h230v-737q0 -83 12 -156.5t41.5 -141.5t73.5 -116t113 -77t157 -29q89 0 158.5 29.5t113.5 78.5t73 117t40.5 140.5t11.5 154.5v737h232v-737 q0 -153 -36 -281.5t-109.5 -230t-197 -158.5t-286.5 -57z" />
<glyph unicode="&#xda;" d="M848 1604l-148 45l117 225h215zM770 -10q-135 0 -242.5 40t-178.5 107t-118 161.5t-67.5 198t-20.5 220.5v737h230v-737q0 -83 12 -156.5t41.5 -141.5t73.5 -116t113 -77t157 -29q89 0 158.5 29.5t113.5 78.5t73 117t40.5 140.5t11.5 154.5v737h232v-737 q0 -153 -36 -281.5t-109.5 -230t-197 -158.5t-286.5 -57z" />
<glyph unicode="&#xdb;" d="M477 1679l213 195h162l213 -195l-121 -57l-174 129l-174 -129zM770 -10q-135 0 -242.5 40t-178.5 107t-118 161.5t-67.5 198t-20.5 220.5v737h230v-737q0 -83 12 -156.5t41.5 -141.5t73.5 -116t113 -77t157 -29q89 0 158.5 29.5t113.5 78.5t73 117t40.5 140.5t11.5 154.5 v737h232v-737q0 -153 -36 -281.5t-109.5 -230t-197 -158.5t-286.5 -57z" />
<glyph unicode="&#xdc;" d="M496 1640v226h188v-226h-188zM858 1640v226h189v-226h-189zM770 -10q-135 0 -242.5 40t-178.5 107t-118 161.5t-67.5 198t-20.5 220.5v737h230v-737q0 -83 12 -156.5t41.5 -141.5t73.5 -116t113 -77t157 -29q89 0 158.5 29.5t113.5 78.5t73 117t40.5 140.5t11.5 154.5 v737h232v-737q0 -153 -36 -281.5t-109.5 -230t-197 -158.5t-286.5 -57z" />
<glyph unicode="&#xdd;" horiz-adv-x="1345" d="M750 1604l-148 45l117 225h215zM270 1454l402 -723l405 723h252l-543 -934v-520h-229v524l-539 930h252z" />
<glyph unicode="&#xde;" horiz-adv-x="1236" d="M1190 709q0 -124 -54 -232t-156 -176t-230 -68h-357v-233h-229v1454h229v-272h346q126 0 231.5 -70t162.5 -178t57 -225zM958 709q0 113 -68 191.5t-163 78.5h-334v-541h346q96 0 157.5 80t61.5 191z" />
<glyph unicode="&#xdf;" horiz-adv-x="1136" d="M500 195q156 3 247 66t91 190q0 117 -77 186.5t-196 69.5h-41v204h39q86 0 138.5 50.5t52.5 132.5q0 88 -57.5 132t-135.5 44q-106 0 -158.5 -71.5t-52.5 -172.5v-1026h-215v1065q0 173 124 285t314 112q171 0 282.5 -92t111.5 -242q0 -106 -56 -193t-135 -112 q137 -34 217 -141t80 -254q0 -108 -44.5 -192.5t-123.5 -136.5t-181 -80t-224 -31v207z" />
<glyph unicode="&#xe0;" horiz-adv-x="1155" d="M317 1497h215l117 -225l-143 -45zM57 313q0 153 127 246.5t330 93.5q163 0 279 -43v68q0 113 -69 176.5t-194 63.5q-86 0 -166 -30t-174 -91l-75 151q213 142 440 142q217 0 340 -114.5t123 -322.5v-399q0 -38 13.5 -55.5t45.5 -18.5v-180q-54 -10 -96 -10 q-68 0 -106.5 33t-45.5 83l-6 62q-69 -89 -176.5 -138.5t-220.5 -49.5q-160 0 -264.5 95.5t-104.5 237.5zM739 248q54 54 54 100v123q-118 45 -246 45q-124 0 -200.5 -50t-76.5 -134q0 -76 58.5 -131.5t160.5 -55.5q70 0 138 29t112 74z" />
<glyph unicode="&#xe1;" horiz-adv-x="1155" d="M629 1225l-148 45l117 225h215zM57 313q0 153 127 246.5t330 93.5q163 0 279 -43v68q0 113 -69 176.5t-194 63.5q-86 0 -166 -30t-174 -91l-75 151q213 142 440 142q217 0 340 -114.5t123 -322.5v-399q0 -38 13.5 -55.5t45.5 -18.5v-180q-54 -10 -96 -10q-68 0 -106.5 33 t-45.5 83l-6 62q-69 -89 -176.5 -138.5t-220.5 -49.5q-160 0 -264.5 95.5t-104.5 237.5zM739 248q54 54 54 100v123q-118 45 -246 45q-124 0 -200.5 -50t-76.5 -134q0 -76 58.5 -131.5t160.5 -55.5q70 0 138 29t112 74z" />
<glyph unicode="&#xe2;" horiz-adv-x="1155" d="M258 1300l213 195h162l213 -195l-121 -57l-174 129l-174 -129zM57 313q0 153 127 246.5t330 93.5q163 0 279 -43v68q0 113 -69 176.5t-194 63.5q-86 0 -166 -30t-174 -91l-75 151q213 142 440 142q217 0 340 -114.5t123 -322.5v-399q0 -38 13.5 -55.5t45.5 -18.5v-180 q-54 -10 -96 -10q-68 0 -106.5 33t-45.5 83l-6 62q-69 -89 -176.5 -138.5t-220.5 -49.5q-160 0 -264.5 95.5t-104.5 237.5zM739 248q54 54 54 100v123q-118 45 -246 45q-124 0 -200.5 -50t-76.5 -134q0 -76 58.5 -131.5t160.5 -55.5q70 0 138 29t112 74z" />
<glyph unicode="&#xe3;" horiz-adv-x="1155" d="M416 1348q-26 0 -45.5 -9.5t-30 -22.5t-16.5 -29t-7.5 -24.5t-1.5 -13.5h-127q0 15 6 41t22.5 60.5t40 64t63.5 50t88 20.5q51 0 97 -22.5t88 -45t83 -22.5q28 0 49.5 10t32.5 23t18 28.5t8.5 24.5t1.5 14h129q0 -13 -6.5 -38t-23.5 -59.5t-42 -65t-67.5 -51.5t-93.5 -21 q-53 0 -101 22t-88.5 44t-76.5 22zM57 313q0 153 127 246.5t330 93.5q163 0 279 -43v68q0 113 -69 176.5t-194 63.5q-86 0 -166 -30t-174 -91l-75 151q213 142 440 142q217 0 340 -114.5t123 -322.5v-399q0 -38 13.5 -55.5t45.5 -18.5v-180q-54 -10 -96 -10q-68 0 -106.5 33 t-45.5 83l-6 62q-69 -89 -176.5 -138.5t-220.5 -49.5q-160 0 -264.5 95.5t-104.5 237.5zM739 248q54 54 54 100v123q-118 45 -246 45q-124 0 -200.5 -50t-76.5 -134q0 -76 58.5 -131.5t160.5 -55.5q70 0 138 29t112 74z" />
<glyph unicode="&#xe4;" horiz-adv-x="1155" d="M276 1262v225h189v-225h-189zM639 1262v225h188v-225h-188zM57 313q0 153 127 246.5t330 93.5q163 0 279 -43v68q0 113 -69 176.5t-194 63.5q-86 0 -166 -30t-174 -91l-75 151q213 142 440 142q217 0 340 -114.5t123 -322.5v-399q0 -38 13.5 -55.5t45.5 -18.5v-180 q-54 -10 -96 -10q-68 0 -106.5 33t-45.5 83l-6 62q-69 -89 -176.5 -138.5t-220.5 -49.5q-160 0 -264.5 95.5t-104.5 237.5zM739 248q54 54 54 100v123q-118 45 -246 45q-124 0 -200.5 -50t-76.5 -134q0 -76 58.5 -131.5t160.5 -55.5q70 0 138 29t112 74z" />
<glyph unicode="&#xe5;" horiz-adv-x="1155" d="M551 1536q92 0 148.5 -50.5t56.5 -133.5q0 -81 -56 -129.5t-149 -48.5q-90 0 -146.5 48.5t-56.5 129.5q0 83 56.5 133.5t146.5 50.5zM459 1352q0 -39 26.5 -65.5t65.5 -26.5t67.5 26.5t28.5 65.5q0 43 -27 68.5t-69 25.5q-39 0 -65.5 -25.5t-26.5 -68.5zM57 313 q0 153 127 246.5t330 93.5q163 0 279 -43v68q0 113 -69 176.5t-194 63.5q-86 0 -166 -30t-174 -91l-75 151q213 142 440 142q217 0 340 -114.5t123 -322.5v-399q0 -38 13.5 -55.5t45.5 -18.5v-180q-54 -10 -96 -10q-68 0 -106.5 33t-45.5 83l-6 62q-69 -89 -176.5 -138.5 t-220.5 -49.5q-160 0 -264.5 95.5t-104.5 237.5zM739 248q54 54 54 100v123q-118 45 -246 45q-124 0 -200.5 -50t-76.5 -134q0 -76 58.5 -131.5t160.5 -55.5q70 0 138 29t112 74z" />
<glyph unicode="&#xe6;" horiz-adv-x="1914" d="M57 315q0 150 125.5 244t325.5 94q148 0 254 -41q8 78 22 115q-12 98 -77.5 150.5t-178.5 52.5q-158 0 -338 -123l-71 143q212 140 430 140q128 0 223 -45.5t150 -129.5q70 81 171 128t220 47q123 0 227.5 -44.5t175 -120t110 -176.5t40.5 -214q0 -47 -6 -74h-875 q10 -139 108 -227.5t232 -88.5q92 0 171.5 45.5t109.5 118.5l192 -55q-55 -122 -185 -198t-296 -76q-145 0 -263 61t-190 166q-66 -113 -191.5 -170t-254.5 -57q-154 0 -257.5 96t-103.5 239zM1640 604q-12 141 -104 230.5t-227 89.5t-227 -90t-101 -230h659zM750 258 q39 32 43 72q-27 61 -31 157q-109 37 -217 37q-122 0 -199.5 -53t-77.5 -137q0 -80 61 -134.5t150 -54.5q84 0 158 30.5t113 82.5z" />
<glyph unicode="&#xe7;" horiz-adv-x="1144" d="M1094 254q-45 -103 -143 -174t-230 -92q98 -82 98 -191q0 -88 -58.5 -140t-164.5 -52q-127 0 -242 59l58 121q78 -43 145 -43q58 0 90.5 24.5t32.5 71.5q0 74 -98 144q-151 9 -270.5 87.5t-182.5 201t-63 266.5q0 113 39.5 213.5t110.5 176t176 119.5t229 44 q162 0 282 -72t182 -195l-219 -69q-38 67 -104 105t-146 38q-136 0 -227.5 -101.5t-91.5 -258.5q0 -154 94 -259.5t227 -105.5q83 0 156 42.5t98 104.5z" />
<glyph unicode="&#xe8;" horiz-adv-x="1218" d="M383 1497h215l117 -225l-144 -45zM621 -20q-163 0 -291 76t-196 201t-68 275q0 113 40.5 215t111.5 178t176.5 120.5t228.5 44.5t226.5 -45t173 -120.5t108 -174.5t38.5 -207q0 -28 -6 -82h-858q10 -139 103.5 -227.5t220.5 -88.5q92 0 171 45.5t109 118.5l193 -55 q-57 -123 -186 -198.5t-295 -75.5zM299 610h647q-12 139 -103.5 226.5t-221.5 87.5q-129 0 -221 -88.5t-101 -225.5z" />
<glyph unicode="&#xe9;" horiz-adv-x="1218" d="M694 1225l-147 45l117 225h215zM621 -20q-163 0 -291 76t-196 201t-68 275q0 113 40.5 215t111.5 178t176.5 120.5t228.5 44.5t226.5 -45t173 -120.5t108 -174.5t38.5 -207q0 -28 -6 -82h-858q10 -139 103.5 -227.5t220.5 -88.5q92 0 171 45.5t109 118.5l193 -55 q-57 -123 -186 -198.5t-295 -75.5zM299 610h647q-12 139 -103.5 226.5t-221.5 87.5q-129 0 -221 -88.5t-101 -225.5z" />
<glyph unicode="&#xea;" horiz-adv-x="1218" d="M324 1300l213 195h161l213 -195l-120 -57l-175 129l-174 -129zM621 -20q-163 0 -291 76t-196 201t-68 275q0 113 40.5 215t111.5 178t176.5 120.5t228.5 44.5t226.5 -45t173 -120.5t108 -174.5t38.5 -207q0 -28 -6 -82h-858q10 -139 103.5 -227.5t220.5 -88.5 q92 0 171 45.5t109 118.5l193 -55q-57 -123 -186 -198.5t-295 -75.5zM299 610h647q-12 139 -103.5 226.5t-221.5 87.5q-129 0 -221 -88.5t-101 -225.5z" />
<glyph unicode="&#xeb;" horiz-adv-x="1218" d="M342 1262v225h188v-225h-188zM705 1262v225h188v-225h-188zM621 -20q-163 0 -291 76t-196 201t-68 275q0 113 40.5 215t111.5 178t176.5 120.5t228.5 44.5t226.5 -45t173 -120.5t108 -174.5t38.5 -207q0 -28 -6 -82h-858q10 -139 103.5 -227.5t220.5 -88.5q92 0 171 45.5 t109 118.5l193 -55q-57 -123 -186 -198.5t-295 -75.5zM299 610h647q-12 139 -103.5 226.5t-221.5 87.5q-129 0 -221 -88.5t-101 -225.5z" />
<glyph unicode="&#xec;" horiz-adv-x="495" d="M14 1497h215l117 -225l-143 -45zM135 0v1071h225v-1071h-225z" />
<glyph unicode="&#xed;" horiz-adv-x="495" d="M326 1225l-148 45l117 225h215zM135 0v1071h225v-1071h-225z" />
<glyph unicode="&#xee;" horiz-adv-x="495" d="M-45 1300l213 195h162l213 -195l-121 -57l-174 129l-174 -129zM135 0v1071h225v-1071h-225z" />
<glyph unicode="&#xef;" horiz-adv-x="495" d="M-27 1262v225h189v-225h-189zM336 1262v225h188v-225h-188zM135 0v1071h225v-1071h-225z" />
<glyph unicode="&#xf0;" horiz-adv-x="1247" d="M903 1282q137 -150 204 -332t67 -356q0 -140 -44 -256.5t-119.5 -194t-178 -120.5t-218.5 -43q-149 0 -273 65t-196.5 179.5t-72.5 252.5q0 203 145.5 347.5t351.5 144.5q117 0 217 -52t156 -139q-48 243 -211 422l-207 -121l-65 92l188 109q-122 111 -315 215h301 q99 -53 188 -133l168 98l66 -92zM618 172q137 0 230.5 92.5t93.5 222.5q0 127 -91.5 213t-225.5 86q-136 0 -229 -90t-93 -219t91.5 -217t223.5 -88z" />
<glyph unicode="&#xf1;" horiz-adv-x="1222" d="M498 1348q-26 0 -45.5 -9.5t-30 -22.5t-16.5 -29t-7.5 -24.5t-1.5 -13.5h-127q0 15 6 41t22.5 60.5t40 64t63 50t87.5 20.5q41 0 79 -14t63.5 -31t59.5 -31t67 -14q28 0 49.5 10t32.5 23t18 28.5t8.5 24.5t1.5 14h129q0 -13 -6.5 -38t-23.5 -59.5t-42 -65t-67.5 -51.5 t-93.5 -21q-53 0 -101 22t-88.5 44t-76.5 22zM1096 0h-226v600q0 149 -47.5 219t-142.5 70q-98 0 -191.5 -72.5t-128.5 -179.5v-637h-225v1071h205v-215q62 108 179 171t257 63q75 0 131.5 -23t92 -62t57.5 -96.5t30.5 -119t8.5 -136.5v-653z" />
<glyph unicode="&#xf2;" horiz-adv-x="1232" d="M383 1497h215l117 -225l-144 -45zM66 535q0 111 40 212t110 177t174.5 121t225.5 45q162 0 289.5 -77t194.5 -203t67 -275t-67 -275t-194.5 -203t-289.5 -77q-123 0 -227.5 45t-174.5 121t-109 177t-39 212zM616 172q134 0 227 105t93 258t-93 257.5t-227 104.5 q-133 0 -226 -106t-93 -259q0 -154 92.5 -257t226.5 -103z" />
<glyph unicode="&#xf3;" horiz-adv-x="1232" d="M694 1225l-147 45l117 225h215zM66 535q0 111 40 212t110 177t174.5 121t225.5 45q162 0 289.5 -77t194.5 -203t67 -275t-67 -275t-194.5 -203t-289.5 -77q-123 0 -227.5 45t-174.5 121t-109 177t-39 212zM616 172q134 0 227 105t93 258t-93 257.5t-227 104.5 q-133 0 -226 -106t-93 -259q0 -154 92.5 -257t226.5 -103z" />
<glyph unicode="&#xf4;" horiz-adv-x="1232" d="M324 1300l213 195h161l213 -195l-120 -57l-175 129l-174 -129zM66 535q0 111 40 212t110 177t174.5 121t225.5 45q162 0 289.5 -77t194.5 -203t67 -275t-67 -275t-194.5 -203t-289.5 -77q-123 0 -227.5 45t-174.5 121t-109 177t-39 212zM616 172q134 0 227 105t93 258 t-93 257.5t-227 104.5q-133 0 -226 -106t-93 -259q0 -154 92.5 -257t226.5 -103z" />
<glyph unicode="&#xf5;" horiz-adv-x="1232" d="M481 1348q-32 0 -54 -13.5t-31 -33.5t-12 -32.5t-3 -19.5h-127q0 15 6 41t22.5 60.5t40 64t63 50t87.5 20.5q51 0 97 -22.5t88 -45t83 -22.5q28 0 49.5 10t33 23t18.5 28.5t8.5 24.5t1.5 14h129q0 -13 -6.5 -38t-23.5 -59.5t-42 -65t-67.5 -51.5t-93.5 -21q-53 0 -101 22 t-89 44t-77 22zM66 535q0 111 40 212t110 177t174.5 121t225.5 45q162 0 289.5 -77t194.5 -203t67 -275t-67 -275t-194.5 -203t-289.5 -77q-123 0 -227.5 45t-174.5 121t-109 177t-39 212zM616 172q134 0 227 105t93 258t-93 257.5t-227 104.5q-133 0 -226 -106t-93 -259 q0 -154 92.5 -257t226.5 -103z" />
<glyph unicode="&#xf6;" horiz-adv-x="1232" d="M342 1262v225h188v-225h-188zM705 1262v225h188v-225h-188zM66 535q0 111 40 212t110 177t174.5 121t225.5 45q162 0 289.5 -77t194.5 -203t67 -275t-67 -275t-194.5 -203t-289.5 -77q-123 0 -227.5 45t-174.5 121t-109 177t-39 212zM616 172q134 0 227 105t93 258 t-93 257.5t-227 104.5q-133 0 -226 -106t-93 -259q0 -154 92.5 -257t226.5 -103z" />
<glyph unicode="&#xf7;" horiz-adv-x="1071" d="M440 842v235h191v-235h-191zM123 508v180h825v-180h-825zM440 119v233h191v-233h-191z" />
<glyph unicode="&#xf8;" horiz-adv-x="1232" d="M1004 938q78 -77 120.5 -181.5t42.5 -221.5q0 -149 -67 -275t-194.5 -203t-289.5 -77q-159 0 -290 75l-52 -61h-163l114 141q-76 76 -117.5 180t-41.5 220q0 111 40 212t110 177t174.5 121t225.5 45q157 0 283 -74l49 61h168zM616 897q-133 0 -226 -106t-93 -259 q0 -131 74 -235l399 557q-67 43 -154 43zM616 172q134 0 227 105t93 258q0 135 -76 237l-401 -555q70 -45 157 -45z" />
<glyph unicode="&#xf9;" horiz-adv-x="1247" d="M375 1497h215l117 -225l-144 -45zM125 416v655h225v-610q0 -143 52 -216t153 -73q98 0 183.5 60.5t131.5 170.5v668h226v-817q0 -39 14 -56t47 -18v-180q-59 -10 -100 -10q-62 0 -104 33.5t-46 87.5l-4 106q-71 -115 -185.5 -176t-252.5 -61q-167 0 -253.5 110.5 t-86.5 325.5z" />
<glyph unicode="&#xfa;" horiz-adv-x="1247" d="M686 1225l-147 45l116 225h215zM125 416v655h225v-610q0 -143 52 -216t153 -73q98 0 183.5 60.5t131.5 170.5v668h226v-817q0 -39 14 -56t47 -18v-180q-59 -10 -100 -10q-62 0 -104 33.5t-46 87.5l-4 106q-71 -115 -185.5 -176t-252.5 -61q-167 0 -253.5 110.5 t-86.5 325.5z" />
<glyph unicode="&#xfb;" horiz-adv-x="1247" d="M315 1300l213 195h162l213 -195l-121 -57l-174 129l-174 -129zM125 416v655h225v-610q0 -143 52 -216t153 -73q98 0 183.5 60.5t131.5 170.5v668h226v-817q0 -39 14 -56t47 -18v-180q-59 -10 -100 -10q-62 0 -104 33.5t-46 87.5l-4 106q-71 -115 -185.5 -176t-252.5 -61 q-167 0 -253.5 110.5t-86.5 325.5z" />
<glyph unicode="&#xfc;" horiz-adv-x="1247" d="M334 1262v225h188v-225h-188zM696 1262v225h189v-225h-189zM125 416v655h225v-610q0 -143 52 -216t153 -73q98 0 183.5 60.5t131.5 170.5v668h226v-817q0 -39 14 -56t47 -18v-180q-59 -10 -100 -10q-62 0 -104 33.5t-46 87.5l-4 106q-71 -115 -185.5 -176t-252.5 -61 q-167 0 -253.5 110.5t-86.5 325.5z" />
<glyph unicode="&#xfd;" horiz-adv-x="1120" d="M659 1225l-147 45l117 225h215zM172 -252q72 -14 109 -14q52 0 85.5 50.5t92.5 215.5l-441 1071h236l328 -842l290 842h218l-486 -1319q-34 -96 -117.5 -156.5t-203.5 -60.5q-54 0 -111 16v197z" />
<glyph unicode="&#xfe;" horiz-adv-x="1232" d="M635 -43q-92 0 -164 39.5t-104 93.5v-526h-232v1890h232v-502q101 146 286 146q115 0 214 -51t163.5 -133t101.5 -183.5t37 -204.5q-2 -149 -73 -280t-194 -210t-267 -79zM639 895q-172 0 -272 -199v-340q0 -69 86.5 -131.5t175.5 -62.5q132 0 220.5 108.5t88.5 257.5 q0 151 -83 259t-216 108z" />
<glyph unicode="&#xff;" horiz-adv-x="1120" d="M307 1262v225h189v-225h-189zM670 1262v225h188v-225h-188zM172 -252q72 -14 109 -14q52 0 85.5 50.5t92.5 215.5l-441 1071h236l328 -842l290 842h218l-486 -1319q-34 -96 -117.5 -156.5t-203.5 -60.5q-54 0 -111 16v197z" />
<glyph unicode="&#x100;" horiz-adv-x="1382" d="M391 1698v143h606v-143h-606zM584 1454h217l565 -1454h-242l-153 395h-561l-152 -395h-244zM926 565l-234 637l-241 -637h475z" />
<glyph unicode="&#x101;" horiz-adv-x="1155" d="M250 1319v143h606v-143h-606zM57 313q0 153 127 246.5t330 93.5q163 0 279 -43v68q0 113 -69 176.5t-194 63.5q-86 0 -166 -30t-174 -91l-75 151q213 142 440 142q217 0 340 -114.5t123 -322.5v-399q0 -38 13.5 -55.5t45.5 -18.5v-180q-54 -10 -96 -10q-68 0 -106.5 33 t-45.5 83l-6 62q-69 -89 -176.5 -138.5t-220.5 -49.5q-160 0 -264.5 95.5t-104.5 237.5zM739 248q54 54 54 100v123q-118 45 -246 45q-124 0 -200.5 -50t-76.5 -134q0 -76 58.5 -131.5t160.5 -55.5q70 0 138 29t112 74z" />
<glyph unicode="&#x102;" horiz-adv-x="1382" d="M811 1874h125q0 -107 -70 -178.5t-174 -71.5t-173.5 71.5t-69.5 178.5h124q0 -58 36 -101.5t83 -43.5q45 0 79 41t40 104zM584 1454h217l565 -1454h-242l-153 395h-561l-152 -395h-244zM926 565l-234 637l-241 -637h475z" />
<glyph unicode="&#x103;" horiz-adv-x="1155" d="M670 1495h125q0 -107 -70 -178.5t-174 -71.5t-174 71.5t-70 178.5h125q0 -58 36 -101.5t83 -43.5q45 0 79 41t40 104zM57 313q0 153 127 246.5t330 93.5q163 0 279 -43v68q0 113 -69 176.5t-194 63.5q-86 0 -166 -30t-174 -91l-75 151q213 142 440 142q217 0 340 -114.5 t123 -322.5v-399q0 -38 13.5 -55.5t45.5 -18.5v-180q-54 -10 -96 -10q-68 0 -106.5 33t-45.5 83l-6 62q-69 -89 -176.5 -138.5t-220.5 -49.5q-160 0 -264.5 95.5t-104.5 237.5zM739 248q54 54 54 100v123q-118 45 -246 45q-124 0 -200.5 -50t-76.5 -134q0 -76 58.5 -131.5 t160.5 -55.5q70 0 138 29t112 74z" />
<glyph unicode="&#x104;" horiz-adv-x="1382" d="M1208 -186q0 -72 156 -78l-47 -133q-140 11 -198 59.5t-58 114.5q0 117 139 223h-76l-153 395h-561l-152 -395h-244l570 1454h217l565 -1454q-158 -114 -158 -186zM451 565h475l-234 637z" />
<glyph unicode="&#x105;" horiz-adv-x="1155" d="M1077 0q-157 -113 -157 -186q0 -72 155 -78l-47 -133q-140 11 -198 59.5t-58 114.5q0 117 141 223q-74 29 -84 106l-6 62q-69 -89 -176.5 -138.5t-220.5 -49.5q-160 0 -264.5 95.5t-104.5 237.5q0 153 127 246.5t330 93.5q163 0 279 -43v68q0 113 -69 176.5t-194 63.5 q-86 0 -166 -30t-174 -91l-75 151q213 142 440 142q217 0 340 -114.5t123 -322.5v-399q0 -38 13.5 -55.5t45.5 -18.5v-180zM793 348v123q-118 45 -246 45q-124 0 -200.5 -50t-76.5 -134q0 -76 58.5 -131.5t160.5 -55.5q70 0 138 29t112 74q54 54 54 100z" />
<glyph unicode="&#x106;" horiz-adv-x="1400" d="M852 1604l-147 45l116 225h215zM776 1462q191 0 335.5 -86.5t217.5 -230.5l-180 -121q-29 63 -73 109.5t-96 72t-104.5 37.5t-107.5 12q-88 0 -164 -30.5t-130 -81.5t-93 -119t-57.5 -143t-18.5 -152q0 -141 59.5 -263t168.5 -196.5t241 -74.5q75 0 146.5 23.5t138 79 t102.5 136.5l191 -108q-43 -104 -140 -183t-213 -117t-233 -38q-148 0 -279.5 65t-221 171t-141.5 240.5t-52 272.5q0 106 30 210.5t90.5 197t143.5 163.5t197 112.5t243 41.5z" />
<glyph unicode="&#x107;" horiz-adv-x="1144" d="M696 1225l-147 45l117 225h215zM621 -20q-162 0 -290.5 77t-196.5 203.5t-68 276.5q0 113 39.5 213.5t110.5 176t176 119.5t229 44q162 0 282 -72t182 -195l-219 -69q-38 67 -104 105t-146 38q-136 0 -227.5 -101.5t-91.5 -258.5q0 -154 94 -259.5t227 -105.5 q83 0 156 42.5t98 104.5l222 -65q-54 -123 -181 -198.5t-292 -75.5z" />
<glyph unicode="&#x108;" horiz-adv-x="1400" d="M481 1679l213 195h162l213 -195l-121 -57l-174 129l-174 -129zM776 1462q191 0 335.5 -86.5t217.5 -230.5l-180 -121q-29 63 -73 109.5t-96 72t-104.5 37.5t-107.5 12q-88 0 -164 -30.5t-130 -81.5t-93 -119t-57.5 -143t-18.5 -152q0 -141 59.5 -263t168.5 -196.5 t241 -74.5q75 0 146.5 23.5t138 79t102.5 136.5l191 -108q-43 -104 -140 -183t-213 -117t-233 -38q-148 0 -279.5 65t-221 171t-141.5 240.5t-52 272.5q0 106 30 210.5t90.5 197t143.5 163.5t197 112.5t243 41.5z" />
<glyph unicode="&#x109;" horiz-adv-x="1144" d="M326 1300l213 195h161l213 -195l-120 -57l-175 129l-174 -129zM621 -20q-162 0 -290.5 77t-196.5 203.5t-68 276.5q0 113 39.5 213.5t110.5 176t176 119.5t229 44q162 0 282 -72t182 -195l-219 -69q-38 67 -104 105t-146 38q-136 0 -227.5 -101.5t-91.5 -258.5 q0 -154 94 -259.5t227 -105.5q83 0 156 42.5t98 104.5l222 -65q-54 -123 -181 -198.5t-292 -75.5z" />
<glyph unicode="&#x10a;" horiz-adv-x="1400" d="M672 1638v236h202v-236h-202zM776 1462q191 0 335.5 -86.5t217.5 -230.5l-180 -121q-29 63 -73 109.5t-96 72t-104.5 37.5t-107.5 12q-88 0 -164 -30.5t-130 -81.5t-93 -119t-57.5 -143t-18.5 -152q0 -141 59.5 -263t168.5 -196.5t241 -74.5q75 0 146.5 23.5t138 79 t102.5 136.5l191 -108q-43 -104 -140 -183t-213 -117t-233 -38q-148 0 -279.5 65t-221 171t-141.5 240.5t-52 272.5q0 106 30 210.5t90.5 197t143.5 163.5t197 112.5t243 41.5z" />
<glyph unicode="&#x10b;" horiz-adv-x="1144" d="M516 1260v235h203v-235h-203zM621 -20q-162 0 -290.5 77t-196.5 203.5t-68 276.5q0 113 39.5 213.5t110.5 176t176 119.5t229 44q162 0 282 -72t182 -195l-219 -69q-38 67 -104 105t-146 38q-136 0 -227.5 -101.5t-91.5 -258.5q0 -154 94 -259.5t227 -105.5 q83 0 156 42.5t98 104.5l222 -65q-54 -123 -181 -198.5t-292 -75.5z" />
<glyph unicode="&#x10c;" horiz-adv-x="1400" d="M600 1874l174 -129l174 129l121 -57l-213 -195h-162l-213 195zM776 1462q191 0 335.5 -86.5t217.5 -230.5l-180 -121q-29 63 -73 109.5t-96 72t-104.5 37.5t-107.5 12q-88 0 -164 -30.5t-130 -81.5t-93 -119t-57.5 -143t-18.5 -152q0 -141 59.5 -263t168.5 -196.5 t241 -74.5q75 0 146.5 23.5t138 79t102.5 136.5l191 -108q-43 -104 -140 -183t-213 -117t-233 -38q-148 0 -279.5 65t-221 171t-141.5 240.5t-52 272.5q0 106 30 210.5t90.5 197t143.5 163.5t197 112.5t243 41.5z" />
<glyph unicode="&#x10d;" horiz-adv-x="1144" d="M444 1495l174 -129l175 129l120 -57l-213 -195h-161l-213 195zM621 -20q-162 0 -290.5 77t-196.5 203.5t-68 276.5q0 113 39.5 213.5t110.5 176t176 119.5t229 44q162 0 282 -72t182 -195l-219 -69q-38 67 -104 105t-146 38q-136 0 -227.5 -101.5t-91.5 -258.5 q0 -154 94 -259.5t227 -105.5q83 0 156 42.5t98 104.5l222 -65q-54 -123 -181 -198.5t-292 -75.5z" />
<glyph unicode="&#x10e;" horiz-adv-x="1466" d="M512 1874l174 -129l174 129l121 -57l-213 -195h-162l-213 195zM164 0v1454h516q171 0 307.5 -56.5t223.5 -156t132.5 -230t45.5 -282.5q0 -330 -193.5 -529.5t-515.5 -199.5h-516zM680 1251h-287v-1048h287q150 0 258.5 69.5t162.5 187.5t54 269q0 233 -126.5 377.5 t-348.5 144.5z" />
<glyph unicode="&#x10f;" horiz-adv-x="1304" d="M68 535q0 152 61 278.5t172.5 201.5t249.5 75q119 0 219 -61.5t158 -160.5v627h225v-1241q0 -39 14 -56t47 -18v-180q-59 -10 -98 -10q-63 0 -106.5 36t-46.5 89l-2 80q-61 -101 -164 -158t-219 -57q-145 0 -262.5 75.5t-182.5 202t-65 277.5zM1362 1225l-148 45l117 225 h215zM928 385v281q-35 97 -126 164t-184 67q-92 0 -165.5 -52.5t-112.5 -136t-39 -178.5q0 -149 96.5 -253.5t237.5 -104.5q91 0 180.5 62.5t112.5 150.5z" />
<glyph unicode="&#x110;" horiz-adv-x="1478" d="M692 1454q171 0 307.5 -56.5t223.5 -156t132.5 -230t45.5 -282.5q0 -330 -193.5 -529.5t-515.5 -199.5h-516v645h-108v172h108v637h516zM692 203q150 0 258.5 69.5t162.5 187.5t54 269q0 233 -126.5 377.5t-348.5 144.5h-286v-434h309v-172h-309v-442h286z" />
<glyph unicode="&#x111;" horiz-adv-x="1304" d="M1288 1237h-135v-983q0 -39 14 -56t47 -18v-180q-59 -10 -98 -10q-63 0 -106.5 36t-46.5 89l-2 80q-61 -101 -164 -158t-219 -57q-145 0 -262.5 75.5t-182.5 202t-65 277.5q0 152 61 278.5t172.5 201.5t249.5 75q119 0 219 -61.5t158 -160.5v369h-215v139h215v119h225 v-119h135v-139zM928 385v281q-35 97 -126 164t-184 67q-92 0 -165.5 -52.5t-112.5 -136t-39 -178.5q0 -149 96.5 -253.5t237.5 -104.5q91 0 180.5 62.5t112.5 150.5z" />
<glyph unicode="&#x112;" horiz-adv-x="1234" d="M375 1698v143h606v-143h-606zM1161 203v-203h-997v1454h979v-203h-750v-413h649v-191h-649v-444h768z" />
<glyph unicode="&#x113;" horiz-adv-x="1218" d="M315 1319v143h607v-143h-607zM621 -20q-163 0 -291 76t-196 201t-68 275q0 113 40.5 215t111.5 178t176.5 120.5t228.5 44.5t226.5 -45t173 -120.5t108 -174.5t38.5 -207q0 -28 -6 -82h-858q10 -139 103.5 -227.5t220.5 -88.5q92 0 171 45.5t109 118.5l193 -55 q-57 -123 -186 -198.5t-295 -75.5zM299 610h647q-12 139 -103.5 226.5t-221.5 87.5q-129 0 -221 -88.5t-101 -225.5z" />
<glyph unicode="&#x114;" horiz-adv-x="1234" d="M795 1874h125q0 -107 -70 -178.5t-174 -71.5t-174 71.5t-70 178.5h125q0 -58 36 -101.5t83 -43.5q45 0 79 41t40 104zM1161 203v-203h-997v1454h979v-203h-750v-413h649v-191h-649v-444h768z" />
<glyph unicode="&#x115;" horiz-adv-x="1218" d="M735 1495h125q0 -107 -70 -178.5t-174 -71.5t-173.5 71.5t-69.5 178.5h125q0 -58 35.5 -101.5t82.5 -43.5q45 0 79 41t40 104zM621 -20q-163 0 -291 76t-196 201t-68 275q0 113 40.5 215t111.5 178t176.5 120.5t228.5 44.5t226.5 -45t173 -120.5t108 -174.5t38.5 -207 q0 -28 -6 -82h-858q10 -139 103.5 -227.5t220.5 -88.5q92 0 171 45.5t109 118.5l193 -55q-57 -123 -186 -198.5t-295 -75.5zM299 610h647q-12 139 -103.5 226.5t-221.5 87.5q-129 0 -221 -88.5t-101 -225.5z" />
<glyph unicode="&#x116;" horiz-adv-x="1234" d="M573 1638v236h203v-236h-203zM1161 203v-203h-997v1454h979v-203h-750v-413h649v-191h-649v-444h768z" />
<glyph unicode="&#x117;" horiz-adv-x="1218" d="M514 1260v235h203v-235h-203zM621 -20q-163 0 -291 76t-196 201t-68 275q0 113 40.5 215t111.5 178t176.5 120.5t228.5 44.5t226.5 -45t173 -120.5t108 -174.5t38.5 -207q0 -28 -6 -82h-858q10 -139 103.5 -227.5t220.5 -88.5q92 0 171 45.5t109 118.5l193 -55 q-57 -123 -186 -198.5t-295 -75.5zM299 610h647q-12 139 -103.5 226.5t-221.5 87.5q-129 0 -221 -88.5t-101 -225.5z" />
<glyph unicode="&#x118;" horiz-adv-x="1234" d="M1161 0q-157 -113 -157 -186q0 -72 155 -78l-47 -133q-140 11 -198 59.5t-58 114.5q0 117 139 223h-831v1454h979v-203h-750v-413h649v-191h-649v-444h768v-203z" />
<glyph unicode="&#x119;" horiz-adv-x="1218" d="M1169 543q0 -28 -6 -82h-858q10 -139 103.5 -227.5t220.5 -88.5q92 0 171 45.5t109 118.5l193 -55q-41 -91 -128 -159t-200 -97q-156 -112 -156 -184t156 -78l-47 -133q-140 11 -198 59.5t-58 114.5q0 106 115 203q-153 9 -272.5 86t-183.5 199.5t-64 266.5 q0 113 40.5 215t111.5 178t176.5 120.5t228.5 44.5t226.5 -45t173 -120.5t108 -174.5t38.5 -207zM299 610h647q-12 139 -103.5 226.5t-221.5 87.5q-129 0 -221 -88.5t-101 -225.5z" />
<glyph unicode="&#x11a;" horiz-adv-x="1234" d="M502 1874l174 -129l174 129l121 -57l-213 -195h-162l-213 195zM1161 203v-203h-997v1454h979v-203h-750v-413h649v-191h-649v-444h768z" />
<glyph unicode="&#x11b;" horiz-adv-x="1218" d="M442 1495l174 -129l175 129l120 -57l-213 -195h-161l-213 195zM621 -20q-163 0 -291 76t-196 201t-68 275q0 113 40.5 215t111.5 178t176.5 120.5t228.5 44.5t226.5 -45t173 -120.5t108 -174.5t38.5 -207q0 -28 -6 -82h-858q10 -139 103.5 -227.5t220.5 -88.5 q92 0 171 45.5t109 118.5l193 -55q-57 -123 -186 -198.5t-295 -75.5zM299 610h647q-12 139 -103.5 226.5t-221.5 87.5q-129 0 -221 -88.5t-101 -225.5z" />
<glyph unicode="&#x11c;" horiz-adv-x="1472" d="M764 1751l-174 -129l-119 57l213 195h162l213 -195l-121 -57zM877 735h497v-735h-192v180q-181 -190 -424 -190q-141 0 -268.5 61t-218 162t-144 237.5t-53.5 282.5t53 280.5t143.5 233.5t220 158t275.5 59q201 0 344.5 -84.5t218.5 -232.5l-176 -127q-59 116 -162 176.5 t-231 60.5q-133 0 -238 -74.5t-160 -195t-55 -260.5q0 -221 135 -375.5t334 -154.5q226 0 406 213v155h-305v170z" />
<glyph unicode="&#x11d;" horiz-adv-x="1288" d="M334 1300l213 195h162l213 -195l-121 -57l-174 129l-174 -129zM70 535q0 152 62.5 278.5t177 201.5t257.5 75q124 0 222.5 -59.5t164.5 -162.5v203h199v-1040q0 -151 -75 -263t-203 -168.5t-291 -56.5q-324 0 -494 230l127 118q60 -85 157.5 -130.5t209.5 -45.5 q95 0 171 32.5t124.5 106t48.5 177.5v164q-56 -95 -156.5 -150t-212.5 -55q-140 0 -253.5 76t-174.5 200t-61 269zM928 385v281q-40 101 -128 166t-184 65q-94 0 -168 -54.5t-111.5 -138t-37.5 -176.5q0 -147 97 -251.5t237 -104.5q99 0 184.5 63t110.5 150z" />
<glyph unicode="&#x11e;" horiz-adv-x="1472" d="M764 1624q-104 0 -174 71.5t-70 178.5h125q0 -58 36 -101.5t83 -43.5q45 0 79 41t40 104h125q0 -107 -70 -178.5t-174 -71.5zM877 735h497v-735h-192v180q-181 -190 -424 -190q-141 0 -268.5 61t-218 162t-144 237.5t-53.5 282.5t53 280.5t143.5 233.5t220 158t275.5 59 q201 0 344.5 -84.5t218.5 -232.5l-176 -127q-59 116 -162 176.5t-231 60.5q-133 0 -238 -74.5t-160 -195t-55 -260.5q0 -221 135 -375.5t334 -154.5q226 0 406 213v155h-305v170z" />
<glyph unicode="&#x11f;" horiz-adv-x="1288" d="M745 1495h125q0 -107 -69.5 -178.5t-173.5 -71.5t-174 71.5t-70 178.5h125q0 -58 36 -101.5t83 -43.5q44 0 78 41t40 104zM70 535q0 152 62.5 278.5t177 201.5t257.5 75q124 0 222.5 -59.5t164.5 -162.5v203h199v-1040q0 -151 -75 -263t-203 -168.5t-291 -56.5 q-324 0 -494 230l127 118q60 -85 157.5 -130.5t209.5 -45.5q95 0 171 32.5t124.5 106t48.5 177.5v164q-56 -95 -156.5 -150t-212.5 -55q-140 0 -253.5 76t-174.5 200t-61 269zM928 385v281q-40 101 -128 166t-184 65q-94 0 -168 -54.5t-111.5 -138t-37.5 -176.5 q0 -147 97 -251.5t237 -104.5q99 0 184.5 63t110.5 150z" />
<glyph unicode="&#x120;" horiz-adv-x="1472" d="M864 1874v-236h-202v236h202zM877 735h497v-735h-192v180q-181 -190 -424 -190q-141 0 -268.5 61t-218 162t-144 237.5t-53.5 282.5t53 280.5t143.5 233.5t220 158t275.5 59q201 0 344.5 -84.5t218.5 -232.5l-176 -127q-59 116 -162 176.5t-231 60.5q-133 0 -238 -74.5 t-160 -195t-55 -260.5q0 -221 135 -375.5t334 -154.5q226 0 406 213v155h-305v170z" />
<glyph unicode="&#x121;" horiz-adv-x="1288" d="M524 1260v235h203v-235h-203zM70 535q0 152 62.5 278.5t177 201.5t257.5 75q124 0 222.5 -59.5t164.5 -162.5v203h199v-1040q0 -151 -75 -263t-203 -168.5t-291 -56.5q-324 0 -494 230l127 118q60 -85 157.5 -130.5t209.5 -45.5q95 0 171 32.5t124.5 106t48.5 177.5v164 q-56 -95 -156.5 -150t-212.5 -55q-140 0 -253.5 76t-174.5 200t-61 269zM928 385v281q-40 101 -128 166t-184 65q-94 0 -168 -54.5t-111.5 -138t-37.5 -176.5q0 -147 97 -251.5t237 -104.5q99 0 184.5 63t110.5 150z" />
<glyph unicode="&#x122;" horiz-adv-x="1472" d="M877 735h497v-735h-192v180q-181 -190 -424 -190q-141 0 -268.5 61t-218 162t-144 237.5t-53.5 282.5t53 280.5t143.5 233.5t220 158t275.5 59q201 0 344.5 -84.5t218.5 -232.5l-176 -127q-59 116 -162 176.5t-231 60.5q-133 0 -238 -74.5t-160 -195t-55 -260.5 q0 -221 135 -375.5t334 -154.5q226 0 406 213v155h-305v170zM659 -279v181h195v-181l-72 -157h-104l47 157h-66z" />
<glyph unicode="&#x123;" horiz-adv-x="1288" d="M707 1495l-48 -131h64v-164h-195v164l74 131h105zM70 535q0 152 62.5 278.5t177 201.5t257.5 75q124 0 222.5 -59.5t164.5 -162.5v203h199v-1040q0 -151 -75 -263t-203 -168.5t-291 -56.5q-324 0 -494 230l127 118q60 -85 157.5 -130.5t209.5 -45.5q95 0 171 32.5 t124.5 106t48.5 177.5v164q-56 -95 -156.5 -150t-212.5 -55q-140 0 -253.5 76t-174.5 200t-61 269zM928 385v281q-40 101 -128 166t-184 65q-94 0 -168 -54.5t-111.5 -138t-37.5 -176.5q0 -147 97 -251.5t237 -104.5q99 0 184.5 63t110.5 150z" />
<glyph unicode="&#x124;" horiz-adv-x="1521" d="M473 1679l213 195h162l213 -195l-121 -57l-174 129l-174 -129zM1358 1454v-1454h-232v641h-733v-641h-229v1454h229v-608h733v608h232z" />
<glyph unicode="&#x125;" horiz-adv-x="1222" d="M358 1683l213 195h162l213 -195l-121 -57l-174 129l-174 -129zM1096 0h-226v600q0 144 -52 216.5t-150 72.5q-94 0 -184.5 -72t-123.5 -180v-637h-225v1495h225v-639q62 109 168 171.5t230 62.5q338 0 338 -437v-653z" />
<glyph unicode="&#x126;" d="M1470 1233v-146h-102v-1087h-231v641h-734v-641h-229v1087h-104v146h104v221h229v-221h734v221h231v-221h102zM1137 846v241h-734v-241h734z" />
<glyph unicode="&#x127;" horiz-adv-x="1222" d="M758 1090q338 0 338 -437v-653h-226v600q0 144 -52 216.5t-150 72.5q-94 0 -184.5 -72t-123.5 -180v-637h-225v1237h-102v139h102v119h225v-119h248v-139h-248v-381q62 109 168 171.5t230 62.5z" />
<glyph unicode="&#x128;" horiz-adv-x="557" d="M143 1726q-32 0 -54 -13.5t-31 -33t-12 -32t-3 -19.5h-127q0 15 6 41t22.5 60.5t40 64t63 50t87.5 20.5q51 0 97 -22.5t88 -45t83 -22.5q28 0 49.5 10t33 23t18.5 28.5t8.5 24.5t1.5 14h129q0 -13 -6.5 -38t-23.5 -60t-42 -65t-67.5 -51.5t-93.5 -21.5q-53 0 -101 22 t-89 44t-77 22zM164 0v1454h229v-1454h-229z" />
<glyph unicode="&#x129;" horiz-adv-x="495" d="M113 1348q-26 0 -45.5 -9.5t-30 -22.5t-16.5 -29t-7.5 -24.5t-1.5 -13.5h-127q0 15 6 41t22.5 60.5t40 64t63 50t87.5 20.5q41 0 79 -14t63.5 -31t59.5 -31t67 -14q28 0 49.5 10t32.5 23t18 28.5t8.5 24.5t1.5 14h129q0 -13 -6.5 -38t-23.5 -59.5t-42 -65t-67.5 -51.5 t-93.5 -21q-53 0 -101 22t-88.5 44t-76.5 22zM135 0v1071h225v-1071h-225z" />
<glyph unicode="&#x12a;" horiz-adv-x="557" d="M-23 1698v143h607v-143h-607zM164 0v1454h229v-1454h-229z" />
<glyph unicode="&#x12b;" horiz-adv-x="495" d="M-53 1319v143h606v-143h-606zM135 0v1071h225v-1071h-225z" />
<glyph unicode="&#x12c;" horiz-adv-x="557" d="M397 1874h125q0 -107 -69.5 -178.5t-173.5 -71.5t-174 71.5t-70 178.5h125q0 -58 36 -101.5t83 -43.5q44 0 78 41t40 104zM164 0v1454h229v-1454h-229z" />
<glyph unicode="&#x12d;" horiz-adv-x="495" d="M367 1495h125q0 -107 -70 -178.5t-174 -71.5t-174 71.5t-70 178.5h125q0 -58 36 -101.5t83 -43.5q45 0 79 41t40 104zM135 0v1071h225v-1071h-225z" />
<glyph unicode="&#x12e;" horiz-adv-x="557" d="M393 0q-157 -113 -157 -186q0 -72 155 -78l-47 -133q-140 11 -198 59.5t-58 114.5q0 117 139 223h-63v1454h229v-1454z" />
<glyph unicode="&#x12f;" horiz-adv-x="495" d="M135 1495h225v-248h-225v248zM135 0v1071h225v-1071q-157 -113 -157 -186q0 -72 155 -78l-47 -133q-140 11 -198 59.5t-58 114.5q0 116 140 223h-60z" />
<glyph unicode="&#x130;" horiz-adv-x="557" d="M176 1638v236h203v-236h-203zM164 0v1454h229v-1454h-229z" />
<glyph unicode="&#x131;" horiz-adv-x="495" d="M135 0v1071h225v-1071h-225z" />
<glyph unicode="&#x134;" horiz-adv-x="999" d="M446 1679l213 195h162l213 -195l-121 -57l-174 129l-174 -129zM76 256q39 -28 107.5 -50t152.5 -22q72 0 122 19.5t82 55.5t50 99t24.5 138.5t6.5 185.5v772h231v-739q0 -89 -3.5 -157.5t-12.5 -141t-26 -127t-43 -106.5t-64.5 -88t-89.5 -63.5t-119 -41t-152 -13.5 q-189 0 -322 91z" />
<glyph unicode="&#x135;" horiz-adv-x="495" d="M-45 1300l213 195h162l213 -195l-121 -57l-174 129l-174 -129zM-250 -299l100 152q54 -48 134 -48q61 0 106 45t45 111v1110h225v-1094q0 -159 -103 -263.5t-247 -104.5q-158 0 -260 92z" />
<glyph unicode="&#x136;" horiz-adv-x="1351" d="M164 0v1452h229v-747l684 749h254l-573 -643l606 -811h-260l-492 666l-219 -228v-438h-229zM621 -436l47 157h-66v181h195v-181l-72 -157h-104z" />
<glyph unicode="&#x137;" horiz-adv-x="1122" d="M881 0l-344 494l-177 -168v-326h-225v1495h225v-942l496 516h242l-416 -448l438 -621h-239zM496 -436l47 157h-66v181h195v-181l-72 -157h-104z" />
<glyph unicode="&#x138;" horiz-adv-x="1122" d="M881 0l-342 494l-179 -168v-326h-225v1071h225v-524l492 522h246l-416 -448l438 -621h-239z" />
<glyph unicode="&#x139;" horiz-adv-x="1196" d="M352 1604l-147 45l117 225h215zM164 0v1454h229v-1251h781v-203h-1010z" />
<glyph unicode="&#x13a;" horiz-adv-x="616" d="M328 1608l-148 45l117 225h215zM137 1495h225v-1186q0 -76 22 -101.5t65 -25.5q76 0 139 29l33 -178q-49 -22 -116 -35.5t-122 -13.5q-116 0 -181 64t-65 179v1268z" />
<glyph unicode="&#x13b;" horiz-adv-x="1196" d="M164 0v1454h229v-1251h781v-203h-1010zM600 -436l47 157h-65v181h194v-181l-71 -157h-105z" />
<glyph unicode="&#x13c;" horiz-adv-x="616" d="M137 1495h225v-1186q0 -76 22 -101.5t65 -25.5q76 0 139 29l33 -178q-49 -22 -116 -35.5t-122 -13.5q-116 0 -181 64t-65 179v1268zM291 -436l47 157h-66v181h195v-181l-72 -157h-104z" />
<glyph unicode="&#x13d;" horiz-adv-x="1196" d="M897 1231l-147 45l116 225h215zM164 0v1454h229v-1251h781v-203h-1010z" />
<glyph unicode="&#x13e;" horiz-adv-x="616" d="M137 1495h225v-1186q0 -76 22 -101.5t65 -25.5q76 0 139 29l33 -178q-49 -22 -116 -35.5t-122 -13.5q-116 0 -181 64t-65 179v1268zM594 1225l-148 45l117 225h215z" />
<glyph unicode="&#x13f;" horiz-adv-x="1196" d="M164 0v1454h229v-1251h781v-203h-1010zM750 690v281h186v-281h-186z" />
<glyph unicode="&#x140;" horiz-adv-x="751" d="M137 1495h225v-1186q0 -76 22 -101.5t65 -25.5q76 0 139 29l33 -178q-49 -22 -116 -35.5t-122 -13.5q-116 0 -181 64t-65 179v1268zM530 498v280h187v-280h-187z" />
<glyph unicode="&#x141;" horiz-adv-x="1212" d="M410 203h780v-203h-1010v563l-110 -78l-62 125l172 121v723h230v-563l260 182l59 -123l-319 -225v-522z" />
<glyph unicode="&#x142;" horiz-adv-x="665" d="M635 211l33 -178q-49 -22 -116 -35.5t-122 -13.5q-116 0 -181 64t-65 179v414l-114 -76l-62 125l176 117v688h226v-541l176 117l63 -123l-239 -157v-482q0 -76 21.5 -101.5t64.5 -25.5q76 0 139 29z" />
<glyph unicode="&#x143;" horiz-adv-x="1570" d="M864 1604l-147 45l117 225h215zM393 1028v-1028h-229v1454h188l824 -1051v1049h231v-1452h-201z" />
<glyph unicode="&#x144;" horiz-adv-x="1222" d="M711 1225l-148 45l117 225h215zM1096 0h-226v600q0 149 -47.5 219t-142.5 70q-98 0 -191.5 -72.5t-128.5 -179.5v-637h-225v1071h205v-215q62 108 179 171t257 63q75 0 131.5 -23t92 -62t57.5 -96.5t30.5 -119t8.5 -136.5v-653z" />
<glyph unicode="&#x145;" horiz-adv-x="1570" d="M393 1028v-1028h-229v1454h188l824 -1051v1049h231v-1452h-201zM700 -436l48 157h-66v181h195v-181l-72 -157h-105z" />
<glyph unicode="&#x146;" horiz-adv-x="1222" d="M1096 0h-226v600q0 149 -47.5 219t-142.5 70q-98 0 -191.5 -72.5t-128.5 -179.5v-637h-225v1071h205v-215q62 108 179 171t257 63q75 0 131.5 -23t92 -62t57.5 -96.5t30.5 -119t8.5 -136.5v-653zM524 -436l47 157h-65v181h194v-181l-71 -157h-105z" />
<glyph unicode="&#x147;" horiz-adv-x="1570" d="M612 1874l174 -129l175 129l120 -57l-213 -195h-161l-213 195zM393 1028v-1028h-229v1454h188l824 -1051v1049h231v-1452h-201z" />
<glyph unicode="&#x148;" horiz-adv-x="1222" d="M459 1495l174 -129l174 129l121 -57l-213 -195h-162l-213 195zM1096 0h-226v600q0 149 -47.5 219t-142.5 70q-98 0 -191.5 -72.5t-128.5 -179.5v-637h-225v1071h205v-215q62 108 179 171t257 63q75 0 131.5 -23t92 -62t57.5 -96.5t30.5 -119t8.5 -136.5v-653z" />
<glyph unicode="&#x14a;" horiz-adv-x="1548" d="M393 1020v-1020h-229v1454h176l813 -1036v1034h231v-1483q0 -157 -104 -258.5t-248 -101.5q-156 0 -258 92l100 152q51 -48 132 -48q61 0 107 45t46 111v82z" />
<glyph unicode="&#x14b;" horiz-adv-x="1220" d="M485 -299l101 152q54 -48 133 -48q61 0 106 45t45 111v639q0 149 -47.5 219t-142.5 70q-98 0 -191.5 -72.5t-128.5 -179.5v-637h-225v1071h205v-215q62 108 179 171t257 63q93 0 158 -34t99 -97t48.5 -137t14.5 -169v-676q0 -159 -103.5 -263.5t-247.5 -104.5 q-158 0 -260 92z" />
<glyph unicode="&#x14c;" d="M471 1698v143h606v-143h-606zM72 727q0 144 53.5 278.5t145.5 235.5t223 162t278 61q151 0 283 -64t220.5 -168.5t139.5 -237t51 -269.5q0 -144 -53.5 -278t-144.5 -235t-222 -161.5t-278 -60.5q-122 0 -232 40.5t-193.5 111.5t-145 164t-93.5 201.5t-32 219.5zM770 197 q106 0 195 46t146 121.5t88.5 169.5t31.5 193q0 103 -33.5 198.5t-92 169t-146 117t-189.5 43.5q-106 0 -195.5 -45.5t-147.5 -120.5t-90 -169t-32 -193q0 -138 55.5 -258t163.5 -196t246 -76z" />
<glyph unicode="&#x14d;" horiz-adv-x="1232" d="M315 1319v143h607v-143h-607zM66 535q0 111 40 212t110 177t174.5 121t225.5 45q162 0 289.5 -77t194.5 -203t67 -275t-67 -275t-194.5 -203t-289.5 -77q-123 0 -227.5 45t-174.5 121t-109 177t-39 212zM616 172q134 0 227 105t93 258t-93 257.5t-227 104.5 q-133 0 -226 -106t-93 -259q0 -154 92.5 -257t226.5 -103z" />
<glyph unicode="&#x14e;" d="M891 1874h125q0 -107 -70 -178.5t-174 -71.5t-174 71.5t-70 178.5h125q0 -58 36 -101.5t83 -43.5q45 0 79 41t40 104zM72 727q0 144 53.5 278.5t145.5 235.5t223 162t278 61q151 0 283 -64t220.5 -168.5t139.5 -237t51 -269.5q0 -144 -53.5 -278t-144.5 -235t-222 -161.5 t-278 -60.5q-122 0 -232 40.5t-193.5 111.5t-145 164t-93.5 201.5t-32 219.5zM770 197q106 0 195 46t146 121.5t88.5 169.5t31.5 193q0 103 -33.5 198.5t-92 169t-146 117t-189.5 43.5q-106 0 -195.5 -45.5t-147.5 -120.5t-90 -169t-32 -193q0 -138 55.5 -258t163.5 -196 t246 -76z" />
<glyph unicode="&#x14f;" horiz-adv-x="1232" d="M735 1495h125q0 -107 -70 -178.5t-174 -71.5t-173.5 71.5t-69.5 178.5h125q0 -58 35.5 -101.5t82.5 -43.5q45 0 79 41t40 104zM66 535q0 111 40 212t110 177t174.5 121t225.5 45q162 0 289.5 -77t194.5 -203t67 -275t-67 -275t-194.5 -203t-289.5 -77q-123 0 -227.5 45 t-174.5 121t-109 177t-39 212zM616 172q134 0 227 105t93 258t-93 257.5t-227 104.5q-133 0 -226 -106t-93 -259q0 -154 92.5 -257t226.5 -103z" />
<glyph unicode="&#x150;" d="M643 1606l-113 45l105 225h182zM946 1606l-115 45l105 225h184zM72 727q0 144 53.5 278.5t145.5 235.5t223 162t278 61q151 0 283 -64t220.5 -168.5t139.5 -237t51 -269.5q0 -144 -53.5 -278t-144.5 -235t-222 -161.5t-278 -60.5q-122 0 -232 40.5t-193.5 111.5t-145 164 t-93.5 201.5t-32 219.5zM770 197q106 0 195 46t146 121.5t88.5 169.5t31.5 193q0 103 -33.5 198.5t-92 169t-146 117t-189.5 43.5q-106 0 -195.5 -45.5t-147.5 -120.5t-90 -169t-32 -193q0 -138 55.5 -258t163.5 -196t246 -76z" />
<glyph unicode="&#x151;" horiz-adv-x="1232" d="M487 1227l-112 45l104 225h183zM791 1227l-115 45l104 225h185zM66 535q0 111 40 212t110 177t174.5 121t225.5 45q162 0 289.5 -77t194.5 -203t67 -275t-67 -275t-194.5 -203t-289.5 -77q-123 0 -227.5 45t-174.5 121t-109 177t-39 212zM616 172q134 0 227 105t93 258 t-93 257.5t-227 104.5q-133 0 -226 -106t-93 -259q0 -154 92.5 -257t226.5 -103z" />
<glyph unicode="&#x152;" horiz-adv-x="2271" d="M2200 203v-203h-977v270q-72 -125 -194.5 -202.5t-268.5 -77.5q-149 0 -279.5 62.5t-219 166t-139 236t-50.5 272.5q0 144 53 278.5t143.5 235.5t220.5 162t275 61q147 0 267.5 -77.5t191.5 -202.5v270h958v-203h-727v-409h617v-203h-617v-436h746zM1214 729 q0 138 -55.5 258t-161 195t-237.5 75q-103 0 -190.5 -46t-144.5 -121t-88.5 -169.5t-31.5 -193.5q0 -139 54.5 -258.5t160.5 -195.5t242 -76q103 0 190 46t143.5 121.5t87.5 170t31 194.5z" />
<glyph unicode="&#x153;" horiz-adv-x="2088" d="M66 532q0 238 157 398t391 160q144 0 257 -74t180 -209q69 139 181 211t259 72q235 0 386 -153t161 -402q0 -56 -4 -74h-858q11 -136 106.5 -228t228.5 -92q95 0 175.5 47.5t109.5 120.5l186 -55q-58 -124 -189.5 -199t-289.5 -75q-136 0 -251 71t-201 203 q-171 -274 -437 -274q-155 0 -280.5 72t-196.5 198.5t-71 281.5zM1812 604q-10 140 -103.5 230t-223.5 90q-129 0 -218 -90t-98 -230h643zM936 535q0 154 -91.5 258t-226.5 104q-136 0 -228.5 -106t-92.5 -261q0 -153 92 -255.5t227 -102.5q137 0 228.5 104t91.5 259z" />
<glyph unicode="&#x154;" horiz-adv-x="1353" d="M713 1608l-148 45l117 225h215zM164 0v1454h633q95 0 180.5 -41t143.5 -108t92 -152t34 -172q0 -148 -78 -267.5t-206 -160.5l342 -553h-258l-316 506h-338v-506h-229zM393 709h402q95 0 157 79.5t62 192.5q0 111 -70 190.5t-162 79.5h-389v-542z" />
<glyph unicode="&#x155;" horiz-adv-x="765" d="M514 1225l-147 45l116 225h215zM737 877q-132 -3 -233.5 -61.5t-143.5 -160.5v-655h-225v1071h209v-240q56 110 145.5 177t190.5 73q43 0 57 -2v-202z" />
<glyph unicode="&#x156;" horiz-adv-x="1353" d="M164 0v1454h633q95 0 180.5 -41t143.5 -108t92 -152t34 -172q0 -148 -78 -267.5t-206 -160.5l342 -553h-258l-316 506h-338v-506h-229zM393 709h402q95 0 157 79.5t62 192.5q0 111 -70 190.5t-162 79.5h-389v-542zM604 -436l47 157h-65v181h194v-181l-71 -157h-105z" />
<glyph unicode="&#x157;" horiz-adv-x="765" d="M737 877q-132 -3 -233.5 -61.5t-143.5 -160.5v-655h-225v1071h209v-240q56 110 145.5 177t190.5 73q43 0 57 -2v-202zM154 -436l47 157h-66v181h195v-181l-72 -157h-104z" />
<glyph unicode="&#x158;" horiz-adv-x="1353" d="M461 1878l174 -129l174 129l121 -57l-213 -195h-162l-213 195zM164 0v1454h633q95 0 180.5 -41t143.5 -108t92 -152t34 -172q0 -148 -78 -267.5t-206 -160.5l342 -553h-258l-316 506h-338v-506h-229zM393 709h402q95 0 157 79.5t62 192.5q0 111 -70 190.5t-162 79.5h-389 v-542z" />
<glyph unicode="&#x159;" horiz-adv-x="765" d="M262 1495l174 -129l174 129l121 -57l-213 -195h-162l-213 195zM737 877q-132 -3 -233.5 -61.5t-143.5 -160.5v-655h-225v1071h209v-240q56 110 145.5 177t190.5 73q43 0 57 -2v-202z" />
<glyph unicode="&#x15a;" horiz-adv-x="1251" d="M721 1626l-148 45l117 225h215zM1024 1112q-47 52 -160 100t-233 48q-142 0 -212.5 -52.5t-70.5 -148.5q0 -30 8 -54t20.5 -42.5t37.5 -35.5t49.5 -29t67 -25.5t79.5 -23t97 -24.5q96 -23 164 -45.5t131 -57t101 -77t60.5 -103.5t22.5 -139q0 -87 -27.5 -157t-75.5 -118 t-116 -80.5t-146 -47t-168 -14.5q-166 0 -321 50.5t-279 145.5l105 197q63 -65 205.5 -125.5t293.5 -60.5q136 0 209.5 48t73.5 138q0 36 -11 65t-38 52.5t-55.5 40.5t-81 35t-96 30t-117.5 31q-115 30 -190 61t-132.5 76t-83.5 106.5t-26 145.5q0 105 40.5 189.5 t111.5 139.5t167 84t209 29q268 0 491 -164z" />
<glyph unicode="&#x15b;" horiz-adv-x="1005" d="M596 1225l-147 45l116 225h215zM516 -20q-137 0 -257.5 45t-205.5 131l84 151q178 -155 371 -155q97 0 155 36.5t58 104.5q0 16 -3 30t-11.5 25.5t-16.5 20t-24.5 17t-29 14t-36.5 13.5t-40 12.5t-47.5 13t-51.5 14.5q-94 29 -152.5 54t-106 60t-68.5 82t-21 111 q0 153 116 241.5t306 88.5q243 0 391 -148l-97 -149q-139 127 -307 127q-85 0 -141.5 -32t-56.5 -104q0 -26 10 -46t24 -33.5t46.5 -28t59 -23t79.5 -24.5q48 -14 79 -23.5t70.5 -23t64 -24.5t53.5 -27t46.5 -31.5t35.5 -36t27 -43t15 -50.5t6 -61q0 -154 -115 -241.5 t-309 -87.5z" />
<glyph unicode="&#x15c;" horiz-adv-x="1251" d="M350 1702l213 194h162l213 -194l-121 -57l-174 129l-174 -129zM1024 1112q-47 52 -160 100t-233 48q-142 0 -212.5 -52.5t-70.5 -148.5q0 -30 8 -54t20.5 -42.5t37.5 -35.5t49.5 -29t67 -25.5t79.5 -23t97 -24.5q96 -23 164 -45.5t131 -57t101 -77t60.5 -103.5t22.5 -139 q0 -87 -27.5 -157t-75.5 -118t-116 -80.5t-146 -47t-168 -14.5q-166 0 -321 50.5t-279 145.5l105 197q63 -65 205.5 -125.5t293.5 -60.5q136 0 209.5 48t73.5 138q0 36 -11 65t-38 52.5t-55.5 40.5t-81 35t-96 30t-117.5 31q-115 30 -190 61t-132.5 76t-83.5 106.5 t-26 145.5q0 105 40.5 189.5t111.5 139.5t167 84t209 29q268 0 491 -164z" />
<glyph unicode="&#x15d;" horiz-adv-x="1005" d="M225 1300l213 195h162l213 -195l-121 -57l-174 129l-174 -129zM516 -20q-137 0 -257.5 45t-205.5 131l84 151q178 -155 371 -155q97 0 155 36.5t58 104.5q0 16 -3 30t-11.5 25.5t-16.5 20t-24.5 17t-29 14t-36.5 13.5t-40 12.5t-47.5 13t-51.5 14.5q-94 29 -152.5 54 t-106 60t-68.5 82t-21 111q0 153 116 241.5t306 88.5q243 0 391 -148l-97 -149q-139 127 -307 127q-85 0 -141.5 -32t-56.5 -104q0 -26 10 -46t24 -33.5t46.5 -28t59 -23t79.5 -24.5q48 -14 79 -23.5t70.5 -23t64 -24.5t53.5 -27t46.5 -31.5t35.5 -36t27 -43t15 -50.5t6 -61 q0 -154 -115 -241.5t-309 -87.5z" />
<glyph unicode="&#x15e;" horiz-adv-x="1251" d="M1186 403q0 -187 -118.5 -289t-315.5 -124q100 -84 100 -193q0 -88 -58.5 -140t-164.5 -52q-127 0 -242 59l57 121q78 -43 146 -43q58 0 90.5 24.5t32.5 71.5q0 78 -107 150q-318 12 -553 194l105 197q63 -65 205.5 -125.5t293.5 -60.5q136 0 209.5 48t73.5 138 q0 36 -11 65t-38 52.5t-55.5 40.5t-81 35t-96 30t-117.5 31q-115 30 -190 61t-132.5 76t-83.5 106.5t-26 145.5q0 105 40.5 189.5t111.5 139.5t167 84t209 29q268 0 491 -164l-104 -188q-47 52 -160 100t-233 48q-142 0 -212.5 -52.5t-70.5 -148.5q0 -30 8 -54t20.5 -42.5 t37.5 -35.5t49.5 -29t67 -25.5t79.5 -23t97 -24.5q96 -23 164 -45.5t131 -57t101 -77t60.5 -103.5t22.5 -139z" />
<glyph unicode="&#x15f;" horiz-adv-x="1005" d="M940 309q0 -131 -86 -215t-236 -108q97 -84 97 -189q0 -88 -58.5 -140t-164.5 -52q-127 0 -242 59l57 121q78 -43 146 -43q58 0 90 24.5t32 71.5q0 74 -96 142q-267 13 -426 176l84 151q178 -155 371 -155q97 0 155 36.5t58 104.5q0 16 -3 30t-11.5 25.5t-16.5 20 t-24.5 17t-29 14t-36.5 13.5t-40 12.5t-47.5 13t-51.5 14.5q-94 29 -152.5 54t-106 60t-68.5 82t-21 111q0 153 116 241.5t306 88.5q243 0 391 -148l-97 -149q-139 127 -307 127q-85 0 -141.5 -32t-56.5 -104q0 -26 10 -46t24 -33.5t46.5 -28t59 -23t79.5 -24.5 q48 -14 79 -23.5t70.5 -23t64 -24.5t53.5 -27t46.5 -31.5t35.5 -36t27 -43t15 -50.5t6 -61z" />
<glyph unicode="&#x160;" horiz-adv-x="1251" d="M469 1896l174 -129l174 129l121 -57l-213 -194h-162l-213 194zM1024 1112q-47 52 -160 100t-233 48q-142 0 -212.5 -52.5t-70.5 -148.5q0 -30 8 -54t20.5 -42.5t37.5 -35.5t49.5 -29t67 -25.5t79.5 -23t97 -24.5q96 -23 164 -45.5t131 -57t101 -77t60.5 -103.5t22.5 -139 q0 -87 -27.5 -157t-75.5 -118t-116 -80.5t-146 -47t-168 -14.5q-166 0 -321 50.5t-279 145.5l105 197q63 -65 205.5 -125.5t293.5 -60.5q136 0 209.5 48t73.5 138q0 36 -11 65t-38 52.5t-55.5 40.5t-81 35t-96 30t-117.5 31q-115 30 -190 61t-132.5 76t-83.5 106.5 t-26 145.5q0 105 40.5 189.5t111.5 139.5t167 84t209 29q268 0 491 -164z" />
<glyph unicode="&#x161;" horiz-adv-x="1005" d="M344 1495l174 -129l174 129l121 -57l-213 -195h-162l-213 195zM516 -20q-137 0 -257.5 45t-205.5 131l84 151q178 -155 371 -155q97 0 155 36.5t58 104.5q0 16 -3 30t-11.5 25.5t-16.5 20t-24.5 17t-29 14t-36.5 13.5t-40 12.5t-47.5 13t-51.5 14.5q-94 29 -152.5 54 t-106 60t-68.5 82t-21 111q0 153 116 241.5t306 88.5q243 0 391 -148l-97 -149q-139 127 -307 127q-85 0 -141.5 -32t-56.5 -104q0 -26 10 -46t24 -33.5t46.5 -28t59 -23t79.5 -24.5q48 -14 79 -23.5t70.5 -23t64 -24.5t53.5 -27t46.5 -31.5t35.5 -36t27 -43t15 -50.5t6 -61 q0 -154 -115 -241.5t-309 -87.5z" />
<glyph unicode="&#x162;" horiz-adv-x="1261" d="M748 1251v-1251h-27q113 -89 113 -203q0 -88 -59 -140t-165 -52q-126 0 -241 59l57 121q78 -43 145 -43q58 0 90.5 24.5t32.5 71.5q0 46 -31.5 84t-95.5 78h-51v1251h-485v203h1200v-203h-483z" />
<glyph unicode="&#x163;" horiz-adv-x="751" d="M545 -6q104 -87 104 -197q0 -88 -58.5 -140t-164.5 -52q-127 0 -242 59l58 121q78 -43 145 -43q58 0 90.5 24.5t32.5 71.5q0 79 -107 148q-96 11 -154.5 71t-58.5 170v670h-141v174h141v352h226v-352h233v-174h-233v-598q3 -54 34 -81.5t80 -27.5q71 0 154 43l47 -178 q-106 -47 -186 -61z" />
<glyph unicode="&#x164;" horiz-adv-x="1261" d="M465 1874l174 -129l174 129l121 -57l-213 -195h-162l-213 195zM1231 1251h-483v-1251h-232v1251h-485v203h1200v-203z" />
<glyph unicode="&#x165;" horiz-adv-x="751" d="M674 1225l-148 45l117 225h215zM731 55q-150 -71 -280 -71q-114 0 -187.5 60.5t-73.5 182.5v670h-141v174h141v352h226v-352h233v-174h-233v-598q3 -54 34 -81.5t80 -27.5q71 0 154 43z" />
<glyph unicode="&#x166;" horiz-adv-x="1316" d="M1257 1251h-483v-491h391v-146h-391v-614h-231v614h-391v146h391v491h-486v203h1200v-203z" />
<glyph unicode="&#x167;" horiz-adv-x="753" d="M686 233l47 -178q-150 -71 -280 -71q-114 0 -187 60.5t-73 182.5v310h-123v139h123v221h-142v174h142v352h225v-352h233v-174h-233v-221h209v-139h-209v-238q3 -54 34 -81.5t80 -27.5q71 0 154 43z" />
<glyph unicode="&#x168;" d="M635 1726q-32 0 -54 -13.5t-31 -33t-12 -32t-3 -19.5h-127q0 15 6 41t22.5 60.5t40 64t63 50t87.5 20.5q51 0 97 -22.5t88 -45t83 -22.5q28 0 49.5 10t33 23t18.5 28.5t8.5 24.5t1.5 14h129q0 -13 -6.5 -38t-24 -60t-42.5 -65t-67.5 -51.5t-93.5 -21.5q-53 0 -101 22 t-88.5 44t-76.5 22zM770 -10q-135 0 -242.5 40t-178.5 107t-118 161.5t-67.5 198t-20.5 220.5v737h230v-737q0 -83 12 -156.5t41.5 -141.5t73.5 -116t113 -77t157 -29q89 0 158.5 29.5t113.5 78.5t73 117t40.5 140.5t11.5 154.5v737h232v-737q0 -153 -36 -281.5t-109.5 -230 t-197 -158.5t-286.5 -57z" />
<glyph unicode="&#x169;" horiz-adv-x="1247" d="M473 1348q-32 0 -54 -13.5t-31 -33.5t-12 -32.5t-3 -19.5h-127q0 15 6 41t22.5 60.5t40 64t63 50t87.5 20.5q51 0 97 -22.5t88 -45t83 -22.5q28 0 49.5 10t33 23t18.5 28.5t8.5 24.5t1.5 14h129q0 -13 -6.5 -38t-24 -59.5t-42.5 -65t-67.5 -51.5t-93.5 -21q-53 0 -101 22 t-88.5 44t-76.5 22zM125 416v655h225v-610q0 -143 52 -216t153 -73q98 0 183.5 60.5t131.5 170.5v668h226v-817q0 -39 14 -56t47 -18v-180q-59 -10 -100 -10q-62 0 -104 33.5t-46 87.5l-4 106q-71 -115 -185.5 -176t-252.5 -61q-167 0 -253.5 110.5t-86.5 325.5z" />
<glyph unicode="&#x16a;" d="M469 1698v143h606v-143h-606zM770 -10q-135 0 -242.5 40t-178.5 107t-118 161.5t-67.5 198t-20.5 220.5v737h230v-737q0 -83 12 -156.5t41.5 -141.5t73.5 -116t113 -77t157 -29q89 0 158.5 29.5t113.5 78.5t73 117t40.5 140.5t11.5 154.5v737h232v-737q0 -153 -36 -281.5 t-109.5 -230t-197 -158.5t-286.5 -57z" />
<glyph unicode="&#x16b;" horiz-adv-x="1247" d="M307 1319v143h606v-143h-606zM125 416v655h225v-610q0 -143 52 -216t153 -73q98 0 183.5 60.5t131.5 170.5v668h226v-817q0 -39 14 -56t47 -18v-180q-59 -10 -100 -10q-62 0 -104 33.5t-46 87.5l-4 106q-71 -115 -185.5 -176t-252.5 -61q-167 0 -253.5 110.5t-86.5 325.5 z" />
<glyph unicode="&#x16c;" d="M889 1874h125q0 -107 -70 -178.5t-174 -71.5t-174 71.5t-70 178.5h125q0 -58 36 -101.5t83 -43.5q45 0 79 41t40 104zM770 -10q-135 0 -242.5 40t-178.5 107t-118 161.5t-67.5 198t-20.5 220.5v737h230v-737q0 -83 12 -156.5t41.5 -141.5t73.5 -116t113 -77t157 -29 q89 0 158.5 29.5t113.5 78.5t73 117t40.5 140.5t11.5 154.5v737h232v-737q0 -153 -36 -281.5t-109.5 -230t-197 -158.5t-286.5 -57z" />
<glyph unicode="&#x16d;" horiz-adv-x="1247" d="M727 1495h125q0 -107 -70 -178.5t-174 -71.5t-173.5 71.5t-69.5 178.5h124q0 -58 36 -101.5t83 -43.5q45 0 79 41t40 104zM125 416v655h225v-610q0 -143 52 -216t153 -73q98 0 183.5 60.5t131.5 170.5v668h226v-817q0 -39 14 -56t47 -18v-180q-59 -10 -100 -10 q-62 0 -104 33.5t-46 87.5l-4 106q-71 -115 -185.5 -176t-252.5 -61q-167 0 -253.5 110.5t-86.5 325.5z" />
<glyph unicode="&#x16e;" d="M770 1915q92 0 148.5 -50.5t56.5 -133.5q0 -81 -56 -130t-149 -49q-90 0 -146.5 49t-56.5 130q0 83 56.5 133.5t146.5 50.5zM678 1731q0 -39 26.5 -66t65.5 -27t67.5 27t28.5 66q0 43 -27 68.5t-69 25.5q-39 0 -65.5 -25.5t-26.5 -68.5zM770 -10q-135 0 -242.5 40 t-178.5 107t-118 161.5t-67.5 198t-20.5 220.5v737h230v-737q0 -83 12 -156.5t41.5 -141.5t73.5 -116t113 -77t157 -29q89 0 158.5 29.5t113.5 78.5t73 117t40.5 140.5t11.5 154.5v737h232v-737q0 -153 -36 -281.5t-109.5 -230t-197 -158.5t-286.5 -57z" />
<glyph unicode="&#x16f;" horiz-adv-x="1247" d="M608 1536q92 0 148.5 -50.5t56.5 -133.5q0 -81 -56 -129.5t-149 -48.5q-90 0 -146 48.5t-56 129.5q0 83 56 133.5t146 50.5zM516 1352q0 -39 26.5 -65.5t65.5 -26.5t68 26.5t29 65.5q0 43 -27.5 68.5t-69.5 25.5q-39 0 -65.5 -25.5t-26.5 -68.5zM125 416v655h225v-610 q0 -143 52 -216t153 -73q98 0 183.5 60.5t131.5 170.5v668h226v-817q0 -39 14 -56t47 -18v-180q-59 -10 -100 -10q-62 0 -104 33.5t-46 87.5l-4 106q-71 -115 -185.5 -176t-252.5 -61q-167 0 -253.5 110.5t-86.5 325.5z" />
<glyph unicode="&#x170;" d="M641 1606l-113 45l105 225h182zM944 1606l-115 45l105 225h184zM770 -10q-135 0 -242.5 40t-178.5 107t-118 161.5t-67.5 198t-20.5 220.5v737h230v-737q0 -83 12 -156.5t41.5 -141.5t73.5 -116t113 -77t157 -29q89 0 158.5 29.5t113.5 78.5t73 117t40.5 140.5 t11.5 154.5v737h232v-737q0 -153 -36 -281.5t-109.5 -230t-197 -158.5t-286.5 -57z" />
<glyph unicode="&#x171;" horiz-adv-x="1247" d="M479 1227l-112 45l104 225h182zM782 1227l-114 45l104 225h184zM125 416v655h225v-610q0 -143 52 -216t153 -73q98 0 183.5 60.5t131.5 170.5v668h226v-817q0 -39 14 -56t47 -18v-180q-59 -10 -100 -10q-62 0 -104 33.5t-46 87.5l-4 106q-71 -115 -185.5 -176t-252.5 -61 q-167 0 -253.5 110.5t-86.5 325.5z" />
<glyph unicode="&#x172;" d="M1167 1454h232v-737q0 -135 -28 -252t-85.5 -213.5t-152 -161.5t-220.5 -88q-155 -111 -155 -184q0 -72 155 -78l-47 -133q-140 11 -198 59.5t-58 114.5q0 109 123 209q-126 5 -227.5 47.5t-168 110t-111 160.5t-64 194t-19.5 215v737h230v-737q0 -83 12 -156.5 t41.5 -141.5t73.5 -116t113 -77t157 -29q89 0 158.5 29.5t113.5 78.5t73 117t40.5 140.5t11.5 154.5v737z" />
<glyph unicode="&#x173;" horiz-adv-x="1247" d="M1157 0q-158 -114 -158 -186t156 -78l-47 -133q-140 11 -198 59.5t-58 114.5q0 117 141 223q-37 14 -60 43.5t-26 67.5l-4 106q-71 -115 -185.5 -176t-252.5 -61q-167 0 -253.5 110.5t-86.5 325.5v655h225v-610q0 -143 52 -216t153 -73q98 0 183.5 60.5t131.5 170.5v668 h226v-817q0 -39 14 -56t47 -18v-180z" />
<glyph unicode="&#x174;" horiz-adv-x="2152" d="M782 1679l213 195h162l213 -195l-121 -57l-174 129l-174 -129zM680 1448h215l180 -494l182 494h216l-250 -647l217 -535l452 1188h252l-596 -1454h-198l-273 651l-274 -651h-201l-594 1454h250l455 -1188l217 535z" />
<glyph unicode="&#x175;" horiz-adv-x="1699" d="M557 1300l213 195h162l213 -195l-121 -57l-174 129l-174 -129zM1470 1071h216l-451 -1071h-193l-192 483l-193 -483h-192l-453 1071h215l344 -852l152 395l-184 455h190l121 -334l119 334h190l-182 -455l151 -395z" />
<glyph unicode="&#x176;" horiz-adv-x="1345" d="M379 1679l213 195h162l213 -195l-121 -57l-174 129l-174 -129zM270 1454l402 -723l405 723h252l-543 -934v-520h-229v524l-539 930h252z" />
<glyph unicode="&#x177;" horiz-adv-x="1120" d="M289 1300l213 195h162l213 -195l-121 -57l-174 129l-174 -129zM172 -252q72 -14 109 -14q52 0 85.5 50.5t92.5 215.5l-441 1071h236l328 -842l290 842h218l-486 -1319q-34 -96 -117.5 -156.5t-203.5 -60.5q-54 0 -111 16v197z" />
<glyph unicode="&#x178;" horiz-adv-x="1345" d="M397 1640v226h189v-226h-189zM760 1640v226h188v-226h-188zM270 1454l402 -723l405 723h252l-543 -934v-520h-229v524l-539 930h252z" />
<glyph unicode="&#x179;" horiz-adv-x="1288" d="M752 1604l-148 45l117 225h215zM63 176l879 1075h-858v203h1130v-176l-856 -1075h859v-203h-1154v176z" />
<glyph unicode="&#x17a;" horiz-adv-x="1009" d="M594 1225l-148 45l117 225h215zM57 141l635 770h-612v160h858v-141l-631 -770h637v-160h-887v141z" />
<glyph unicode="&#x17b;" horiz-adv-x="1288" d="M571 1638v236h203v-236h-203zM63 176l879 1075h-858v203h1130v-176l-856 -1075h859v-203h-1154v176z" />
<glyph unicode="&#x17c;" horiz-adv-x="1009" d="M414 1260v235h202v-235h-202zM57 141l635 770h-612v160h858v-141l-631 -770h637v-160h-887v141z" />
<glyph unicode="&#x17d;" horiz-adv-x="1288" d="M500 1874l174 -129l174 129l121 -57l-213 -195h-162l-213 195zM63 176l879 1075h-858v203h1130v-176l-856 -1075h859v-203h-1154v176z" />
<glyph unicode="&#x17e;" horiz-adv-x="1009" d="M342 1495l174 -129l174 129l121 -57l-213 -195h-162l-213 195zM57 141l635 770h-612v160h858v-141l-631 -770h637v-160h-887v141z" />
<glyph unicode="&#x18f;" horiz-adv-x="1517" d="M49 711q0 70 6 100h1135q-20 195 -147.5 319.5t-299.5 124.5q-130 0 -238 -70t-143 -179l-225 88q80 166 249.5 268t369.5 102q145 0 273.5 -60t219 -160t143 -234.5t52.5 -280.5q0 -199 -88.5 -368t-248.5 -270t-357 -101q-147 0 -279 59.5t-223.5 158.5t-145 230.5 t-53.5 272.5zM1192 623h-893q9 -120 71.5 -218.5t164.5 -154t221 -55.5q175 0 298 121t138 307z" />
<glyph unicode="&#x192;" horiz-adv-x="1107" d="M61 -299l101 152q51 -48 131 -48q61 0 106 45t45 111v811h-141v174h141v141q0 196 93 312.5t249 116.5q131 0 250 -66l-49 -168q-71 43 -153 43q-80 0 -122 -59.5t-42 -171.5v-148h274v-174h-274v-805q0 -155 -104 -256.5t-247 -101.5q-156 0 -258 92z" />
<glyph unicode="&#x1a0;" d="M1141 1352q151 -103 238 -273.5t87 -353.5q0 -144 -53.5 -278t-144.5 -235t-222 -161.5t-278 -60.5q-122 0 -232 40.5t-193.5 111.5t-145 164t-93.5 201.5t-32 219.5q0 144 53.5 278.5t145.5 235.5t223 162t278 61q54 0 119 -10q131 0 172 47q32 38 35 129h172 q-4 -75 -19.5 -132.5t-58.5 -104.5q-19 -22 -51 -41zM770 197q106 0 195 46t146 121.5t88.5 169.5t31.5 193q0 103 -33.5 198.5t-92 169t-146 117t-189.5 43.5q-106 0 -195.5 -45.5t-147.5 -120.5t-90 -169t-32 -193q0 -138 55.5 -258t163.5 -196t246 -76z" />
<glyph unicode="&#x1a1;" horiz-adv-x="1232" d="M979 961q89 -77 138.5 -188.5t49.5 -237.5q0 -149 -67 -275t-194.5 -203t-289.5 -77q-123 0 -227.5 45t-174.5 121t-109 177t-39 212t40 212t110 177t174.5 121t225.5 45q66 0 142 -17q118 0 162 47q31 37 34 129h172q-4 -76 -19 -133t-58 -104q-25 -28 -70 -51zM616 172 q134 0 227 105t93 258t-93 257.5t-227 104.5q-133 0 -226 -106t-93 -259q0 -154 92.5 -257t226.5 -103z" />
<glyph unicode="&#x1af;" d="M1468 1632h172q-4 -76 -19 -133t-58 -104q-53 -59 -164 -84v-594q0 -153 -36 -281.5t-109.5 -230t-197 -158.5t-286.5 -57q-135 0 -242.5 40t-178.5 107t-118 161.5t-67.5 198t-20.5 220.5v737h230v-737q0 -83 12 -156.5t41.5 -141.5t73.5 -116t113 -77t157 -29 q89 0 158.5 29.5t113.5 78.5t73 117t40.5 140.5t11.5 154.5v737h95v2q131 0 172 47q31 37 34 129z" />
<glyph unicode="&#x1b0;" horiz-adv-x="1247" d="M1171 1247h172q-4 -76 -19 -133t-58 -104q-56 -62 -170 -84v-672q0 -39 14 -56t47 -18v-180q-59 -10 -100 -10q-62 0 -104 33.5t-46 87.5l-4 106q-71 -115 -185.5 -176t-252.5 -61q-167 0 -253.5 110.5t-86.5 325.5v655h225v-610q0 -143 52 -216t153 -73q98 0 183.5 60.5 t131.5 170.5v668h95q131 0 172 47q31 37 34 129z" />
<glyph unicode="&#x1e6;" horiz-adv-x="1472" d="M846 1622h-162l-213 195l119 57l174 -129l174 129l121 -57zM877 735h497v-735h-192v180q-181 -190 -424 -190q-141 0 -268.5 61t-218 162t-144 237.5t-53.5 282.5t53 280.5t143.5 233.5t220 158t275.5 59q201 0 344.5 -84.5t218.5 -232.5l-176 -127q-59 116 -162 176.5 t-231 60.5q-133 0 -238 -74.5t-160 -195t-55 -260.5q0 -221 135 -375.5t334 -154.5q226 0 406 213v155h-305v170z" />
<glyph unicode="&#x1e7;" horiz-adv-x="1288" d="M453 1495l174 -129l174 129l121 -57l-213 -195h-162l-213 195zM70 535q0 152 62.5 278.5t177 201.5t257.5 75q124 0 222.5 -59.5t164.5 -162.5v203h199v-1040q0 -151 -75 -263t-203 -168.5t-291 -56.5q-324 0 -494 230l127 118q60 -85 157.5 -130.5t209.5 -45.5 q95 0 171 32.5t124.5 106t48.5 177.5v164q-56 -95 -156.5 -150t-212.5 -55q-140 0 -253.5 76t-174.5 200t-61 269zM928 385v281q-40 101 -128 166t-184 65q-94 0 -168 -54.5t-111.5 -138t-37.5 -176.5q0 -147 97 -251.5t237 -104.5q99 0 184.5 63t110.5 150z" />
<glyph unicode="&#x1ea;" d="M926 8q-150 -110 -150 -180q0 -72 156 -78l-47 -133q-140 11 -198 59.5t-58 114.5q0 108 110 199q-145 6 -271.5 70.5t-212 167t-134.5 232.5t-49 267q0 144 53.5 278.5t145.5 235.5t223 162t278 61q151 0 283 -64t220.5 -168.5t139.5 -237t51 -269.5q0 -253 -151.5 -456 t-388.5 -261zM305 727q0 -138 55.5 -258t163.5 -196t246 -76q106 0 195 46t146 121.5t88.5 169.5t31.5 193q0 103 -33.5 198.5t-92 169t-146 117t-189.5 43.5q-106 0 -195.5 -45.5t-147.5 -120.5t-90 -169t-32 -193z" />
<glyph unicode="&#x1eb;" horiz-adv-x="1232" d="M768 -2q-156 -112 -156 -184t156 -78l-47 -133q-140 11 -198 59.5t-58 114.5q0 106 115 203q-152 9 -271 87.5t-181 201t-62 266.5q0 111 40 212t110 177t174.5 121t225.5 45q162 0 289.5 -77t194.5 -203t67 -275q0 -190 -108.5 -339t-290.5 -198zM297 532 q0 -154 92.5 -257t226.5 -103t227 105t93 258t-93 257.5t-227 104.5q-133 0 -226 -106t-93 -259z" />
<glyph unicode="&#x1fa;" horiz-adv-x="1382" d="M813 1419l553 -1419h-242l-153 395h-561l-152 -395h-244l557 1421q-82 50 -82 148q0 67 39.5 115t104.5 63l92 166h215l-135 -184q92 -50 92 -160q0 -101 -84 -150zM692 1663q-39 0 -65.5 -25.5t-26.5 -68.5q0 -39 26.5 -65.5t65.5 -26.5t67.5 26.5t28.5 65.5 q0 43 -27 68.5t-69 25.5zM451 565h475l-234 637z" />
<glyph unicode="&#x1fb;" horiz-adv-x="1155" d="M647 1606l-147 45l116 225h215zM551 1536q92 0 148.5 -50.5t56.5 -133.5q0 -81 -56 -129.5t-149 -48.5q-90 0 -146.5 48.5t-56.5 129.5q0 83 56.5 133.5t146.5 50.5zM459 1352q0 -39 26.5 -65.5t65.5 -26.5t67.5 26.5t28.5 65.5q0 43 -27 68.5t-69 25.5 q-39 0 -65.5 -25.5t-26.5 -68.5zM57 313q0 153 127 246.5t330 93.5q163 0 279 -43v68q0 113 -69 176.5t-194 63.5q-86 0 -166 -30t-174 -91l-75 151q213 142 440 142q217 0 340 -114.5t123 -322.5v-399q0 -38 13.5 -55.5t45.5 -18.5v-180q-54 -10 -96 -10q-68 0 -106.5 33 t-45.5 83l-6 62q-69 -89 -176.5 -138.5t-220.5 -49.5q-160 0 -264.5 95.5t-104.5 237.5zM739 248q54 54 54 100v123q-118 45 -246 45q-124 0 -200.5 -50t-76.5 -134q0 -76 58.5 -131.5t160.5 -55.5q70 0 138 29t112 74z" />
<glyph unicode="&#x1fc;" horiz-adv-x="1972" d="M1321 1604l-147 45l116 225h215zM866 1454h1016v-203h-725v-409h615v-203h-615v-436h744v-203h-973v395h-490l-241 -395h-248zM911 600v590l-372 -590h372z" />
<glyph unicode="&#x1fd;" horiz-adv-x="1914" d="M1030 1225l-147 45l116 225h215zM57 315q0 150 125.5 244t325.5 94q148 0 254 -41q8 78 22 115q-12 98 -77.5 150.5t-178.5 52.5q-158 0 -338 -123l-71 143q212 140 430 140q128 0 223 -45.5t150 -129.5q70 81 171 128t220 47q123 0 227.5 -44.5t175 -120t110 -176.5 t40.5 -214q0 -47 -6 -74h-875q10 -139 108 -227.5t232 -88.5q92 0 171.5 45.5t109.5 118.5l192 -55q-55 -122 -185 -198t-296 -76q-145 0 -263 61t-190 166q-66 -113 -191.5 -170t-254.5 -57q-154 0 -257.5 96t-103.5 239zM1640 604q-12 141 -104 230.5t-227 89.5t-227 -90 t-101 -230h659zM750 258q39 32 43 72q-27 61 -31 157q-109 37 -217 37q-122 0 -199.5 -53t-77.5 -137q0 -80 61 -134.5t150 -54.5q84 0 158 30.5t113 82.5z" />
<glyph unicode="&#x1fe;" horiz-adv-x="1538" d="M1034 1874l-184 -270l-148 45l117 225h215zM1255 1253q100 -106 155.5 -244.5t55.5 -283.5q0 -144 -53.5 -278t-144.5 -235t-222 -161.5t-278 -60.5q-173 0 -324 82l-49 -72h-250l138 199q-100 104 -155.5 243t-55.5 285q0 144 53.5 278.5t145.5 235.5t223 162t278 61 q174 0 320 -84l51 74h250zM305 727q0 -194 105 -342l563 819q-91 51 -203 51q-106 0 -195.5 -45.5t-147.5 -120.5t-90 -169t-32 -193zM770 197q106 0 195 46t146 121.5t88.5 169.5t31.5 193q0 195 -105 340l-561 -819q91 -51 205 -51z" />
<glyph unicode="&#x1ff;" horiz-adv-x="1232" d="M786 1495l-184 -270l-147 45l116 225h215zM1004 938q78 -77 120.5 -181.5t42.5 -221.5q0 -149 -67 -275t-194.5 -203t-289.5 -77q-159 0 -290 75l-52 -61h-163l114 141q-76 76 -117.5 180t-41.5 220q0 111 40 212t110 177t174.5 121t225.5 45q157 0 283 -74l49 61h168z M616 897q-133 0 -226 -106t-93 -259q0 -131 74 -235l399 557q-67 43 -154 43zM616 172q134 0 227 105t93 258q0 135 -76 237l-401 -555q70 -45 157 -45z" />
<glyph unicode="&#x200;" horiz-adv-x="1382" d="M334 1876h184l105 -225l-115 -45zM637 1876h182l105 -225l-113 -45zM584 1454h217l565 -1454h-242l-153 395h-561l-152 -395h-244zM926 565l-234 637l-241 -637h475z" />
<glyph unicode="&#x201;" horiz-adv-x="1155" d="M193 1497h184l104 -225l-114 -45zM496 1497h182l104 -225l-112 -45zM57 313q0 153 127 246.5t330 93.5q163 0 279 -43v68q0 113 -69 176.5t-194 63.5q-86 0 -166 -30t-174 -91l-75 151q213 142 440 142q217 0 340 -114.5t123 -322.5v-399q0 -38 13.5 -55.5t45.5 -18.5 v-180q-54 -10 -96 -10q-68 0 -106.5 33t-45.5 83l-6 62q-69 -89 -176.5 -138.5t-220.5 -49.5q-160 0 -264.5 95.5t-104.5 237.5zM739 248q54 54 54 100v123q-118 45 -246 45q-124 0 -200.5 -50t-76.5 -134q0 -76 58.5 -131.5t160.5 -55.5q70 0 138 29t112 74z" />
<glyph unicode="&#x202;" horiz-adv-x="1382" d="M573 1624h-124q0 107 69.5 178.5t173.5 71.5t174 -71.5t70 -178.5h-125q-6 63 -40 104t-79 41q-47 0 -83 -43.5t-36 -101.5zM584 1454h217l565 -1454h-242l-153 395h-561l-152 -395h-244zM926 565l-234 637l-241 -637h475z" />
<glyph unicode="&#x203;" horiz-adv-x="1155" d="M432 1245h-125q0 107 70 178.5t174 71.5t174 -71.5t70 -178.5h-125q-6 63 -40 104.5t-79 41.5q-47 0 -83 -44t-36 -102zM57 313q0 153 127 246.5t330 93.5q163 0 279 -43v68q0 113 -69 176.5t-194 63.5q-86 0 -166 -30t-174 -91l-75 151q213 142 440 142 q217 0 340 -114.5t123 -322.5v-399q0 -38 13.5 -55.5t45.5 -18.5v-180q-54 -10 -96 -10q-68 0 -106.5 33t-45.5 83l-6 62q-69 -89 -176.5 -138.5t-220.5 -49.5q-160 0 -264.5 95.5t-104.5 237.5zM739 248q54 54 54 100v123q-118 45 -246 45q-124 0 -200.5 -50t-76.5 -134 q0 -76 58.5 -131.5t160.5 -55.5q70 0 138 29t112 74z" />
<glyph unicode="&#x204;" horiz-adv-x="1234" d="M317 1876h185l104 -225l-114 -45zM621 1876h182l104 -225l-112 -45zM1161 203v-203h-997v1454h979v-203h-750v-413h649v-191h-649v-444h768z" />
<glyph unicode="&#x205;" horiz-adv-x="1218" d="M258 1497h184l105 -225l-115 -45zM561 1497h182l105 -225l-113 -45zM621 -20q-163 0 -291 76t-196 201t-68 275q0 113 40.5 215t111.5 178t176.5 120.5t228.5 44.5t226.5 -45t173 -120.5t108 -174.5t38.5 -207q0 -28 -6 -82h-858q10 -139 103.5 -227.5t220.5 -88.5 q92 0 171 45.5t109 118.5l193 -55q-57 -123 -186 -198.5t-295 -75.5zM299 610h647q-12 139 -103.5 226.5t-221.5 87.5q-129 0 -221 -88.5t-101 -225.5z" />
<glyph unicode="&#x206;" horiz-adv-x="1234" d="M557 1624h-125q0 107 70 178.5t174 71.5t174 -71.5t70 -178.5h-125q-6 63 -40 104t-79 41q-47 0 -83 -43.5t-36 -101.5zM1161 203v-203h-997v1454h979v-203h-750v-413h649v-191h-649v-444h768z" />
<glyph unicode="&#x207;" horiz-adv-x="1218" d="M498 1245h-125q0 107 69.5 178.5t173.5 71.5t174 -71.5t70 -178.5h-125q-6 63 -40 104.5t-79 41.5q-47 0 -82.5 -44t-35.5 -102zM621 -20q-163 0 -291 76t-196 201t-68 275q0 113 40.5 215t111.5 178t176.5 120.5t228.5 44.5t226.5 -45t173 -120.5t108 -174.5t38.5 -207 q0 -28 -6 -82h-858q10 -139 103.5 -227.5t220.5 -88.5q92 0 171 45.5t109 118.5l193 -55q-57 -123 -186 -198.5t-295 -75.5zM299 610h647q-12 139 -103.5 226.5t-221.5 87.5q-129 0 -221 -88.5t-101 -225.5z" />
<glyph unicode="&#x208;" horiz-adv-x="557" d="M-80 1876h184l105 -225l-115 -45zM223 1876h183l104 -225l-113 -45zM164 0v1454h229v-1454h-229z" />
<glyph unicode="&#x209;" horiz-adv-x="495" d="M-111 1497h185l104 -225l-115 -45zM193 1497h182l104 -225l-112 -45zM135 0v1071h225v-1071h-225z" />
<glyph unicode="&#x20a;" horiz-adv-x="557" d="M160 1624h-125q0 107 70 178.5t174 71.5t173.5 -71.5t69.5 -178.5h-125q-6 63 -40 104t-78 41q-47 0 -83 -43.5t-36 -101.5zM164 0v1454h229v-1454h-229z" />
<glyph unicode="&#x20b;" horiz-adv-x="495" d="M129 1245h-125q0 107 70 178.5t174 71.5t174 -71.5t70 -178.5h-125q-6 63 -40 104.5t-79 41.5q-47 0 -83 -44t-36 -102zM135 0v1071h225v-1071h-225z" />
<glyph unicode="&#x20c;" d="M414 1876h184l104 -225l-114 -45zM717 1876h182l105 -225l-113 -45zM72 727q0 144 53.5 278.5t145.5 235.5t223 162t278 61q151 0 283 -64t220.5 -168.5t139.5 -237t51 -269.5q0 -144 -53.5 -278t-144.5 -235t-222 -161.5t-278 -60.5q-122 0 -232 40.5t-193.5 111.5 t-145 164t-93.5 201.5t-32 219.5zM770 197q106 0 195 46t146 121.5t88.5 169.5t31.5 193q0 103 -33.5 198.5t-92 169t-146 117t-189.5 43.5q-106 0 -195.5 -45.5t-147.5 -120.5t-90 -169t-32 -193q0 -138 55.5 -258t163.5 -196t246 -76z" />
<glyph unicode="&#x20d;" horiz-adv-x="1232" d="M258 1497h184l105 -225l-115 -45zM561 1497h182l105 -225l-113 -45zM66 535q0 111 40 212t110 177t174.5 121t225.5 45q162 0 289.5 -77t194.5 -203t67 -275t-67 -275t-194.5 -203t-289.5 -77q-123 0 -227.5 45t-174.5 121t-109 177t-39 212zM616 172q134 0 227 105 t93 258t-93 257.5t-227 104.5q-133 0 -226 -106t-93 -259q0 -154 92.5 -257t226.5 -103z" />
<glyph unicode="&#x20e;" d="M653 1624h-125q0 107 70 178.5t174 71.5t174 -71.5t70 -178.5h-125q-6 63 -40 104t-79 41q-47 0 -83 -43.5t-36 -101.5zM72 727q0 144 53.5 278.5t145.5 235.5t223 162t278 61q151 0 283 -64t220.5 -168.5t139.5 -237t51 -269.5q0 -144 -53.5 -278t-144.5 -235 t-222 -161.5t-278 -60.5q-122 0 -232 40.5t-193.5 111.5t-145 164t-93.5 201.5t-32 219.5zM770 197q106 0 195 46t146 121.5t88.5 169.5t31.5 193q0 103 -33.5 198.5t-92 169t-146 117t-189.5 43.5q-106 0 -195.5 -45.5t-147.5 -120.5t-90 -169t-32 -193q0 -138 55.5 -258 t163.5 -196t246 -76z" />
<glyph unicode="&#x20f;" horiz-adv-x="1232" d="M498 1245h-125q0 107 69.5 178.5t173.5 71.5t174 -71.5t70 -178.5h-125q-6 63 -40 104.5t-79 41.5q-47 0 -82.5 -44t-35.5 -102zM66 535q0 111 40 212t110 177t174.5 121t225.5 45q162 0 289.5 -77t194.5 -203t67 -275t-67 -275t-194.5 -203t-289.5 -77q-123 0 -227.5 45 t-174.5 121t-109 177t-39 212zM616 172q134 0 227 105t93 258t-93 257.5t-227 104.5q-133 0 -226 -106t-93 -259q0 -154 92.5 -257t226.5 -103z" />
<glyph unicode="&#x210;" horiz-adv-x="1353" d="M276 1880h185l104 -225l-114 -45zM580 1880h182l104 -225l-112 -45zM164 0v1454h633q95 0 180.5 -41t143.5 -108t92 -152t34 -172q0 -148 -78 -267.5t-206 -160.5l342 -553h-258l-316 506h-338v-506h-229zM393 709h402q95 0 157 79.5t62 192.5q0 111 -70 190.5t-162 79.5 h-389v-542z" />
<glyph unicode="&#x211;" horiz-adv-x="765" d="M78 1497h184l105 -225l-115 -45zM381 1497h182l105 -225l-113 -45zM737 877q-132 -3 -233.5 -61.5t-143.5 -160.5v-655h-225v1071h209v-240q56 110 145.5 177t190.5 73q43 0 57 -2v-202z" />
<glyph unicode="&#x212;" horiz-adv-x="1353" d="M516 1628h-125q0 107 70 178.5t174 71.5t174 -71.5t70 -178.5h-125q-6 63 -40 104.5t-79 41.5q-47 0 -83 -44t-36 -102zM164 0v1454h633q95 0 180.5 -41t143.5 -108t92 -152t34 -172q0 -148 -78 -267.5t-206 -160.5l342 -553h-258l-316 506h-338v-506h-229zM393 709h402 q95 0 157 79.5t62 192.5q0 111 -70 190.5t-162 79.5h-389v-542z" />
<glyph unicode="&#x213;" horiz-adv-x="765" d="M317 1245h-124q0 107 69.5 178.5t173.5 71.5t174 -71.5t70 -178.5h-125q-6 63 -40 104.5t-79 41.5q-47 0 -83 -44t-36 -102zM737 877q-132 -3 -233.5 -61.5t-143.5 -160.5v-655h-225v1071h209v-240q56 110 145.5 177t190.5 73q43 0 57 -2v-202z" />
<glyph unicode="&#x214;" d="M412 1876h184l104 -225l-114 -45zM715 1876h182l104 -225l-112 -45zM770 -10q-135 0 -242.5 40t-178.5 107t-118 161.5t-67.5 198t-20.5 220.5v737h230v-737q0 -83 12 -156.5t41.5 -141.5t73.5 -116t113 -77t157 -29q89 0 158.5 29.5t113.5 78.5t73 117t40.5 140.5 t11.5 154.5v737h232v-737q0 -153 -36 -281.5t-109.5 -230t-197 -158.5t-286.5 -57z" />
<glyph unicode="&#x215;" horiz-adv-x="1247" d="M250 1497h184l105 -225l-115 -45zM553 1497h182l105 -225l-113 -45zM125 416v655h225v-610q0 -143 52 -216t153 -73q98 0 183.5 60.5t131.5 170.5v668h226v-817q0 -39 14 -56t47 -18v-180q-59 -10 -100 -10q-62 0 -104 33.5t-46 87.5l-4 106q-71 -115 -185.5 -176 t-252.5 -61q-167 0 -253.5 110.5t-86.5 325.5z" />
<glyph unicode="&#x216;" d="M651 1624h-125q0 107 70 178.5t174 71.5t174 -71.5t70 -178.5h-125q-6 63 -40 104t-79 41q-47 0 -83 -43.5t-36 -101.5zM770 -10q-135 0 -242.5 40t-178.5 107t-118 161.5t-67.5 198t-20.5 220.5v737h230v-737q0 -83 12 -156.5t41.5 -141.5t73.5 -116t113 -77t157 -29 q89 0 158.5 29.5t113.5 78.5t73 117t40.5 140.5t11.5 154.5v737h232v-737q0 -153 -36 -281.5t-109.5 -230t-197 -158.5t-286.5 -57z" />
<glyph unicode="&#x217;" horiz-adv-x="1247" d="M489 1245h-124q0 107 69.5 178.5t173.5 71.5t174 -71.5t70 -178.5h-125q-6 63 -40 104.5t-79 41.5q-47 0 -83 -44t-36 -102zM125 416v655h225v-610q0 -143 52 -216t153 -73q98 0 183.5 60.5t131.5 170.5v668h226v-817q0 -39 14 -56t47 -18v-180q-59 -10 -100 -10 q-62 0 -104 33.5t-46 87.5l-4 106q-71 -115 -185.5 -176t-252.5 -61q-167 0 -253.5 110.5t-86.5 325.5z" />
<glyph unicode="&#x218;" horiz-adv-x="1251" d="M1024 1112q-47 52 -160 100t-233 48q-142 0 -212.5 -52.5t-70.5 -148.5q0 -30 8 -54t20.5 -42.5t37.5 -35.5t49.5 -29t67 -25.5t79.5 -23t97 -24.5q96 -23 164 -45.5t131 -57t101 -77t60.5 -103.5t22.5 -139q0 -87 -27.5 -157t-75.5 -118t-116 -80.5t-146 -47t-168 -14.5 q-166 0 -321 50.5t-279 145.5l105 197q63 -65 205.5 -125.5t293.5 -60.5q136 0 209.5 48t73.5 138q0 36 -11 65t-38 52.5t-55.5 40.5t-81 35t-96 30t-117.5 31q-115 30 -190 61t-132.5 76t-83.5 106.5t-26 145.5q0 105 40.5 189.5t111.5 139.5t167 84t209 29q268 0 491 -164 zM567 -436l47 157h-65v181h194v-181l-71 -157h-105z" />
<glyph unicode="&#x219;" horiz-adv-x="1005" d="M516 -20q-137 0 -257.5 45t-205.5 131l84 151q178 -155 371 -155q97 0 155 36.5t58 104.5q0 16 -3 30t-11.5 25.5t-16.5 20t-24.5 17t-29 14t-36.5 13.5t-40 12.5t-47.5 13t-51.5 14.5q-94 29 -152.5 54t-106 60t-68.5 82t-21 111q0 153 116 241.5t306 88.5 q243 0 391 -148l-97 -149q-139 127 -307 127q-85 0 -141.5 -32t-56.5 -104q0 -26 10 -46t24 -33.5t46.5 -28t59 -23t79.5 -24.5q48 -14 79 -23.5t70.5 -23t64 -24.5t53.5 -27t46.5 -31.5t35.5 -36t27 -43t15 -50.5t6 -61q0 -154 -115 -241.5t-309 -87.5zM430 -436l47 157 h-65v181h194v-181l-71 -157h-105z" />
<glyph unicode="&#x21a;" horiz-adv-x="1261" d="M1231 1251h-483v-1251h-232v1251h-485v203h1200v-203zM549 -436l47 157h-66v181h195v-181l-72 -157h-104z" />
<glyph unicode="&#x21b;" horiz-adv-x="751" d="M731 55q-150 -71 -280 -71q-114 0 -187.5 60.5t-73.5 182.5v670h-141v174h141v352h226v-352h233v-174h-233v-598q3 -54 34 -81.5t80 -27.5q71 0 154 43zM365 -436l47 157h-66v181h195v-181l-72 -157h-104z" />
<glyph unicode="&#x22a;" d="M471 2103v144h606v-144h-606zM498 1640v226h188v-226h-188zM860 1640v226h189v-226h-189zM72 727q0 144 53.5 278.5t145.5 235.5t223 162t278 61q151 0 283 -64t220.5 -168.5t139.5 -237t51 -269.5q0 -144 -53.5 -278t-144.5 -235t-222 -161.5t-278 -60.5 q-122 0 -232 40.5t-193.5 111.5t-145 164t-93.5 201.5t-32 219.5zM770 197q106 0 195 46t146 121.5t88.5 169.5t31.5 193q0 103 -33.5 198.5t-92 169t-146 117t-189.5 43.5q-106 0 -195.5 -45.5t-147.5 -120.5t-90 -169t-32 -193q0 -138 55.5 -258t163.5 -196t246 -76z" />
<glyph unicode="&#x22b;" horiz-adv-x="1232" d="M315 1724v144h607v-144h-607zM342 1262v225h188v-225h-188zM705 1262v225h188v-225h-188zM66 535q0 111 40 212t110 177t174.5 121t225.5 45q162 0 289.5 -77t194.5 -203t67 -275t-67 -275t-194.5 -203t-289.5 -77q-123 0 -227.5 45t-174.5 121t-109 177t-39 212z M616 172q134 0 227 105t93 258t-93 257.5t-227 104.5q-133 0 -226 -106t-93 -259q0 -154 92.5 -257t226.5 -103z" />
<glyph unicode="&#x22c;" d="M471 2122v143h606v-143h-606zM637 1726q-32 0 -54 -13.5t-31 -33t-12 -32t-3 -19.5h-127q0 15 6 41t22.5 60.5t40 64t63 50t87.5 20.5q51 0 97 -22.5t88 -45t83 -22.5q28 0 49.5 10t33 23t18.5 28.5t8.5 24.5t1.5 14h129q0 -13 -6.5 -38t-24 -60t-42.5 -65t-67.5 -51.5 t-93.5 -21.5q-53 0 -101 22t-88.5 44t-76.5 22zM72 727q0 144 53.5 278.5t145.5 235.5t223 162t278 61q151 0 283 -64t220.5 -168.5t139.5 -237t51 -269.5q0 -144 -53.5 -278t-144.5 -235t-222 -161.5t-278 -60.5q-122 0 -232 40.5t-193.5 111.5t-145 164t-93.5 201.5 t-32 219.5zM770 197q106 0 195 46t146 121.5t88.5 169.5t31.5 193q0 103 -33.5 198.5t-92 169t-146 117t-189.5 43.5q-106 0 -195.5 -45.5t-147.5 -120.5t-90 -169t-32 -193q0 -138 55.5 -258t163.5 -196t246 -76z" />
<glyph unicode="&#x22d;" horiz-adv-x="1232" d="M315 1743v143h607v-143h-607zM481 1348q-32 0 -54 -13.5t-31 -33.5t-12 -32.5t-3 -19.5h-127q0 15 6 41t22.5 60.5t40 64t63 50t87.5 20.5q51 0 97 -22.5t88 -45t83 -22.5q28 0 49.5 10t33 23t18.5 28.5t8.5 24.5t1.5 14h129q0 -13 -6.5 -38t-23.5 -59.5t-42 -65 t-67.5 -51.5t-93.5 -21q-53 0 -101 22t-89 44t-77 22zM66 535q0 111 40 212t110 177t174.5 121t225.5 45q162 0 289.5 -77t194.5 -203t67 -275t-67 -275t-194.5 -203t-289.5 -77q-123 0 -227.5 45t-174.5 121t-109 177t-39 212zM616 172q134 0 227 105t93 258t-93 257.5 t-227 104.5q-133 0 -226 -106t-93 -259q0 -154 92.5 -257t226.5 -103z" />
<glyph unicode="&#x230;" d="M471 2122v143h606v-143h-606zM670 1638v236h202v-236h-202zM72 727q0 144 53.5 278.5t145.5 235.5t223 162t278 61q151 0 283 -64t220.5 -168.5t139.5 -237t51 -269.5q0 -144 -53.5 -278t-144.5 -235t-222 -161.5t-278 -60.5q-122 0 -232 40.5t-193.5 111.5t-145 164 t-93.5 201.5t-32 219.5zM770 197q106 0 195 46t146 121.5t88.5 169.5t31.5 193q0 103 -33.5 198.5t-92 169t-146 117t-189.5 43.5q-106 0 -195.5 -45.5t-147.5 -120.5t-90 -169t-32 -193q0 -138 55.5 -258t163.5 -196t246 -76z" />
<glyph unicode="&#x231;" horiz-adv-x="1232" d="M315 1743v143h607v-143h-607zM514 1260v235h203v-235h-203zM66 535q0 111 40 212t110 177t174.5 121t225.5 45q162 0 289.5 -77t194.5 -203t67 -275t-67 -275t-194.5 -203t-289.5 -77q-123 0 -227.5 45t-174.5 121t-109 177t-39 212zM616 172q134 0 227 105t93 258 t-93 257.5t-227 104.5q-133 0 -226 -106t-93 -259q0 -154 92.5 -257t226.5 -103z" />
<glyph unicode="&#x232;" horiz-adv-x="1345" d="M371 1698v143h606v-143h-606zM270 1454l402 -723l405 723h252l-543 -934v-520h-229v524l-539 930h252z" />
<glyph unicode="&#x233;" horiz-adv-x="1120" d="M281 1319v143h606v-143h-606zM172 -252q72 -14 109 -14q52 0 85.5 50.5t92.5 215.5l-441 1071h236l328 -842l290 842h218l-486 -1319q-34 -96 -117.5 -156.5t-203.5 -60.5q-54 0 -111 16v197z" />
<glyph unicode="&#x237;" horiz-adv-x="495" d="M-250 -299l100 152q54 -48 134 -48q61 0 106 45t45 111v1110h225v-1094q0 -159 -103 -263.5t-247 -104.5q-158 0 -260 92z" />
<glyph unicode="&#x259;" horiz-adv-x="1218" d="M602 -20q-123 0 -227.5 44.5t-175 120t-110 176.5t-40.5 214q0 46 6 73h858q-10 140 -103 227t-220 87q-92 0 -171.5 -45.5t-109.5 -116.5l-194 55q57 122 188 198.5t297 76.5q162 0 289.5 -76t195.5 -202t68 -277q0 -113 -39.5 -214.5t-109.5 -177t-174.5 -119.5 t-227.5 -44zM606 145q127 0 215 90t97 230h-642q10 -141 104.5 -230.5t225.5 -89.5z" />
<glyph unicode="&#x2b9;" horiz-adv-x="454" d="M131 1024v453h193l-66 -453h-127z" />
<glyph unicode="&#x2ba;" horiz-adv-x="909" d="M131 1024v453h193l-66 -453h-127zM586 1024v453h192l-65 -453h-127z" />
<glyph unicode="&#x2bb;" horiz-adv-x="376" d="M238 1495l-48 -131h64v-164h-195v164l74 131h105z" />
<glyph unicode="&#x2bc;" horiz-adv-x="497" d="M244 1225l-148 45l117 225h215z" />
<glyph unicode="&#x2be;" horiz-adv-x="321" d="M59 1174v86q38 0 66.5 26.5t28.5 65.5q0 43 -27 68.5t-68 25.5v90q91 0 147 -50.5t56 -133.5q0 -81 -56 -129.5t-147 -48.5z" />
<glyph unicode="&#x2bf;" horiz-adv-x="321" d="M262 1174q-90 0 -146.5 48.5t-56.5 129.5q0 83 56.5 133.5t146.5 50.5v-90q-39 0 -65.5 -25.5t-26.5 -68.5q0 -39 26.5 -65.5t65.5 -26.5v-86z" />
<glyph unicode="&#x2c6;" horiz-adv-x="727" d="M70 1300l213 195h161l213 -195l-120 -57l-175 129l-174 -129z" />
<glyph unicode="&#x2c7;" horiz-adv-x="727" d="M188 1495l174 -129l175 129l120 -57l-213 -195h-161l-213 195z" />
<glyph unicode="&#x2c8;" horiz-adv-x="528" d="M360 1587v-817h-192v817h192z" />
<glyph unicode="&#x2c9;" horiz-adv-x="841" d="M119 1319v143h606v-143h-606z" />
<glyph unicode="&#x2ca;" horiz-adv-x="454" d="M131 1024v453h193l-66 -453h-127z" />
<glyph unicode="&#x2cb;" horiz-adv-x="454" d="M197 1024l-66 453h193v-453h-127z" />
<glyph unicode="&#x2cc;" horiz-adv-x="528" d="M360 551v-817h-192v817h192z" />
<glyph unicode="&#x2d8;" horiz-adv-x="638" d="M438 1495h125q0 -107 -70 -178.5t-174 -71.5t-173.5 71.5t-69.5 178.5h125q0 -58 35.5 -101.5t82.5 -43.5q45 0 79 41t40 104z" />
<glyph unicode="&#x2d9;" horiz-adv-x="407" d="M102 1260v235h203v-235h-203z" />
<glyph unicode="&#x2da;" horiz-adv-x="526" d="M262 1536q92 0 148.5 -50.5t56.5 -133.5q0 -81 -56 -129.5t-149 -48.5q-90 0 -146.5 48.5t-56.5 129.5q0 83 56.5 133.5t146.5 50.5zM170 1352q0 -39 26.5 -65.5t65.5 -26.5t67.5 26.5t28.5 65.5q0 43 -27 68.5t-69 25.5q-39 0 -65.5 -25.5t-26.5 -68.5z" />
<glyph unicode="&#x2db;" horiz-adv-x="557" d="M119 -223q0 141 200 264h66l39 -41q-158 -114 -158 -186t156 -78l-47 -133q-140 11 -198 59.5t-58 114.5z" />
<glyph unicode="&#x2dc;" horiz-adv-x="872" d="M301 1348q-32 0 -54 -13.5t-31 -33.5t-12 -32.5t-3 -19.5h-127q0 15 6 41t22.5 60.5t40 64t63 50t87.5 20.5q51 0 97 -22.5t88 -45t83 -22.5q28 0 49.5 10t33 23t18.5 28.5t8.5 24.5t1.5 14h129q0 -13 -6.5 -38t-24 -59.5t-42.5 -65t-67.5 -51.5t-93.5 -21q-53 0 -101 22 t-88.5 44t-76.5 22z" />
<glyph unicode="&#x2dd;" horiz-adv-x="718" d="M188 1225l-112 45l104 225h182zM492 1225l-115 45l104 225h185z" />
<glyph unicode="&#x300;" horiz-adv-x="0" d="M-401 1495h215l116 -225l-143 -45z" />
<glyph unicode="&#x301;" horiz-adv-x="0" d="M-254 1225l-147 45l116 225h215z" />
<glyph unicode="&#x302;" horiz-adv-x="0" d="M-657 1300l213 195h161l213 -195l-120 -57l-175 129l-174 -129z" />
<glyph unicode="&#x303;" horiz-adv-x="0" d="M-571 1348q-26 0 -45.5 -9.5t-30 -22.5t-16.5 -29t-7.5 -24.5t-1.5 -13.5h-127q0 15 6 41t22.5 60.5t40 64t63 50t87.5 20.5q41 0 79 -14t63.5 -31t59.5 -31t67 -14q28 0 49.5 10t32.5 23t18 28.5t8.5 24.5t1.5 14h129q0 -13 -6.5 -38t-23.5 -59.5t-42 -65t-67.5 -51.5 t-93.5 -21q-53 0 -101 22t-88.5 44t-76.5 22z" />
<glyph unicode="&#x304;" horiz-adv-x="0" d="M-723 1319v143h606v-143h-606z" />
<glyph unicode="&#x306;" horiz-adv-x="0" d="M-201 1495h125q0 -107 -69.5 -178.5t-173.5 -71.5t-174 71.5t-70 178.5h125q0 -58 36 -101.5t83 -43.5q44 0 78 41t40 104z" />
<glyph unicode="&#x307;" horiz-adv-x="0" d="M-305 1260v235h203v-235h-203z" />
<glyph unicode="&#x308;" horiz-adv-x="0" d="M-696 1260v225h188v-225h-188zM-334 1260v225h189v-225h-189z" />
<glyph unicode="&#x309;" horiz-adv-x="0" d="M-702 1417l-76 74q90 84 192 84q73 0 114.5 -41.5t41.5 -101.5q0 -95 -123 -195l-59 68q63 52 63 102q0 25 -15.5 41t-41.5 16t-46 -10t-50 -37z" />
<glyph unicode="&#x30a;" horiz-adv-x="0" d="M-264 1536q92 0 148.5 -50.5t56.5 -133.5q0 -81 -56 -129.5t-149 -48.5q-90 0 -146.5 48.5t-56.5 129.5q0 83 56.5 133.5t146.5 50.5zM-356 1352q0 -39 26.5 -65.5t65.5 -26.5t67.5 26.5t28.5 65.5q0 43 -27 68.5t-69 25.5q-39 0 -65.5 -25.5t-26.5 -68.5z" />
<glyph unicode="&#x30b;" horiz-adv-x="0" d="M-530 1225l-113 45l104 225h183zM-227 1225l-115 45l104 225h185z" />
<glyph unicode="&#x30c;" horiz-adv-x="0" d="M-539 1495l174 -129l175 129l120 -57l-213 -195h-161l-213 195z" />
<glyph unicode="&#x30f;" horiz-adv-x="0" d="M-666 1495h185l104 -225l-115 -45zM-362 1495h182l104 -225l-112 -45z" />
<glyph unicode="&#x311;" horiz-adv-x="0" d="M-438 1245h-125q0 107 70 178.5t174 71.5t173.5 -71.5t69.5 -178.5h-125q-6 63 -40 104.5t-78 41.5q-47 0 -83 -44t-36 -102z" />
<glyph unicode="&#x312;" horiz-adv-x="0" d="M-139 1495l-47 -131h63v-164h-194v164l73 131h105z" />
<glyph unicode="&#x31b;" horiz-adv-x="0" d="M-485 999l4 160q131 0 172 47q32 38 35 129h172q-4 -75 -19.5 -132.5t-58.5 -104.5q-42 -47 -124.5 -73t-180.5 -26z" />
<glyph unicode="&#x323;" horiz-adv-x="0" d="M-305 -395v237h203v-237h-203z" />
<glyph unicode="&#x324;" horiz-adv-x="0" d="M-696 -395v225h188v-225h-188zM-334 -395v225h189v-225h-189z" />
<glyph unicode="&#x326;" horiz-adv-x="0" d="M-238 -436l48 157h-66v181h195v-181l-72 -157h-105z" />
<glyph unicode="&#x327;" horiz-adv-x="0" d="M-301 -395q-127 0 -242 59l58 121q78 -43 145 -43q58 0 90.5 24.5t32.5 71.5q0 46 -31.5 84t-95.5 78l78 53q93 -59 140.5 -117.5t47.5 -138.5q0 -88 -58.5 -140t-164.5 -52z" />
<glyph unicode="&#x328;" horiz-adv-x="0" d="M-438 -223q0 141 200 264h66l39 -41q-158 -114 -158 -186t156 -78l-47 -133q-140 11 -198 59.5t-58 114.5z" />
<glyph unicode="&#x32e;" horiz-adv-x="0" d="M-201 -111h125q0 -107 -69.5 -178t-173.5 -71t-174 71t-70 178h125q0 -58 36 -101.5t83 -43.5q44 0 78 41t40 104z" />
<glyph unicode="&#x331;" horiz-adv-x="0" d="M-723 -311v141h606v-141h-606z" />
<glyph unicode="&#x335;" horiz-adv-x="0" d="M-659 537v139h557v-139h-557z" />
<glyph unicode="&#x3c0;" horiz-adv-x="1280" d="M432 870v-870h-221v870h-160v199h1135v-199h-213v-561q0 -60 31 -93.5t86 -33.5q42 0 110 27l33 -176q-49 -22 -116 -35.5t-122 -13.5q-113 0 -177 64t-64 179v643h-322z" />
<glyph unicode="&#x400;" horiz-adv-x="1234" d="M442 1876h215l117 -225l-143 -45zM1161 203v-203h-997v1454h979v-203h-750v-413h649v-191h-649v-444h768z" />
<glyph unicode="&#x401;" horiz-adv-x="1234" d="M401 1640v226h189v-226h-189zM764 1640v226h188v-226h-188zM1161 203v-203h-997v1454h979v-203h-750v-413h649v-191h-649v-444h768z" />
<glyph unicode="&#x402;" horiz-adv-x="1538" d="M977 -16q-118 0 -209 30l55 187q85 -25 133 -25q126 0 198.5 68t72.5 205q0 134 -82 209t-211 75q-183 0 -363 -127v-606h-225v1255h-315v199h1106v-199h-566v-446q186 117 392 117q221 0 355 -129.5t134 -347.5q0 -225 -126 -345t-349 -120z" />
<glyph unicode="&#x403;" horiz-adv-x="1083" d="M743 1608l-147 45l117 225h215zM166 0v1454h866v-203h-637v-1251h-229z" />
<glyph unicode="&#x404;" horiz-adv-x="1466" d="M776 -12q-154 0 -288 64.5t-224 169.5t-141 239.5t-51 275.5q0 108 29.5 212.5t89.5 197.5t144 163t201 111t252 41q195 0 343.5 -86.5t222.5 -230.5l-180 -121q-30 63 -75 109.5t-99 72t-108 37.5t-112 12q-191 0 -313 -121t-145 -296h591v-189h-596 q14 -189 147.5 -321.5t319.5 -132.5q79 0 153.5 23.5t143.5 79t107 136.5l190 -108q-45 -105 -144 -183t-218 -116.5t-240 -38.5z" />
<glyph unicode="&#x405;" horiz-adv-x="1251" d="M1024 1112q-47 52 -160 100t-233 48q-142 0 -212.5 -52.5t-70.5 -148.5q0 -30 8 -54t20.5 -42.5t37.5 -35.5t49.5 -29t67 -25.5t79.5 -23t97 -24.5q96 -23 164 -45.5t131 -57t101 -77t60.5 -103.5t22.5 -139q0 -87 -27.5 -157t-75.5 -118t-116 -80.5t-146 -47t-168 -14.5 q-166 0 -321 50.5t-279 145.5l105 197q63 -65 205.5 -125.5t293.5 -60.5q136 0 209.5 48t73.5 138q0 36 -11 65t-38 52.5t-55.5 40.5t-81 35t-96 30t-117.5 31q-115 30 -190 61t-132.5 76t-83.5 106.5t-26 145.5q0 105 40.5 189.5t111.5 139.5t167 84t209 29q268 0 491 -164 z" />
<glyph unicode="&#x406;" horiz-adv-x="557" d="M164 0v1454h229v-1454h-229z" />
<glyph unicode="&#x407;" horiz-adv-x="557" d="M4 1640v226h189v-226h-189zM367 1640v226h188v-226h-188zM164 0v1454h229v-1454h-229z" />
<glyph unicode="&#x408;" horiz-adv-x="999" d="M76 256q39 -28 107.5 -50t152.5 -22q72 0 122 19.5t82 55.5t50 99t24.5 138.5t6.5 185.5v772h231v-739q0 -89 -3.5 -157.5t-12.5 -141t-26 -127t-43 -106.5t-64.5 -88t-89.5 -63.5t-119 -41t-152 -13.5q-189 0 -322 91z" />
<glyph unicode="&#x409;" horiz-adv-x="2093" d="M68 -8v201q79 6 131.5 46t92.5 138t60 267t25 429l8 381h891v-555h272q229 0 354.5 -122t125.5 -328q0 -200 -122.5 -324.5t-342.5 -124.5h-516v1251h-453l-2 -286q-3 -172 -16 -308t-35 -237.5t-56.5 -175.5t-75 -122.5t-95.5 -77t-113.5 -40.5t-132.5 -12zM1276 190 h256q129 0 194.5 73.5t65.5 185.5q0 113 -62.5 185.5t-201.5 72.5h-252v-517z" />
<glyph unicode="&#x40a;" horiz-adv-x="2097" d="M166 0v1454h229v-594h656v594h231v-584h270q229 0 354.5 -116.5t125.5 -313.5q0 -196 -122.5 -318t-342.5 -122h-516v655h-656v-655h-229zM1282 190h254q131 0 195.5 70.5t64.5 179.5q0 103 -62.5 170.5t-199.5 67.5h-252v-488z" />
<glyph unicode="&#x40b;" horiz-adv-x="1501" d="M346 0v1255h-315v199h1083v-199h-543v-411q164 71 359 71q238 0 358.5 -118t120.5 -367v-430h-225v403q0 153 -69 225t-224 72q-86 0 -173 -21.5t-147 -55.5v-623h-225z" />
<glyph unicode="&#x40c;" horiz-adv-x="1370" d="M756 1608l-148 45l117 225h215zM166 0v1454h229v-608h170l457 608h262l-534 -704l573 -750h-281l-477 635h-170v-635h-229z" />
<glyph unicode="&#x40d;" horiz-adv-x="1568" d="M551 1880h215l117 -225l-144 -45zM174 0v1454h229v-1130l777 1130h215v-1454h-230v1108l-768 -1108h-223z" />
<glyph unicode="&#x40e;" horiz-adv-x="1290" d="M668 1597q-138 0 -217.5 65.5t-79.5 168.5h123q0 -57 43.5 -93t130.5 -36q86 0 126 33.5t50 95.5h123q0 -103 -80 -168.5t-219 -65.5zM311 -8v192h105q48 0 74.5 22t54.5 77l43 94l-592 1077h254l442 -842l375 842h244l-590 -1280q-50 -101 -108.5 -141.5t-157.5 -40.5 h-144z" />
<glyph unicode="&#x40f;" horiz-adv-x="1447" d="M627 -279v279h-463v1454h229v-1251h660v1251h231v-1454h-459v-279h-198z" />
<glyph unicode="&#x410;" horiz-adv-x="1382" d="M584 1454h217l565 -1454h-242l-153 395h-561l-152 -395h-244zM926 565l-234 637l-241 -637h475z" />
<glyph unicode="&#x411;" horiz-adv-x="1355" d="M166 0v1454h1022v-201h-793v-407h426q236 0 360 -111.5t124 -302.5q0 -194 -121.5 -313t-347.5 -119h-670zM395 201h410q132 0 197 68.5t65 170.5q0 46 -12.5 84t-41.5 70.5t-83 51t-129 18.5h-406v-463z" />
<glyph unicode="&#x412;" horiz-adv-x="1382" d="M858 0h-694v1454h749q98 0 176 -55.5t117 -139t39 -176.5q0 -109 -56 -202t-153 -136q126 -37 198.5 -135t72.5 -235q0 -170 -129.5 -272.5t-319.5 -102.5zM393 1255v-428h422q85 0 143 60.5t58 152.5q0 94 -53.5 154.5t-135.5 60.5h-434zM872 643h-479v-444h465 q90 0 151.5 64.5t61.5 154.5q0 91 -57 158t-142 67z" />
<glyph unicode="&#x413;" horiz-adv-x="1083" d="M166 0v1454h866v-203h-637v-1251h-229z" />
<glyph unicode="&#x414;" horiz-adv-x="1581" d="M68 -279v482h69q77 1 126.5 81t79 265.5t38.5 494.5l10 410h936v-1251h184v-482h-202v279h-1039v-279h-202zM428 203h668v1048h-492l-6 -237q-9 -360 -47.5 -549.5t-122.5 -261.5z" />
<glyph unicode="&#x415;" horiz-adv-x="1234" d="M1161 203v-203h-997v1454h979v-203h-750v-413h649v-191h-649v-444h768z" />
<glyph unicode="&#x416;" horiz-adv-x="2129" d="M47 0l561 752l-524 702h270l445 -608h151v608h230v-608h149l447 608h270l-526 -702l565 -752h-268l-482 635h-155v-635h-230v635h-155l-484 -635h-264z" />
<glyph unicode="&#x417;" horiz-adv-x="1196" d="M596 -16q-167 0 -301 69t-209 193l176 108q50 -84 135.5 -130t194.5 -46q137 0 213 65t76 175q0 107 -71.5 172t-201.5 65h-162v179h162q104 0 165 59.5t61 153.5q0 96 -66.5 155.5t-183.5 59.5q-108 0 -189 -45t-125 -123l-168 116q163 258 492 258q212 0 337.5 -103.5 t125.5 -285.5q0 -106 -52.5 -193.5t-152.5 -131.5q123 -35 192.5 -131.5t69.5 -225.5q0 -192 -144 -302.5t-374 -110.5z" />
<glyph unicode="&#x418;" horiz-adv-x="1568" d="M174 0v1454h229v-1130l777 1130h215v-1454h-230v1108l-768 -1108h-223z" />
<glyph unicode="&#x419;" horiz-adv-x="1568" d="M784 1597q-138 0 -217.5 65.5t-79.5 168.5h123q0 -57 43.5 -93t130.5 -36q86 0 126.5 33.5t50.5 95.5h122q0 -103 -80 -168.5t-219 -65.5zM174 0v1454h229v-1130l777 1130h215v-1454h-230v1108l-768 -1108h-223z" />
<glyph unicode="&#x41a;" horiz-adv-x="1370" d="M166 0v1454h229v-608h170l457 608h262l-534 -704l573 -750h-281l-477 635h-170v-635h-229z" />
<glyph unicode="&#x41b;" horiz-adv-x="1503" d="M1108 0v1251h-485l-9 -270q-9 -235 -33.5 -402.5t-65.5 -281.5t-106 -180.5t-146.5 -94.5t-194.5 -28v201q64 0 110 21.5t85 76.5t64.5 151.5t42 244t23.5 355.5l15 410h931v-1454h-231z" />
<glyph unicode="&#x41c;" horiz-adv-x="1781" d="M1386 0v1036l-428 -786h-135l-430 786v-1036h-229v1454h246l481 -889l481 889h246v-1454h-232z" />
<glyph unicode="&#x41d;" horiz-adv-x="1521" d="M1358 1454v-1454h-232v641h-733v-641h-229v1454h229v-608h733v608h232z" />
<glyph unicode="&#x41e;" d="M72 727q0 144 53.5 278.5t145.5 235.5t223 162t278 61q151 0 283 -64t220.5 -168.5t139.5 -237t51 -269.5q0 -144 -53.5 -278t-144.5 -235t-222 -161.5t-278 -60.5q-122 0 -232 40.5t-193.5 111.5t-145 164t-93.5 201.5t-32 219.5zM770 197q106 0 195 46t146 121.5 t88.5 169.5t31.5 193q0 103 -33.5 198.5t-92 169t-146 117t-189.5 43.5q-106 0 -195.5 -45.5t-147.5 -120.5t-90 -169t-32 -193q0 -138 55.5 -258t163.5 -196t246 -76z" />
<glyph unicode="&#x41f;" horiz-adv-x="1480" d="M166 0v1454h1149v-1454h-232v1251h-688v-1251h-229z" />
<glyph unicode="&#x420;" horiz-adv-x="1275" d="M164 0v1454h610q126 0 231.5 -70t162.5 -178t57 -225q0 -91 -32 -177t-88.5 -152t-140 -106t-178.5 -40h-393v-506h-229zM393 709h379q96 0 157.5 77t61.5 195t-68 194t-163 76h-367v-542z" />
<glyph unicode="&#x421;" horiz-adv-x="1400" d="M776 1462q191 0 335.5 -86.5t217.5 -230.5l-180 -121q-29 63 -73 109.5t-96 72t-104.5 37.5t-107.5 12q-88 0 -164 -30.5t-130 -81.5t-93 -119t-57.5 -143t-18.5 -152q0 -141 59.5 -263t168.5 -196.5t241 -74.5q75 0 146.5 23.5t138 79t102.5 136.5l191 -108 q-43 -104 -140 -183t-213 -117t-233 -38q-148 0 -279.5 65t-221 171t-141.5 240.5t-52 272.5q0 106 30 210.5t90.5 197t143.5 163.5t197 112.5t243 41.5z" />
<glyph unicode="&#x422;" horiz-adv-x="1261" d="M1231 1251h-483v-1251h-232v1251h-485v203h1200v-203z" />
<glyph unicode="&#x423;" horiz-adv-x="1290" d="M311 -8v192h105q48 0 74.5 22t54.5 77l43 94l-592 1077h254l442 -842l375 842h244l-590 -1280q-50 -101 -108.5 -141.5t-157.5 -40.5h-144z" />
<glyph unicode="&#x424;" horiz-adv-x="1683" d="M731 0v133q-133 5 -253.5 54t-210.5 130.5t-143 200t-52 254.5q1 114 36.5 215t98 176t145.5 130.5t179.5 85.5t199.5 34v111h219v-111q131 -5 250 -53t210.5 -128.5t145.5 -200t54 -259.5q0 -139 -54.5 -258t-146.5 -200t-211 -128.5t-248 -52.5v-133h-219zM737 319v908 q-187 -11 -310.5 -133t-123.5 -322q0 -102 36 -187t97 -140.5t138 -88t163 -37.5zM946 319q118 7 214.5 61.5t157 157t60.5 234.5q0 200 -125.5 322t-306.5 133v-908z" />
<glyph unicode="&#x425;" horiz-adv-x="1312" d="M256 1454l401 -571l402 571h254l-525 -737l508 -717h-254l-385 551l-385 -551h-256l508 717l-524 737h256z" />
<glyph unicode="&#x426;" horiz-adv-x="1527" d="M1255 -276v276h-1091v1454h229v-1251h649v1251h232v-1251h184v-479h-203z" />
<glyph unicode="&#x427;" horiz-adv-x="1353" d="M967 0v588q-163 -72 -349 -72q-249 0 -369 111.5t-120 351.5v475h223v-450q0 -146 73.5 -212.5t240.5 -66.5q78 0 161 18.5t140 47.5v663h225v-1454h-225z" />
<glyph unicode="&#x428;" horiz-adv-x="2013" d="M164 0v1454h229v-1251h498v1251h231v-1251h498v1251h231v-1454h-1687z" />
<glyph unicode="&#x429;" horiz-adv-x="2105" d="M1833 -276v276h-1669v1454h229v-1251h498v1251h231v-1251h498v1251h231v-1251h185v-479h-203z" />
<glyph unicode="&#x42a;" horiz-adv-x="1490" d="M397 0v1262h-356v192h588v-536h307q235 0 363 -123.5t128 -333.5q0 -206 -125.5 -333.5t-351.5 -127.5h-553zM629 190h291q135 0 203.5 77t68.5 194q0 55 -14.5 101t-46 84t-86.5 59.5t-130 21.5h-286v-537z" />
<glyph unicode="&#x42b;" horiz-adv-x="1832" d="M164 0v1454h229v-536h326q235 0 363 -123.5t128 -333.5q0 -205 -126 -333t-351 -128h-569zM1440 0v1452h231v-1452h-231zM393 190h307q137 0 206 77t69 194q0 55 -14.5 101t-46 84t-86.5 59.5t-130 21.5h-305v-537z" />
<glyph unicode="&#x42c;" horiz-adv-x="1275" d="M166 0v1454h229v-536h326q235 0 363 -123.5t128 -333.5q0 -205 -126 -333t-351 -128h-569zM395 190h307q137 0 206 77t69 194q0 55 -14.5 101t-46 84t-86.5 59.5t-130 21.5h-305v-537z" />
<glyph unicode="&#x42d;" horiz-adv-x="1462" d="M678 -12q-199 0 -353.5 90t-240.5 248l192 108q59 -115 166 -177t236 -62q127 0 231 62t165 165t71 227h-596v189h592q-12 84 -48 158t-93 132.5t-140.5 92.5t-181.5 34q-126 0 -227 -59t-160 -174l-187 123q193 317 574 317q132 0 247 -40.5t199 -111t144.5 -163.5 t90.5 -199.5t30 -218.5q0 -145 -51.5 -279t-142.5 -236.5t-226 -164t-291 -61.5z" />
<glyph unicode="&#x42e;" horiz-adv-x="2041" d="M1294 -10q-272 0 -450.5 174t-204.5 467h-246v-631h-229v1454h229v-620h248q18 193 108.5 337t232 218.5t314.5 74.5q301 0 486.5 -205t185.5 -534q0 -172 -51 -312t-141 -232t-213.5 -141.5t-268.5 -49.5zM1296 197q202 0 319.5 146.5t117.5 383.5q0 243 -120 385.5 t-319 142.5q-200 0 -314 -145t-114 -383q0 -244 116 -387t314 -143z" />
<glyph unicode="&#x42f;" horiz-adv-x="1359" d="M123 0l369 596q-144 41 -224 153t-80 267q0 189 134 313.5t348 124.5h526v-1454h-229v567h-189h-51l-340 -567h-264zM694 766h273v489h-267q-122 0 -199 -63.5t-77 -175.5q0 -116 72 -183t198 -67z" />
<glyph unicode="&#x430;" horiz-adv-x="1155" d="M57 313q0 153 127 246.5t330 93.5q163 0 279 -43v68q0 113 -69 176.5t-194 63.5q-86 0 -166 -30t-174 -91l-75 151q213 142 440 142q217 0 340 -114.5t123 -322.5v-399q0 -38 13.5 -55.5t45.5 -18.5v-180q-54 -10 -96 -10q-68 0 -106.5 33t-45.5 83l-6 62 q-69 -89 -176.5 -138.5t-220.5 -49.5q-160 0 -264.5 95.5t-104.5 237.5zM739 248q54 54 54 100v123q-118 45 -246 45q-124 0 -200.5 -50t-76.5 -134q0 -76 58.5 -131.5t160.5 -55.5q70 0 138 29t112 74z" />
<glyph unicode="&#x431;" horiz-adv-x="1265" d="M653 -20q-267 0 -407 161t-140 463q0 156 22 275t63 203.5t108.5 146t147.5 100t190 68.5l457 127l8 -189l-449 -127q-167 -52 -252.5 -151.5t-103.5 -286.5q58 106 165 164.5t251 58.5q221 0 353 -136t132 -353q0 -237 -143 -380.5t-402 -143.5zM653 172q148 0 232 87 t84 235q0 142 -84.5 229.5t-231.5 87.5q-138 0 -225.5 -85t-87.5 -232q0 -144 82.5 -233t230.5 -89z" />
<glyph unicode="&#x432;" horiz-adv-x="1136" d="M135 0v1071h574q147 0 224 -76t77 -186q0 -88 -42 -155.5t-120 -102.5q95 -27 152 -95.5t57 -168.5q0 -139 -98.5 -213t-268.5 -74h-555zM348 612h303q63 0 104.5 46.5t41.5 111.5q0 61 -40 103t-102 42h-307v-303zM348 156h336q65 0 110.5 45.5t45.5 109.5q0 66 -44 111 t-108 45h-340v-311z" />
<glyph unicode="&#x433;" horiz-adv-x="854" d="M135 0v1071h684v-199h-459v-872h-225z" />
<glyph unicode="&#x434;" horiz-adv-x="1251" d="M33 -256v455h24q45 0 80 24.5t65 83.5t48 170t22 271l13 323h764v-872h147v-455h-199v256h-768v-256h-196zM354 199h469v678h-340l-6 -150q-9 -229 -39 -354.5t-84 -173.5z" />
<glyph unicode="&#x435;" horiz-adv-x="1218" d="M621 -20q-163 0 -291 76t-196 201t-68 275q0 113 40.5 215t111.5 178t176.5 120.5t228.5 44.5t226.5 -45t173 -120.5t108 -174.5t38.5 -207q0 -28 -6 -82h-858q10 -139 103.5 -227.5t220.5 -88.5q92 0 171 45.5t109 118.5l193 -55q-57 -123 -186 -198.5t-295 -75.5z M299 610h647q-12 139 -103.5 226.5t-221.5 87.5q-129 0 -221 -88.5t-101 -225.5z" />
<glyph unicode="&#x436;" horiz-adv-x="1699" d="M59 0l385 553l-354 518h252l291 -426h100v426h232v-426h104l287 426h252l-355 -518l387 -553h-256l-315 449h-104v-449h-232v449h-100l-318 -449h-256z" />
<glyph unicode="&#x437;" horiz-adv-x="989" d="M494 -16q-320 0 -447 227l182 82q75 -127 252 -127q106 0 167 45t61 119q0 69 -50 110.5t-139 42.5h-110v144h114q61 0 99.5 39.5t38.5 101.5q0 64 -47 100.5t-138 36.5q-151 0 -215 -117l-170 91q53 99 155.5 153.5t239.5 54.5q167 0 271 -77t104 -213q0 -76 -37 -140 t-106 -94q97 -29 148 -98.5t51 -167.5q0 -146 -117.5 -229.5t-306.5 -83.5z" />
<glyph unicode="&#x438;" horiz-adv-x="1241" d="M135 0v1069h225v-768l543 770h205v-1071h-225v752l-537 -752h-211z" />
<glyph unicode="&#x439;" horiz-adv-x="1241" d="M623 1214q-138 0 -217.5 65.5t-79.5 168.5h123q0 -57 43.5 -93t130.5 -36q86 0 126 33.5t50 95.5h123q0 -103 -80 -168.5t-219 -65.5zM135 0v1069h225v-768l543 770h205v-1071h-225v752l-537 -752h-211z" />
<glyph unicode="&#x43a;" horiz-adv-x="1112" d="M135 0v1071h223v-424h107l315 424h250l-391 -518l436 -553h-260l-352 444h-105v-444h-223z" />
<glyph unicode="&#x43b;" horiz-adv-x="1200" d="M49 -10v200q54 1 92.5 25.5t70.5 85t50.5 171.5t24.5 276l14 323h764v-1071h-225v872h-340l-4 -145q-9 -214 -39 -356.5t-87 -226.5t-133.5 -118.5t-187.5 -35.5z" />
<glyph unicode="&#x43c;" horiz-adv-x="1472" d="M135 0v1071h234l368 -661l371 661h229v-1071h-215v754l-315 -564h-141l-318 564v-754h-213z" />
<glyph unicode="&#x43d;" horiz-adv-x="1220" d="M135 0v1071h225v-426h498v426h225v-1071h-225v451h-498v-451h-225z" />
<glyph unicode="&#x43e;" horiz-adv-x="1232" d="M66 535q0 111 40 212t110 177t174.5 121t225.5 45q162 0 289.5 -77t194.5 -203t67 -275t-67 -275t-194.5 -203t-289.5 -77q-123 0 -227.5 45t-174.5 121t-109 177t-39 212zM616 172q134 0 227 105t93 258t-93 257.5t-227 104.5q-133 0 -226 -106t-93 -259 q0 -154 92.5 -257t226.5 -103z" />
<glyph unicode="&#x43f;" horiz-adv-x="1193" d="M135 0v1071h922v-1071h-226v872h-471v-872h-225z" />
<glyph unicode="&#x440;" horiz-adv-x="1286" d="M360 201v-637h-225v1507h199v-192q63 98 161.5 154.5t217.5 56.5q107 0 202 -45t161 -120t104.5 -176.5t38.5 -211.5q0 -154 -60 -281t-169.5 -201.5t-246.5 -74.5q-125 0 -224.5 59.5t-158.5 161.5zM987 537q0 150 -96 255t-238 105q-90 0 -179.5 -62t-113.5 -149v-280 q42 -101 128 -167.5t182 -66.5q92 0 165.5 52.5t112.5 135.5t39 177z" />
<glyph unicode="&#x441;" horiz-adv-x="1144" d="M621 -20q-162 0 -290.5 77t-196.5 203.5t-68 276.5q0 113 39.5 213.5t110.5 176t176 119.5t229 44q162 0 282 -72t182 -195l-219 -69q-38 67 -104 105t-146 38q-136 0 -227.5 -101.5t-91.5 -258.5q0 -154 94 -259.5t227 -105.5q83 0 156 42.5t98 104.5l222 -65 q-54 -123 -181 -198.5t-292 -75.5z" />
<glyph unicode="&#x442;" horiz-adv-x="1003" d="M389 0v872h-354v199h936v-199h-357v-872h-225z" />
<glyph unicode="&#x443;" horiz-adv-x="1120" d="M172 -252q72 -14 109 -14q52 0 85.5 50.5t92.5 215.5l-441 1071h236l328 -842l290 842h218l-486 -1319q-34 -96 -117.5 -156.5t-203.5 -60.5q-54 0 -111 16v197z" />
<glyph unicode="&#x444;" horiz-adv-x="1490" d="M633 -436v436h-37q-161 0 -283.5 74.5t-184.5 195t-62 265.5t63 265.5t185.5 194.5t281.5 74h37v426h225v-426h37q159 0 281.5 -74t185.5 -194.5t63 -265.5t-62 -265.5t-184.5 -195t-283.5 -74.5h-37v-436h-225zM596 182h47v705h-47q-134 0 -221.5 -101.5t-87.5 -253.5 t86 -251t223 -99zM846 182h49q136 0 223.5 99.5t87.5 250.5q0 152 -88.5 253.5t-222.5 101.5h-49v-705z" />
<glyph unicode="&#x445;" horiz-adv-x="1069" d="M262 1071l254 -366l19 -35l18 35l252 366h244l-385 -536l389 -535h-244l-256 365l-18 32l-19 -32l-256 -365h-244l390 532l-386 539h242z" />
<glyph unicode="&#x446;" horiz-adv-x="1228" d="M975 -256v256h-840v1071h225v-874h439v874h225v-874h150v-453h-199z" />
<glyph unicode="&#x447;" horiz-adv-x="1101" d="M737 0v408q-121 -56 -274 -56q-174 0 -266.5 91.5t-92.5 271.5v356h226v-328q0 -113 47 -165t151 -52q130 0 209 45v500h228v-1071h-228z" />
<glyph unicode="&#x448;" horiz-adv-x="1714" d="M135 0v1071h225v-874h383v874h228v-874h381v874h225v-1071h-1442z" />
<glyph unicode="&#x449;" horiz-adv-x="1781" d="M1528 -256v256h-1393v1071h225v-872h383v872h228v-872h381v872h225v-872h149v-455h-198z" />
<glyph unicode="&#x44a;" horiz-adv-x="1243" d="M328 0v887h-293v184h514v-352h258q185 0 286 -95t101 -255q0 -165 -98 -267t-277 -102h-491zM549 174h237q93 0 141 54t48 137t-46 134.5t-147 51.5h-233v-377z" />
<glyph unicode="&#x44b;" horiz-adv-x="1492" d="M135 0v1071h225v-352h203q188 0 289.5 -95t101.5 -255q0 -165 -98 -267t-276 -102h-445zM1130 0v1069h226v-1069h-226zM360 174h185q93 0 140.5 53.5t47.5 137.5q0 83 -45.5 134.5t-144.5 51.5h-183v-377z" />
<glyph unicode="&#x44c;" horiz-adv-x="1054" d="M135 0v1071h225v-352h256q187 0 288.5 -95t101.5 -255q0 -165 -98 -267t-277 -102h-496zM360 174h236q95 0 142.5 53.5t47.5 137.5q0 83 -46 134.5t-146 51.5h-234v-377z" />
<glyph unicode="&#x44d;" horiz-adv-x="1163" d="M549 -18q-157 0 -285 69.5t-192 192.5l180 82q45 -81 119 -122.5t164 -41.5q127 0 220 88.5t111 216.5h-420v149h418q-20 122 -107.5 206.5t-219.5 84.5q-191 0 -277 -155l-172 90q65 116 182.5 182t274.5 66q104 0 194.5 -30.5t155.5 -83t111 -123t69 -150.5t23 -164 q0 -107 -38.5 -207t-107 -178t-174 -125t-229.5 -47z" />
<glyph unicode="&#x44e;" horiz-adv-x="1656" d="M1057 -20q-210 0 -347 126.5t-165 329.5h-185v-436h-225v1071h225v-438h185q28 204 166 330.5t346 126.5q122 0 223.5 -44t168.5 -119.5t103.5 -176t36.5 -215.5q0 -241 -145.5 -398t-386.5 -157zM1057 172q135 0 219 101t84 262q0 163 -85.5 262.5t-217.5 99.5 q-130 0 -211.5 -100t-81.5 -262q0 -165 82 -264t211 -99z" />
<glyph unicode="&#x44f;" horiz-adv-x="1114" d="M68 0l286 424q-104 24 -161.5 103t-57.5 208q0 150 103 244t268 94h471v-1073h-225v387h-177l-262 -387h-245zM528 551h224v348h-209q-85 0 -136 -47t-51 -123q0 -79 44.5 -128.5t127.5 -49.5z" />
<glyph unicode="&#x450;" horiz-adv-x="1218" d="M379 1497h215l117 -225l-144 -45zM621 -20q-163 0 -291 76t-196 201t-68 275q0 113 40.5 215t111.5 178t176.5 120.5t228.5 44.5t226.5 -45t173 -120.5t108 -174.5t38.5 -207q0 -28 -6 -82h-858q10 -139 103.5 -227.5t220.5 -88.5q92 0 171 45.5t109 118.5l193 -55 q-57 -123 -186 -198.5t-295 -75.5zM299 610h647q-12 139 -103.5 226.5t-221.5 87.5q-129 0 -221 -88.5t-101 -225.5z" />
<glyph unicode="&#x451;" horiz-adv-x="1218" d="M342 1262v225h188v-225h-188zM705 1262v225h188v-225h-188zM621 -20q-163 0 -291 76t-196 201t-68 275q0 113 40.5 215t111.5 178t176.5 120.5t228.5 44.5t226.5 -45t173 -120.5t108 -174.5t38.5 -207q0 -28 -6 -82h-858q10 -139 103.5 -227.5t220.5 -88.5q92 0 171 45.5 t109 118.5l193 -55q-57 -123 -186 -198.5t-295 -75.5zM299 610h647q-12 139 -103.5 226.5t-221.5 87.5q-129 0 -221 -88.5t-101 -225.5z" />
<glyph unicode="&#x452;" horiz-adv-x="1196" d="M674 -406q-59 0 -110.5 13.5t-91.5 39.5t-53 36.5t-36 31.5l156 115q63 -49 123 -49q120 0 175 116t58 392q3 259 -56.5 364t-199.5 105q-100 0 -168.5 -55t-105.5 -154v-549h-226v1130h-157v138h157v227h226v-227h456v-138h-456v-360q128 186 352 186q145 0 232 -62 t129 -202t42 -375q0 -137 -13.5 -245.5t-45.5 -199.5t-83 -151t-127.5 -93.5t-176.5 -33.5z" />
<glyph unicode="&#x453;" horiz-adv-x="854" d="M621 1225l-148 45l117 225h215zM135 0v1071h684v-199h-459v-872h-225z" />
<glyph unicode="&#x454;" horiz-adv-x="1165" d="M618 -18q-125 0 -230.5 47t-175 125t-108 178t-38.5 207q0 106 37 204t105.5 176t175.5 124.5t237 46.5q156 0 273.5 -66.5t180.5 -181.5l-170 -90q-86 155 -276 155q-133 0 -220.5 -84t-109.5 -207h422v-149h-422q18 -130 111 -217.5t221 -87.5q90 0 163 41t119 123 l181 -82q-62 -123 -191 -192.5t-285 -69.5z" />
<glyph unicode="&#x455;" horiz-adv-x="1005" d="M516 -20q-137 0 -257.5 45t-205.5 131l84 151q178 -155 371 -155q97 0 155 36.5t58 104.5q0 16 -3 30t-11.5 25.5t-16.5 20t-24.5 17t-29 14t-36.5 13.5t-40 12.5t-47.5 13t-51.5 14.5q-94 29 -152.5 54t-106 60t-68.5 82t-21 111q0 153 116 241.5t306 88.5 q243 0 391 -148l-97 -149q-139 127 -307 127q-85 0 -141.5 -32t-56.5 -104q0 -26 10 -46t24 -33.5t46.5 -28t59 -23t79.5 -24.5q48 -14 79 -23.5t70.5 -23t64 -24.5t53.5 -27t46.5 -31.5t35.5 -36t27 -43t15 -50.5t6 -61q0 -154 -115 -241.5t-309 -87.5z" />
<glyph unicode="&#x456;" horiz-adv-x="495" d="M135 1247v248h225v-248h-225zM135 0v1071h225v-1071h-225z" />
<glyph unicode="&#x457;" horiz-adv-x="495" d="M-27 1262v225h189v-225h-189zM336 1262v225h188v-225h-188zM135 0v1071h225v-1071h-225z" />
<glyph unicode="&#x458;" horiz-adv-x="507" d="M147 1247v248h226v-248h-226zM-236 -299l101 152q51 -48 131 -48q61 0 106 45t45 111v1110h226v-1094q0 -160 -102.5 -264t-247.5 -104q-157 0 -259 92z" />
<glyph unicode="&#x459;" horiz-adv-x="1691" d="M49 -10v200q54 1 92.5 25.5t70.5 85t50.5 171.5t24.5 276l14 323h739v-385h211q187 0 289 -90.5t102 -243.5q0 -158 -98 -255t-278 -97h-451v872h-315l-4 -145q-9 -214 -39 -356.5t-87 -226.5t-133.5 -118.5t-187.5 -35.5zM1040 174h191q94 0 141 48.5t47 125.5 q0 76 -45 123t-143 47h-191v-344z" />
<glyph unicode="&#x45a;" horiz-adv-x="1712" d="M135 0v1071h225v-416h469v416h224v-385h221q187 0 288 -90.5t101 -243.5q0 -159 -97.5 -255.5t-277.5 -96.5h-459v459h-469v-459h-225zM1053 174h200q95 0 142 48.5t47 125.5q0 76 -46 123t-145 47h-198v-344z" />
<glyph unicode="&#x45b;" horiz-adv-x="1230" d="M139 0v1130h-157v138h157v227h226v-227h456v-138h-456v-360q130 186 368 186q194 0 281.5 -101.5t87.5 -303.5v-551h-225v496q0 132 -54 197t-170 65q-106 0 -179 -54t-109 -155v-549h-226z" />
<glyph unicode="&#x45c;" horiz-adv-x="1112" d="M627 1225l-148 45l117 225h215zM135 0v1071h223v-424h107l315 424h250l-391 -518l436 -553h-260l-352 444h-105v-444h-223z" />
<glyph unicode="&#x45d;" horiz-adv-x="1241" d="M389 1497h215l117 -225l-143 -45zM135 0v1069h225v-768l543 770h205v-1071h-225v752l-537 -752h-211z" />
<glyph unicode="&#x45e;" horiz-adv-x="1120" d="M559 1214q-138 0 -217.5 65.5t-79.5 168.5h123q0 -57 43.5 -93t130.5 -36q86 0 126 33.5t50 95.5h123q0 -103 -80 -168.5t-219 -65.5zM172 -252q72 -14 109 -14q52 0 85.5 50.5t92.5 215.5l-441 1071h236l328 -842l290 842h218l-486 -1319q-34 -96 -117.5 -156.5 t-203.5 -60.5q-54 0 -111 16v197z" />
<glyph unicode="&#x45f;" horiz-adv-x="1191" d="M498 -256v256h-363v1071h225v-874h469v874h226v-1071h-363v-256h-194z" />
<glyph unicode="&#x462;" horiz-adv-x="1298" d="M741 918q235 0 363.5 -123.5t128.5 -333.5q0 -205 -126 -333t-351 -128h-570v1133h-219v157h219v176h232v-176h356v-157h-356v-215h323zM723 190q138 0 206 76.5t68 194.5q0 116 -65.5 191t-208.5 75h-305v-537h305z" />
<glyph unicode="&#x463;" horiz-adv-x="1101" d="M182 0v1040h-239v144h239v311h226v-311h364v-144h-364v-321h256q187 0 288 -95t101 -255q0 -165 -98 -267t-277 -102h-496zM408 174h237q93 0 141 54t48 137t-46 134.5t-147 51.5h-233v-377z" />
<glyph unicode="&#x46a;" horiz-adv-x="2117" d="M47 0l561 741l-524 713h1948l-525 -713l564 -741h-261l-481 625h-155v-625h-232v625h-154l-483 -625h-258zM793 836h532l348 477h-1229z" />
<glyph unicode="&#x46b;" horiz-adv-x="1740" d="M59 0l418 553l-377 518h1540l-378 -518l419 -553h-270l-334 449h-92v-449h-229v449h-90l-334 -449h-273zM682 623h379l233 327h-848z" />
<glyph unicode="&#x472;" horiz-adv-x="1558" d="M772 1464q151 0 283 -64t220.5 -168.5t139.5 -237t51 -269.5q0 -144 -53.5 -278t-144.5 -235t-222 -161.5t-278 -60.5q-122 0 -232 40.5t-193.5 111.5t-145 164t-93.5 201.5t-32 219.5q0 144 53.5 278.5t145.5 235.5t223 162t278 61zM770 1255q-127 0 -228.5 -64.5 t-159 -165.5t-73.5 -222h918q-16 124 -75 226t-159.5 164t-222.5 62zM770 197q100 0 185.5 41.5t142.5 110t91 155.5t40 180h-922q6 -97 41.5 -185t94 -155t144 -107t183.5 -40z" />
<glyph unicode="&#x473;" horiz-adv-x="1230" d="M616 1090q162 0 289.5 -77t194.5 -203t67 -275t-67 -275t-194.5 -203t-289.5 -77q-123 0 -227.5 45t-174.5 121t-109 177t-39 212t40 212t110 177t174.5 121t225.5 45zM616 897q-118 0 -207 -86.5t-108 -218.5h631q-17 133 -106 219t-210 86zM616 172q124 0 214 91 t104 229h-635q12 -139 102 -229.5t215 -90.5z" />
<glyph unicode="&#x474;" horiz-adv-x="1486" d="M596 0l-584 1454h244l438 -1153l355 909q47 132 116 188t199 56h109v-192h-78q-63 0 -97 -29t-61 -100l-459 -1133h-182z" />
<glyph unicode="&#x475;" horiz-adv-x="1179" d="M436 0l-409 1071h225l307 -870l236 643q36 120 102.5 173.5t187.5 53.5h103v-174h-66q-61 0 -92 -27.5t-55 -97.5l-305 -772h-234z" />
<glyph unicode="&#x490;" horiz-adv-x="1083" d="M164 0v1454h665v309h203v-512h-637v-1251h-231z" />
<glyph unicode="&#x491;" horiz-adv-x="854" d="M135 0v1071h483v256h201v-455h-459v-872h-225z" />
<glyph unicode="&#x492;" horiz-adv-x="1122" d="M1071 1251h-637v-499h365v-152h-365v-600h-229v600h-199v152h199v702h866v-203z" />
<glyph unicode="&#x493;" horiz-adv-x="909" d="M874 872h-458v-350h295v-143h-295v-379h-226v379h-194v143h194v549h684v-199z" />
<glyph unicode="&#x494;" horiz-adv-x="1366" d="M770 801q243 0 373.5 -142t130.5 -397q0 -256 -126 -392t-349 -136q-101 0 -209 30l57 189q73 -25 133 -25q123 0 196 83.5t73 250.5q0 344 -316 344q-89 0 -169 -25.5t-171 -80.5v-500h-229v1454h866v-203h-637v-549q173 99 377 99z" />
<glyph unicode="&#x495;" horiz-adv-x="1122" d="M688 674q179 0 280 -115.5t101 -308.5v-49q0 -280 -113.5 -441t-310.5 -161q-150 0 -248 79l99 154q48 -39 120 -39q225 0 228 373v41q0 149 -61.5 220t-184.5 71q-145 0 -238 -90v-408h-225v1071h684v-199h-459v-294q122 96 328 96z" />
<glyph unicode="&#x496;" horiz-adv-x="2115" d="M1933 203h158v-479h-201v276h-104v41l-451 594h-155v-635h-230v635h-155l-484 -635h-264l561 752l-524 702h270l445 -608h151v608h230v-608h149l447 608h270l-526 -702z" />
<glyph unicode="&#x497;" horiz-adv-x="1714" d="M1509 188h183v-444h-191v256h-117l-315 449h-104v-449h-232v449h-100l-318 -449h-256l385 553l-354 518h252l291 -426h100v426h232v-426h104l287 426h252l-355 -518z" />
<glyph unicode="&#x498;" horiz-adv-x="1196" d="M1114 397q0 -165 -109 -271.5t-290 -133.5q102 -86 102 -195q0 -88 -58.5 -140t-164.5 -52q-127 0 -242 59l58 121q78 -43 145 -43q58 0 90.5 24.5t32.5 71.5q0 76 -103 146q-161 5 -288.5 73t-200.5 189l176 108q50 -84 135.5 -130t194.5 -46q137 0 213 65t76 175 q0 107 -71.5 172t-201.5 65h-162v179h162q104 0 165 59.5t61 153.5q0 96 -66.5 155.5t-183.5 59.5q-108 0 -189 -45t-125 -123l-168 116q163 258 492 258q212 0 337.5 -103.5t125.5 -285.5q0 -106 -52.5 -193.5t-152.5 -131.5q123 -35 192.5 -131.5t69.5 -225.5z" />
<glyph unicode="&#x499;" horiz-adv-x="989" d="M918 297q0 -126 -89 -206t-239 -101q100 -87 100 -193q0 -88 -58.5 -140t-164.5 -52q-127 0 -242 59l58 121q78 -43 145 -43q58 0 90.5 24.5t32.5 71.5q0 41 -26 76t-79 72q-282 15 -399 225l182 82q75 -127 252 -127q106 0 167 45t61 119q0 69 -50 110.5t-139 42.5h-110 v144h114q61 0 99.5 39.5t38.5 101.5q0 64 -47 100.5t-138 36.5q-151 0 -215 -117l-170 91q53 99 155.5 153.5t239.5 54.5q167 0 271 -77t104 -213q0 -76 -37 -140t-106 -94q97 -29 148 -98.5t51 -167.5z" />
<glyph unicode="&#x49a;" horiz-adv-x="1380" d="M1167 203h189v-479h-203v276h-111l-477 635h-170v-635h-229v1454h229v-608h170l457 608h262l-534 -704z" />
<glyph unicode="&#x49b;" horiz-adv-x="1136" d="M926 188h188v-444h-192v256h-107l-352 444h-105v-444h-223v1071h223v-424h107l315 424h250l-391 -518z" />
<glyph unicode="&#x49c;" horiz-adv-x="1351" d="M901 750l463 -750h-256l-397 647h-54v-250h-102v250h-164v-647h-227v1454h227v-618h164v229h102v-229h50l378 618h240z" />
<glyph unicode="&#x49d;" horiz-adv-x="1216" d="M809 553l369 -553h-248l-309 451h-50v-191h-98v191h-115v-451h-223v1071h223v-430h115v193h98v-193h50l272 430h240z" />
<glyph unicode="&#x4a0;" horiz-adv-x="1507" d="M946 750l574 -750h-281l-477 635h-170v-635h-230v1262h-352v192h582v-608h170l457 608h262z" />
<glyph unicode="&#x4a1;" horiz-adv-x="1245" d="M809 553l436 -553h-260l-352 444h-105v-444h-223v887h-295v184h518v-424h107l315 424h250z" />
<glyph unicode="&#x4a2;" horiz-adv-x="1613" d="M1358 203h186v-479h-201v276h-217v641h-733v-641h-229v1454h229v-608h733v608h232v-1251z" />
<glyph unicode="&#x4a3;" horiz-adv-x="1298" d="M1083 197h160v-453h-201v256h-184v451h-498v-451h-225v1071h225v-426h498v426h225v-874z" />
<glyph unicode="&#x4a4;" horiz-adv-x="2043" d="M1993 1454v-203h-635v-1251h-232v641h-733v-641h-229v1454h229v-608h733v608h867z" />
<glyph unicode="&#x4a5;" horiz-adv-x="1579" d="M1542 1071v-199h-459v-872h-225v451h-498v-451h-225v1071h225v-426h498v426h684z" />
<glyph unicode="&#x4aa;" horiz-adv-x="1400" d="M1352 326q-55 -132 -188 -218.5t-292 -111.5v-279h-192v277q-131 18 -246 88.5t-193.5 173t-123.5 228t-45 253.5q0 106 30 210.5t90.5 197t143.5 163.5t197 112.5t243 41.5q191 0 335.5 -86.5t217.5 -230.5l-180 -121q-29 63 -73 109.5t-96 72t-104.5 37.5t-107.5 12 q-88 0 -164 -30.5t-130 -81.5t-93 -119t-57.5 -143t-18.5 -152q0 -141 59.5 -263t168.5 -196.5t241 -74.5q75 0 146.5 23.5t138 79t102.5 136.5z" />
<glyph unicode="&#x4ab;" horiz-adv-x="1144" d="M1094 254q-45 -104 -146.5 -176t-236.5 -92v-242h-193v244q-203 35 -327.5 190.5t-124.5 358.5q0 113 39.5 213.5t110.5 176t176 119.5t229 44q162 0 282 -72t182 -195l-219 -69q-38 67 -104 105t-146 38q-136 0 -227.5 -101.5t-91.5 -258.5q0 -154 94 -259.5t227 -105.5 q83 0 156 42.5t98 104.5z" />
<glyph unicode="&#x4ae;" horiz-adv-x="1345" d="M270 1454l402 -723l405 723h252l-543 -934v-520h-229v524l-539 930h252z" />
<glyph unicode="&#x4af;" horiz-adv-x="1116" d="M446 -436v438l-419 1069h233l307 -881l307 881h213l-415 -1069v-438h-226z" />
<glyph unicode="&#x4b0;" horiz-adv-x="1314" d="M541 0v340h-316v149h316v35l-539 930h252l401 -729l406 729h252l-543 -934v-31h315v-149h-315v-340h-229z" />
<glyph unicode="&#x4b1;" horiz-adv-x="1124" d="M463 -436v330h-248v106h248v2l-420 1069h227l310 -901l311 901h215l-418 -1069v-2h240v-106h-240v-330h-225z" />
<glyph unicode="&#x4b6;" horiz-adv-x="1456" d="M1192 203h194v-479h-200v276h-219v588q-163 -72 -349 -72q-249 0 -369 111.5t-120 351.5v475h223v-450q0 -146 73.5 -212.5t240.5 -66.5q78 0 161 18.5t140 47.5v663h225v-1251z" />
<glyph unicode="&#x4b7;" horiz-adv-x="1148" d="M965 197h129v-453h-201v256h-184v197h28v211q-121 -56 -274 -56q-174 0 -266.5 91.5t-92.5 271.5v356h226v-328q0 -113 47 -165t151 -52q130 0 209 45v500h228v-874z" />
<glyph unicode="&#x4b8;" horiz-adv-x="1353" d="M967 1454h225v-1454h-225v588q-125 -56 -273 -70v-207h-102v205q-235 6 -349 118t-114 345v475h223v-450q0 -129 56.5 -195.5t183.5 -79.5v250h102v-254q157 10 273 66v663z" />
<glyph unicode="&#x4b9;" horiz-adv-x="1118" d="M756 1071h227v-1071h-227v408q-72 -35 -162 -48v-182h-98v174h-15q-183 0 -280 91.5t-97 271.5v356h226v-328q0 -101 39.5 -153t126.5 -62v224h98v-224q103 10 162 43v500z" />
<glyph unicode="&#x4ba;" horiz-adv-x="1353" d="M387 1454v-588q163 72 348 72q250 0 370 -111.5t120 -351.5v-475h-224v451q0 146 -73 212t-240 66q-78 0 -161 -18.5t-140 -46.5v-664h-225v1454h225z" />
<glyph unicode="&#x4bb;" horiz-adv-x="1222" d="M1096 0h-226v600q0 144 -52 216.5t-150 72.5q-94 0 -184.5 -72t-123.5 -180v-637h-225v1495h225v-639q62 109 168 171.5t230 62.5q338 0 338 -437v-653z" />
<glyph unicode="&#x4c0;" horiz-adv-x="557" d="M164 0v1454h229v-1454h-229z" />
<glyph unicode="&#x4c1;" horiz-adv-x="2129" d="M1065 1597q-138 0 -217.5 65.5t-79.5 168.5h123q0 -57 43.5 -93t130.5 -36q86 0 126 33.5t50 95.5h123q0 -103 -80 -168.5t-219 -65.5zM47 0l561 752l-524 702h270l445 -608h151v608h230v-608h149l447 608h270l-526 -702l565 -752h-268l-482 635h-155v-635h-230v635h-155 l-484 -635h-264z" />
<glyph unicode="&#x4c2;" horiz-adv-x="1699" d="M850 1214q-138 0 -217.5 65.5t-79.5 168.5h123q0 -57 43.5 -93t130.5 -36q86 0 126 33.5t50 95.5h123q0 -103 -80 -168.5t-219 -65.5zM59 0l385 553l-354 518h252l291 -426h100v426h232v-426h104l287 426h252l-355 -518l387 -553h-256l-315 449h-104v-449h-232v449h-100 l-318 -449h-256z" />
<glyph unicode="&#x4cb;" horiz-adv-x="1353" d="M967 1454h225v-1454h-250v-276h-201v452h226v430q-160 -71 -353 -71q-248 0 -366.5 110.5t-118.5 349.5v459h223v-432q0 -146 72.5 -212.5t234.5 -66.5q82 0 166 18t142 46v647z" />
<glyph unicode="&#x4cc;" horiz-adv-x="1083" d="M571 -256v367h156v327q-124 -53 -254 -53q-174 0 -271.5 98t-97.5 275v313h213v-285q0 -119 49.5 -174t157.5 -55q119 0 203 51v463h219v-1071h-182v-256h-193z" />
<glyph unicode="&#x4cf;" horiz-adv-x="495" d="M135 0v1071h225v-1071h-225z" />
<glyph unicode="&#x4d0;" horiz-adv-x="1382" d="M692 1597q-138 0 -217.5 65.5t-79.5 168.5h123q0 -57 43.5 -93t130.5 -36q86 0 126 33.5t50 95.5h123q0 -103 -80 -168.5t-219 -65.5zM584 1454h217l565 -1454h-242l-153 395h-561l-152 -395h-244zM926 565l-234 637l-241 -637h475z" />
<glyph unicode="&#x4d1;" horiz-adv-x="1155" d="M578 1214q-138 0 -217.5 65.5t-79.5 168.5h122q0 -56 44 -92.5t131 -36.5q86 0 126 33.5t50 95.5h123q0 -103 -80 -168.5t-219 -65.5zM57 313q0 153 127 246.5t330 93.5q163 0 279 -43v68q0 113 -69 176.5t-194 63.5q-86 0 -166 -30t-174 -91l-75 151q213 142 440 142 q217 0 340 -114.5t123 -322.5v-399q0 -38 13.5 -55.5t45.5 -18.5v-180q-54 -10 -96 -10q-68 0 -106.5 33t-45.5 83l-6 62q-69 -89 -176.5 -138.5t-220.5 -49.5q-160 0 -264.5 95.5t-104.5 237.5zM739 248q54 54 54 100v123q-118 45 -246 45q-124 0 -200.5 -50t-76.5 -134 q0 -76 58.5 -131.5t160.5 -55.5q70 0 138 29t112 74z" />
<glyph unicode="&#x4d2;" horiz-adv-x="1382" d="M418 1645v225h188v-225h-188zM780 1645v225h189v-225h-189zM584 1454h217l565 -1454h-242l-153 395h-561l-152 -395h-244zM926 565l-234 637l-241 -637h475z" />
<glyph unicode="&#x4d3;" horiz-adv-x="1155" d="M303 1262v225h189v-225h-189zM666 1262v225h188v-225h-188zM57 313q0 153 127 246.5t330 93.5q163 0 279 -43v68q0 113 -69 176.5t-194 63.5q-86 0 -166 -30t-174 -91l-75 151q213 142 440 142q217 0 340 -114.5t123 -322.5v-399q0 -38 13.5 -55.5t45.5 -18.5v-180 q-54 -10 -96 -10q-68 0 -106.5 33t-45.5 83l-6 62q-69 -89 -176.5 -138.5t-220.5 -49.5q-160 0 -264.5 95.5t-104.5 237.5zM739 248q54 54 54 100v123q-118 45 -246 45q-124 0 -200.5 -50t-76.5 -134q0 -76 58.5 -131.5t160.5 -55.5q70 0 138 29t112 74z" />
<glyph unicode="&#x4d4;" horiz-adv-x="1972" d="M866 1454h1016v-203h-725v-409h615v-203h-615v-436h744v-203h-973v395h-490l-241 -395h-248zM911 600v590l-372 -590h372z" />
<glyph unicode="&#x4d5;" horiz-adv-x="1914" d="M57 315q0 150 125.5 244t325.5 94q148 0 254 -41q8 78 22 115q-12 98 -77.5 150.5t-178.5 52.5q-158 0 -338 -123l-71 143q212 140 430 140q128 0 223 -45.5t150 -129.5q70 81 171 128t220 47q123 0 227.5 -44.5t175 -120t110 -176.5t40.5 -214q0 -47 -6 -74h-875 q10 -139 108 -227.5t232 -88.5q92 0 171.5 45.5t109.5 118.5l192 -55q-55 -122 -185 -198t-296 -76q-145 0 -263 61t-190 166q-66 -113 -191.5 -170t-254.5 -57q-154 0 -257.5 96t-103.5 239zM1640 604q-12 141 -104 230.5t-227 89.5t-227 -90t-101 -230h659zM750 258 q39 32 43 72q-27 61 -31 157q-109 37 -217 37q-122 0 -199.5 -53t-77.5 -137q0 -80 61 -134.5t150 -54.5q84 0 158 30.5t113 82.5z" />
<glyph unicode="&#x4d6;" horiz-adv-x="1234" d="M676 1593q-138 0 -217.5 65.5t-79.5 168.5h123q0 -57 43.5 -93t130.5 -36q86 0 126 33.5t50 95.5h123q0 -103 -80 -168.5t-219 -65.5zM1161 203v-203h-997v1454h979v-203h-750v-413h649v-191h-649v-444h768z" />
<glyph unicode="&#x4d7;" horiz-adv-x="1218" d="M616 1214q-138 0 -217.5 65.5t-79.5 168.5h123q0 -57 43.5 -93t130.5 -36q86 0 126.5 33.5t50.5 95.5h122q0 -103 -80 -168.5t-219 -65.5zM621 -20q-163 0 -291 76t-196 201t-68 275q0 113 40.5 215t111.5 178t176.5 120.5t228.5 44.5t226.5 -45t173 -120.5t108 -174.5 t38.5 -207q0 -28 -6 -82h-858q10 -139 103.5 -227.5t220.5 -88.5q92 0 171 45.5t109 118.5l193 -55q-57 -123 -186 -198.5t-295 -75.5zM299 610h647q-12 139 -103.5 226.5t-221.5 87.5q-129 0 -221 -88.5t-101 -225.5z" />
<glyph unicode="&#x4d8;" horiz-adv-x="1517" d="M49 711q0 70 6 100h1135q-20 195 -147.5 319.5t-299.5 124.5q-130 0 -238 -70t-143 -179l-225 88q80 166 249.5 268t369.5 102q145 0 273.5 -60t219 -160t143 -234.5t52.5 -280.5q0 -199 -88.5 -368t-248.5 -270t-357 -101q-147 0 -279 59.5t-223.5 158.5t-145 230.5 t-53.5 272.5zM1192 623h-893q9 -120 71.5 -218.5t164.5 -154t221 -55.5q175 0 298 121t138 307z" />
<glyph unicode="&#x4d9;" horiz-adv-x="1218" d="M602 -20q-123 0 -227.5 44.5t-175 120t-110 176.5t-40.5 214q0 46 6 73h858q-10 140 -103 227t-220 87q-92 0 -171.5 -45.5t-109.5 -116.5l-194 55q57 122 188 198.5t297 76.5q162 0 289.5 -76t195.5 -202t68 -277q0 -113 -39.5 -214.5t-109.5 -177t-174.5 -119.5 t-227.5 -44zM606 145q127 0 215 90t97 230h-642q10 -141 104.5 -230.5t225.5 -89.5z" />
<glyph unicode="&#x4dc;" horiz-adv-x="2129" d="M791 1645v225h188v-225h-188zM1153 1645v225h188v-225h-188zM47 0l561 752l-524 702h270l445 -608h151v608h230v-608h149l447 608h270l-526 -702l565 -752h-268l-482 635h-155v-635h-230v635h-155l-484 -635h-264z" />
<glyph unicode="&#x4dd;" horiz-adv-x="1699" d="M575 1262v225h189v-225h-189zM938 1262v225h188v-225h-188zM59 0l385 553l-354 518h252l291 -426h100v426h232v-426h104l287 426h252l-355 -518l387 -553h-256l-315 449h-104v-449h-232v449h-100l-318 -449h-256z" />
<glyph unicode="&#x4de;" horiz-adv-x="1196" d="M338 1645v225h188v-225h-188zM700 1645v225h189v-225h-189zM596 -16q-167 0 -301 69t-209 193l176 108q50 -84 135.5 -130t194.5 -46q137 0 213 65t76 175q0 107 -71.5 172t-201.5 65h-162v179h162q104 0 165 59.5t61 153.5q0 96 -66.5 155.5t-183.5 59.5 q-108 0 -189 -45t-125 -123l-168 116q163 258 492 258q212 0 337.5 -103.5t125.5 -285.5q0 -106 -52.5 -193.5t-152.5 -131.5q123 -35 192.5 -131.5t69.5 -225.5q0 -192 -144 -302.5t-374 -110.5z" />
<glyph unicode="&#x4df;" horiz-adv-x="989" d="M209 1262v225h188v-225h-188zM571 1262v225h189v-225h-189zM494 -16q-320 0 -447 227l182 82q75 -127 252 -127q106 0 167 45t61 119q0 69 -50 110.5t-139 42.5h-110v144h114q61 0 99.5 39.5t38.5 101.5q0 64 -47 100.5t-138 36.5q-151 0 -215 -117l-170 91 q53 99 155.5 153.5t239.5 54.5q167 0 271 -77t104 -213q0 -76 -37 -140t-106 -94q97 -29 148 -98.5t51 -167.5q0 -146 -117.5 -229.5t-306.5 -83.5z" />
<glyph unicode="&#x4e2;" horiz-adv-x="1568" d="M483 1702v143h607v-143h-607zM174 0v1454h229v-1130l777 1130h215v-1454h-230v1108l-768 -1108h-223z" />
<glyph unicode="&#x4e3;" horiz-adv-x="1241" d="M322 1319v143h606v-143h-606zM135 0v1069h225v-768l543 770h205v-1071h-225v752l-537 -752h-211z" />
<glyph unicode="&#x4e4;" horiz-adv-x="1568" d="M510 1645v225h188v-225h-188zM872 1645v225h189v-225h-189zM174 0v1454h229v-1130l777 1130h215v-1454h-230v1108l-768 -1108h-223z" />
<glyph unicode="&#x4e5;" horiz-adv-x="1241" d="M348 1262v225h189v-225h-189zM711 1262v225h188v-225h-188zM135 0v1069h225v-768l543 770h205v-1071h-225v752l-537 -752h-211z" />
<glyph unicode="&#x4e6;" d="M498 1640v226h188v-226h-188zM860 1640v226h189v-226h-189zM72 727q0 144 53.5 278.5t145.5 235.5t223 162t278 61q151 0 283 -64t220.5 -168.5t139.5 -237t51 -269.5q0 -144 -53.5 -278t-144.5 -235t-222 -161.5t-278 -60.5q-122 0 -232 40.5t-193.5 111.5t-145 164 t-93.5 201.5t-32 219.5zM770 197q106 0 195 46t146 121.5t88.5 169.5t31.5 193q0 103 -33.5 198.5t-92 169t-146 117t-189.5 43.5q-106 0 -195.5 -45.5t-147.5 -120.5t-90 -169t-32 -193q0 -138 55.5 -258t163.5 -196t246 -76z" />
<glyph unicode="&#x4e7;" horiz-adv-x="1232" d="M342 1262v225h188v-225h-188zM705 1262v225h188v-225h-188zM66 535q0 111 40 212t110 177t174.5 121t225.5 45q162 0 289.5 -77t194.5 -203t67 -275t-67 -275t-194.5 -203t-289.5 -77q-123 0 -227.5 45t-174.5 121t-109 177t-39 212zM616 172q134 0 227 105t93 258 t-93 257.5t-227 104.5q-133 0 -226 -106t-93 -259q0 -154 92.5 -257t226.5 -103z" />
<glyph unicode="&#x4e8;" horiz-adv-x="1558" d="M772 1464q151 0 283 -64t220.5 -168.5t139.5 -237t51 -269.5q0 -144 -53.5 -278t-144.5 -235t-222 -161.5t-278 -60.5q-122 0 -232 40.5t-193.5 111.5t-145 164t-93.5 201.5t-32 219.5q0 144 53.5 278.5t145.5 235.5t223 162t278 61zM770 1255q-127 0 -228.5 -64.5 t-159 -165.5t-73.5 -222h918q-16 124 -75 226t-159.5 164t-222.5 62zM770 197q100 0 185.5 41.5t142.5 110t91 155.5t40 180h-922q6 -97 41.5 -185t94 -155t144 -107t183.5 -40z" />
<glyph unicode="&#x4e9;" horiz-adv-x="1230" d="M616 1090q162 0 289.5 -77t194.5 -203t67 -275t-67 -275t-194.5 -203t-289.5 -77q-123 0 -227.5 45t-174.5 121t-109 177t-39 212t40 212t110 177t174.5 121t225.5 45zM616 897q-118 0 -207 -86.5t-108 -218.5h631q-17 133 -106 219t-210 86zM616 172q124 0 214 91 t104 229h-635q12 -139 102 -229.5t215 -90.5z" />
<glyph unicode="&#x4ee;" horiz-adv-x="1290" d="M367 1702v143h606v-143h-606zM311 -8v192h105q48 0 74.5 22t54.5 77l43 94l-592 1077h254l442 -842l375 842h244l-590 -1280q-50 -101 -108.5 -141.5t-157.5 -40.5h-144z" />
<glyph unicode="&#x4ef;" horiz-adv-x="1120" d="M258 1319v143h606v-143h-606zM172 -252q72 -14 109 -14q52 0 85.5 50.5t92.5 215.5l-441 1071h236l328 -842l290 842h218l-486 -1319q-34 -96 -117.5 -156.5t-203.5 -60.5q-54 0 -111 16v197z" />
<glyph unicode="&#x4f0;" horiz-adv-x="1290" d="M393 1645v225h189v-225h-189zM756 1645v225h188v-225h-188zM311 -8v192h105q48 0 74.5 22t54.5 77l43 94l-592 1077h254l442 -842l375 842h244l-590 -1280q-50 -101 -108.5 -141.5t-157.5 -40.5h-144z" />
<glyph unicode="&#x4f1;" horiz-adv-x="1120" d="M285 1262v225h188v-225h-188zM647 1262v225h189v-225h-189zM172 -252q72 -14 109 -14q52 0 85.5 50.5t92.5 215.5l-441 1071h236l328 -842l290 842h218l-486 -1319q-34 -96 -117.5 -156.5t-203.5 -60.5q-54 0 -111 16v197z" />
<glyph unicode="&#x4f2;" horiz-adv-x="1290" d="M539 1610l-113 45l104 225h183zM842 1610l-115 45l104 225h185zM311 -8v192h105q48 0 74.5 22t54.5 77l43 94l-592 1077h254l442 -842l375 842h244l-590 -1280q-50 -101 -108.5 -141.5t-157.5 -40.5h-144z" />
<glyph unicode="&#x4f3;" horiz-adv-x="1120" d="M430 1227l-113 45l105 225h182zM733 1227l-115 45l105 225h184zM172 -252q72 -14 109 -14q52 0 85.5 50.5t92.5 215.5l-441 1071h236l328 -842l290 842h218l-486 -1319q-34 -96 -117.5 -156.5t-203.5 -60.5q-54 0 -111 16v197z" />
<glyph unicode="&#x4f4;" horiz-adv-x="1353" d="M406 1645v225h188v-225h-188zM768 1645v225h188v-225h-188zM967 0v588q-163 -72 -349 -72q-249 0 -369 111.5t-120 351.5v475h223v-450q0 -146 73.5 -212.5t240.5 -66.5q78 0 161 18.5t140 47.5v663h225v-1454h-225z" />
<glyph unicode="&#x4f5;" horiz-adv-x="1101" d="M272 1262v225h189v-225h-189zM635 1262v225h188v-225h-188zM737 0v408q-121 -56 -274 -56q-174 0 -266.5 91.5t-92.5 271.5v356h226v-328q0 -113 47 -165t151 -52q130 0 209 45v500h228v-1071h-228z" />
<glyph unicode="&#x4f6;" horiz-adv-x="1083" d="M1032 1251h-637v-1048h193v-479h-201v276h-221v1454h866v-203z" />
<glyph unicode="&#x4f7;" horiz-adv-x="854" d="M819 872h-459v-675h179v-453h-201v256h-203v1071h684v-199z" />
<glyph unicode="&#x4f8;" horiz-adv-x="1832" d="M643 1645v225h188v-225h-188zM1006 1645v225h188v-225h-188zM164 0v1454h229v-536h326q235 0 363 -123.5t128 -333.5q0 -205 -126 -333t-351 -128h-569zM1440 0v1452h231v-1452h-231zM393 190h307q137 0 206 77t69 194q0 55 -14.5 101t-46 84t-86.5 59.5t-130 21.5h-305 v-537z" />
<glyph unicode="&#x4f9;" horiz-adv-x="1492" d="M471 1262v225h188v-225h-188zM834 1262v225h188v-225h-188zM135 0v1071h225v-352h203q188 0 289.5 -95t101.5 -255q0 -165 -98 -267t-276 -102h-445zM1130 0v1069h226v-1069h-226zM360 174h185q93 0 140.5 53.5t47.5 137.5q0 83 -45.5 134.5t-144.5 51.5h-183v-377z" />
<glyph unicode="&#x51a;" horiz-adv-x="1536" d="M1466 725q0 -142 -50.5 -274t-143.5 -234l190 -217h-221l-94 106q-166 -116 -379 -116q-122 1 -232 41.5t-193.5 111.5t-145 163.5t-93.5 201t-32 219.5q0 144 53.5 278.5t145.5 235.5t223 162t278 61q151 0 283 -64t220.5 -168.5t139.5 -237t51 -269.5zM770 197 q134 0 238 71l-209 238h221l106 -121q105 148 105 342q0 103 -33.5 199t-92 169.5t-146 117.5t-189.5 44q-106 0 -195.5 -46t-147.5 -121t-90 -169.5t-32 -193.5q0 -138 55.5 -258t163.5 -196t246 -76z" />
<glyph unicode="&#x51b;" horiz-adv-x="1286" d="M70 537q0 151 65.5 277.5t181 201t256.5 74.5q120 0 219.5 -58t159.5 -155v194h199v-1507h-225v637q-134 -221 -383 -221q-136 0 -245.5 76.5t-168.5 203.5t-59 277zM926 377v282q-20 95 -112 166.5t-189 71.5q-92 0 -168 -52.5t-117 -136.5t-41 -178q0 -150 92.5 -254 t233.5 -104q185 0 301 205z" />
<glyph unicode="&#x51c;" horiz-adv-x="2152" d="M680 1448h215l180 -494l182 494h216l-250 -647l217 -535l452 1188h252l-596 -1454h-198l-273 651l-274 -651h-201l-594 1454h250l455 -1188l217 535z" />
<glyph unicode="&#x51d;" horiz-adv-x="1699" d="M1470 1071h216l-451 -1071h-193l-192 483l-193 -483h-192l-453 1071h215l344 -852l152 395l-184 455h190l121 -334l119 334h190l-182 -455l151 -395z" />
<glyph unicode="&#x524;" horiz-adv-x="1560" d="M1315 203h176v-479h-201v276h-207v1251h-688v-1251h-229v1454h1149v-1251z" />
<glyph unicode="&#x525;" horiz-adv-x="1271" d="M1057 197h160v-453h-201v256h-185v872h-471v-872h-225v1071h922v-874z" />
<glyph unicode="&#x1e08;" horiz-adv-x="1400" d="M1036 1874l-184 -270l-147 45l116 225h215zM1352 326q-56 -134 -193 -221.5t-299 -110.5q105 -88 105 -197q0 -88 -59 -140t-165 -52q-126 0 -241 59l57 121q78 -43 145 -43q58 0 90.5 24.5t32.5 71.5q0 80 -110 152q-139 11 -260.5 80t-204.5 173t-130.5 233t-47.5 261 q0 106 30 210.5t90.5 197t143.5 163.5t197 112.5t243 41.5q191 0 335.5 -86.5t217.5 -230.5l-180 -121q-29 63 -73 109.5t-96 72t-104.5 37.5t-107.5 12q-88 0 -164 -30.5t-130 -81.5t-93 -119t-57.5 -143t-18.5 -152q0 -141 59.5 -263t168.5 -196.5t241 -74.5 q75 0 146.5 23.5t138 79t102.5 136.5z" />
<glyph unicode="&#x1e09;" horiz-adv-x="1144" d="M881 1495l-185 -270l-147 45l117 225h215zM1094 254q-45 -103 -143 -174t-230 -92q98 -82 98 -191q0 -88 -58.5 -140t-164.5 -52q-127 0 -242 59l58 121q78 -43 145 -43q58 0 90.5 24.5t32.5 71.5q0 74 -98 144q-151 9 -270.5 87.5t-182.5 201t-63 266.5 q0 113 39.5 213.5t110.5 176t176 119.5t229 44q162 0 282 -72t182 -195l-219 -69q-38 67 -104 105t-146 38q-136 0 -227.5 -101.5t-91.5 -258.5q0 -154 94 -259.5t227 -105.5q83 0 156 42.5t98 104.5z" />
<glyph unicode="&#x1e0c;" horiz-adv-x="1466" d="M164 0v1454h516q171 0 307.5 -56.5t223.5 -156t132.5 -230t45.5 -282.5q0 -330 -193.5 -529.5t-515.5 -199.5h-516zM680 1251h-287v-1048h287q150 0 258.5 69.5t162.5 187.5t54 269q0 233 -126.5 377.5t-348.5 144.5zM631 -395v237h203v-237h-203z" />
<glyph unicode="&#x1e0d;" horiz-adv-x="1304" d="M68 535q0 152 61 278.5t172.5 201.5t249.5 75q119 0 219 -61.5t158 -160.5v627h225v-1241q0 -39 14 -56t47 -18v-180q-59 -10 -98 -10q-63 0 -106.5 36t-46.5 89l-2 80q-61 -101 -164 -158t-219 -57q-145 0 -262.5 75.5t-182.5 202t-65 277.5zM928 385v281 q-35 97 -126 164t-184 67q-92 0 -165.5 -52.5t-112.5 -136t-39 -178.5q0 -149 96.5 -253.5t237.5 -104.5q91 0 180.5 62.5t112.5 150.5zM551 -395v237h203v-237h-203z" />
<glyph unicode="&#x1e0e;" horiz-adv-x="1466" d="M164 0v1454h516q171 0 307.5 -56.5t223.5 -156t132.5 -230t45.5 -282.5q0 -330 -193.5 -529.5t-515.5 -199.5h-516zM680 1251h-287v-1048h287q150 0 258.5 69.5t162.5 187.5t54 269q0 233 -126.5 377.5t-348.5 144.5zM430 -311v141h606v-141h-606z" />
<glyph unicode="&#x1e0f;" horiz-adv-x="1304" d="M68 535q0 152 61 278.5t172.5 201.5t249.5 75q119 0 219 -61.5t158 -160.5v627h225v-1241q0 -39 14 -56t47 -18v-180q-59 -10 -98 -10q-63 0 -106.5 36t-46.5 89l-2 80q-61 -101 -164 -158t-219 -57q-145 0 -262.5 75.5t-182.5 202t-65 277.5zM928 385v281 q-35 97 -126 164t-184 67q-92 0 -165.5 -52.5t-112.5 -136t-39 -178.5q0 -149 96.5 -253.5t237.5 -104.5q91 0 180.5 62.5t112.5 150.5zM350 -311v141h606v-141h-606z" />
<glyph unicode="&#x1e14;" horiz-adv-x="1234" d="M444 2267h215l117 -225l-143 -45zM375 1698v143h606v-143h-606zM1161 203v-203h-997v1454h979v-203h-750v-413h649v-191h-649v-444h768z" />
<glyph unicode="&#x1e15;" horiz-adv-x="1218" d="M385 1888h215l117 -225l-144 -45zM315 1319v143h607v-143h-607zM621 -20q-163 0 -291 76t-196 201t-68 275q0 113 40.5 215t111.5 178t176.5 120.5t228.5 44.5t226.5 -45t173 -120.5t108 -174.5t38.5 -207q0 -28 -6 -82h-858q10 -139 103.5 -227.5t220.5 -88.5 q92 0 171 45.5t109 118.5l193 -55q-57 -123 -186 -198.5t-295 -75.5zM299 610h647q-12 139 -103.5 226.5t-221.5 87.5q-129 0 -221 -88.5t-101 -225.5z" />
<glyph unicode="&#x1e16;" horiz-adv-x="1234" d="M756 1995l-148 45l117 225h215zM375 1698v143h606v-143h-606zM1161 203v-203h-997v1454h979v-203h-750v-413h649v-191h-649v-444h768z" />
<glyph unicode="&#x1e17;" horiz-adv-x="1218" d="M696 1616l-147 45l117 225h215zM315 1319v143h607v-143h-607zM621 -20q-163 0 -291 76t-196 201t-68 275q0 113 40.5 215t111.5 178t176.5 120.5t228.5 44.5t226.5 -45t173 -120.5t108 -174.5t38.5 -207q0 -28 -6 -82h-858q10 -139 103.5 -227.5t220.5 -88.5 q92 0 171 45.5t109 118.5l193 -55q-57 -123 -186 -198.5t-295 -75.5zM299 610h647q-12 139 -103.5 226.5t-221.5 87.5q-129 0 -221 -88.5t-101 -225.5z" />
<glyph unicode="&#x1e1c;" horiz-adv-x="1234" d="M676 1624q-104 0 -174 71.5t-70 178.5h125q0 -58 36 -101.5t83 -43.5q45 0 79 41t40 104h125q0 -107 -70 -178.5t-174 -71.5zM1161 203v-203h-399q112 -88 112 -203q0 -88 -58.5 -140t-164.5 -52q-126 0 -241 59l57 121q78 -43 145 -43q58 0 90.5 24.5t32.5 71.5 q0 46 -31.5 84t-95.5 78h-444v1454h979v-203h-750v-413h649v-191h-649v-444h768z" />
<glyph unicode="&#x1e1d;" horiz-adv-x="1218" d="M616 1245q-104 0 -173.5 71.5t-69.5 178.5h125q0 -58 35.5 -101.5t82.5 -43.5q45 0 79 41t40 104h125q0 -107 -70 -178.5t-174 -71.5zM1169 543q0 -28 -6 -82h-858q10 -139 103.5 -227.5t220.5 -88.5q92 0 171 45.5t109 118.5l193 -55q-48 -102 -148.5 -173t-232.5 -93 q96 -86 96 -191q0 -88 -58.5 -140t-164.5 -52q-127 0 -242 59l58 121q78 -43 145 -43q58 0 90.5 24.5t32.5 71.5q0 74 -98 144q-114 7 -211 53.5t-163 120.5t-103 171.5t-37 204.5q0 113 40.5 215t111.5 178t176.5 120.5t228.5 44.5t226.5 -45t173 -120.5t108 -174.5 t38.5 -207zM299 610h647q-12 139 -103.5 226.5t-221.5 87.5q-129 0 -221 -88.5t-101 -225.5z" />
<glyph unicode="&#x1e20;" horiz-adv-x="1472" d="M1069 1841v-143h-606v143h606zM877 735h497v-735h-192v180q-181 -190 -424 -190q-141 0 -268.5 61t-218 162t-144 237.5t-53.5 282.5t53 280.5t143.5 233.5t220 158t275.5 59q201 0 344.5 -84.5t218.5 -232.5l-176 -127q-59 116 -162 176.5t-231 60.5q-133 0 -238 -74.5 t-160 -195t-55 -260.5q0 -221 135 -375.5t334 -154.5q226 0 406 213v155h-305v170z" />
<glyph unicode="&#x1e21;" horiz-adv-x="1288" d="M326 1319v143h606v-143h-606zM70 535q0 152 62.5 278.5t177 201.5t257.5 75q124 0 222.5 -59.5t164.5 -162.5v203h199v-1040q0 -151 -75 -263t-203 -168.5t-291 -56.5q-324 0 -494 230l127 118q60 -85 157.5 -130.5t209.5 -45.5q95 0 171 32.5t124.5 106t48.5 177.5v164 q-56 -95 -156.5 -150t-212.5 -55q-140 0 -253.5 76t-174.5 200t-61 269zM928 385v281q-40 101 -128 166t-184 65q-94 0 -168 -54.5t-111.5 -138t-37.5 -176.5q0 -147 97 -251.5t237 -104.5q99 0 184.5 63t110.5 150z" />
<glyph unicode="&#x1e24;" horiz-adv-x="1521" d="M1358 1454v-1454h-232v641h-733v-641h-229v1454h229v-608h733v608h232zM659 -395v237h203v-237h-203z" />
<glyph unicode="&#x1e25;" horiz-adv-x="1222" d="M1096 0h-226v600q0 144 -52 216.5t-150 72.5q-94 0 -184.5 -72t-123.5 -180v-637h-225v1495h225v-639q62 109 168 171.5t230 62.5q338 0 338 -437v-653zM508 -395v237h203v-237h-203z" />
<glyph unicode="&#x1e2a;" horiz-adv-x="1521" d="M1358 1454v-1454h-232v641h-733v-641h-229v1454h229v-608h733v608h232zM881 -111h125q0 -107 -70 -178t-174 -71t-174 71t-70 178h125q0 -58 36 -101.5t83 -43.5q45 0 79 41t40 104z" />
<glyph unicode="&#x1e2b;" horiz-adv-x="1222" d="M1096 0h-226v600q0 144 -52 216.5t-150 72.5q-94 0 -184.5 -72t-123.5 -180v-637h-225v1495h225v-639q62 109 168 171.5t230 62.5q338 0 338 -437v-653zM729 -111h125q0 -107 -70 -178t-174 -71t-173.5 71t-69.5 178h125q0 -58 35.5 -101.5t82.5 -43.5q45 0 79 41t40 104 z" />
<glyph unicode="&#x1e2e;" horiz-adv-x="557" d="M356 2009l-147 45l117 225h215zM4 1640v226h189v-226h-189zM367 1640v226h188v-226h-188zM164 0v1454h229v-1454h-229z" />
<glyph unicode="&#x1e2f;" horiz-adv-x="495" d="M326 1630l-148 45l117 226h215zM-27 1262v225h189v-225h-189zM336 1262v225h188v-225h-188zM135 0v1071h225v-1071h-225z" />
<glyph unicode="&#x1e36;" horiz-adv-x="1196" d="M164 0v1454h229v-1251h781v-203h-1010zM584 -395v237h202v-237h-202z" />
<glyph unicode="&#x1e37;" horiz-adv-x="616" d="M137 1495h225v-1186q0 -76 22 -101.5t65 -25.5q76 0 139 29l33 -178q-49 -22 -116 -35.5t-122 -13.5q-116 0 -181 64t-65 179v1268zM274 -395v237h203v-237h-203z" />
<glyph unicode="&#x1e3a;" horiz-adv-x="1196" d="M164 0v1454h229v-1251h781v-203h-1010zM383 -311v141h606v-141h-606z" />
<glyph unicode="&#x1e3b;" horiz-adv-x="616" d="M137 1495h225v-1186q0 -76 22 -101.5t65 -25.5q76 0 139 29l33 -178q-49 -22 -116 -35.5t-122 -13.5q-116 0 -181 64t-65 179v1268zM74 -311v141h606v-141h-606z" />
<glyph unicode="&#x1e42;" horiz-adv-x="1781" d="M1386 0v1036l-428 -786h-135l-430 786v-1036h-229v1454h246l481 -889l481 889h246v-1454h-232zM788 -395v237h203v-237h-203z" />
<glyph unicode="&#x1e43;" horiz-adv-x="1898" d="M1774 0h-226v600q0 289 -192 289q-95 0 -175 -70.5t-114 -183.5v-635h-225v600q0 289 -191 289q-95 0 -176 -70t-115 -182v-637h-225v1071h205v-215q63 113 167 173.5t236 60.5q127 0 206.5 -67.5t99.5 -176.5q68 119 170.5 181.5t232.5 62.5q322 0 322 -437v-653z M848 -395v237h203v-237h-203z" />
<glyph unicode="&#x1e44;" horiz-adv-x="1570" d="M684 1638v236h203v-236h-203zM393 1028v-1028h-229v1454h188l824 -1051v1049h231v-1452h-201z" />
<glyph unicode="&#x1e45;" horiz-adv-x="1222" d="M530 1260v235h203v-235h-203zM1096 0h-226v600q0 149 -47.5 219t-142.5 70q-98 0 -191.5 -72.5t-128.5 -179.5v-637h-225v1071h205v-215q62 108 179 171t257 63q75 0 131.5 -23t92 -62t57.5 -96.5t30.5 -119t8.5 -136.5v-653z" />
<glyph unicode="&#x1e46;" horiz-adv-x="1570" d="M393 1028v-1028h-229v1454h188l824 -1051v1049h231v-1452h-201zM684 -395v237h203v-237h-203z" />
<glyph unicode="&#x1e47;" horiz-adv-x="1222" d="M1096 0h-226v600q0 149 -47.5 219t-142.5 70q-98 0 -191.5 -72.5t-128.5 -179.5v-637h-225v1071h205v-215q62 108 179 171t257 63q75 0 131.5 -23t92 -62t57.5 -96.5t30.5 -119t8.5 -136.5v-653zM508 -395v237h203v-237h-203z" />
<glyph unicode="&#x1e48;" horiz-adv-x="1570" d="M393 1028v-1028h-229v1454h188l824 -1051v1049h231v-1452h-201zM483 -311v141h607v-141h-607z" />
<glyph unicode="&#x1e49;" horiz-adv-x="1222" d="M1096 0h-226v600q0 149 -47.5 219t-142.5 70q-98 0 -191.5 -72.5t-128.5 -179.5v-637h-225v1071h205v-215q62 108 179 171t257 63q75 0 131.5 -23t92 -62t57.5 -96.5t30.5 -119t8.5 -136.5v-653zM307 -311v141h606v-141h-606z" />
<glyph unicode="&#x1e4c;" d="M850 2028l-148 45l117 225h215zM637 1726q-32 0 -54 -13.5t-31 -33t-12 -32t-3 -19.5h-127q0 15 6 41t22.5 60.5t40 64t63 50t87.5 20.5q51 0 97 -22.5t88 -45t83 -22.5q28 0 49.5 10t33 23t18.5 28.5t8.5 24.5t1.5 14h129q0 -13 -6.5 -38t-24 -60t-42.5 -65t-67.5 -51.5 t-93.5 -21.5q-53 0 -101 22t-88.5 44t-76.5 22zM72 727q0 144 53.5 278.5t145.5 235.5t223 162t278 61q151 0 283 -64t220.5 -168.5t139.5 -237t51 -269.5q0 -144 -53.5 -278t-144.5 -235t-222 -161.5t-278 -60.5q-122 0 -232 40.5t-193.5 111.5t-145 164t-93.5 201.5 t-32 219.5zM770 197q106 0 195 46t146 121.5t88.5 169.5t31.5 193q0 103 -33.5 198.5t-92 169t-146 117t-189.5 43.5q-106 0 -195.5 -45.5t-147.5 -120.5t-90 -169t-32 -193q0 -138 55.5 -258t163.5 -196t246 -76z" />
<glyph unicode="&#x1e4d;" horiz-adv-x="1232" d="M694 1649l-147 45l117 225h215zM481 1348q-32 0 -54 -13.5t-31 -33.5t-12 -32.5t-3 -19.5h-127q0 15 6 41t22.5 60.5t40 64t63 50t87.5 20.5q51 0 97 -22.5t88 -45t83 -22.5q28 0 49.5 10t33 23t18.5 28.5t8.5 24.5t1.5 14h129q0 -13 -6.5 -38t-23.5 -59.5t-42 -65 t-67.5 -51.5t-93.5 -21q-53 0 -101 22t-89 44t-77 22zM66 535q0 111 40 212t110 177t174.5 121t225.5 45q162 0 289.5 -77t194.5 -203t67 -275t-67 -275t-194.5 -203t-289.5 -77q-123 0 -227.5 45t-174.5 121t-109 177t-39 212zM616 172q134 0 227 105t93 258t-93 257.5 t-227 104.5q-133 0 -226 -106t-93 -259q0 -154 92.5 -257t226.5 -103z" />
<glyph unicode="&#x1e4e;" d="M498 2064v226h188v-226h-188zM860 2064v226h189v-226h-189zM637 1726q-32 0 -54 -13.5t-31 -33t-12 -32t-3 -19.5h-127q0 15 6 41t22.5 60.5t40 64t63 50t87.5 20.5q51 0 97 -22.5t88 -45t83 -22.5q28 0 49.5 10t33 23t18.5 28.5t8.5 24.5t1.5 14h129q0 -13 -6.5 -38 t-24 -60t-42.5 -65t-67.5 -51.5t-93.5 -21.5q-53 0 -101 22t-88.5 44t-76.5 22zM72 727q0 144 53.5 278.5t145.5 235.5t223 162t278 61q151 0 283 -64t220.5 -168.5t139.5 -237t51 -269.5q0 -144 -53.5 -278t-144.5 -235t-222 -161.5t-278 -60.5q-122 0 -232 40.5 t-193.5 111.5t-145 164t-93.5 201.5t-32 219.5zM770 197q106 0 195 46t146 121.5t88.5 169.5t31.5 193q0 103 -33.5 198.5t-92 169t-146 117t-189.5 43.5q-106 0 -195.5 -45.5t-147.5 -120.5t-90 -169t-32 -193q0 -138 55.5 -258t163.5 -196t246 -76z" />
<glyph unicode="&#x1e4f;" horiz-adv-x="1232" d="M342 1686v225h188v-225h-188zM705 1686v225h188v-225h-188zM481 1348q-32 0 -54 -13.5t-31 -33.5t-12 -32.5t-3 -19.5h-127q0 15 6 41t22.5 60.5t40 64t63 50t87.5 20.5q51 0 97 -22.5t88 -45t83 -22.5q28 0 49.5 10t33 23t18.5 28.5t8.5 24.5t1.5 14h129q0 -13 -6.5 -38 t-23.5 -59.5t-42 -65t-67.5 -51.5t-93.5 -21q-53 0 -101 22t-89 44t-77 22zM66 535q0 111 40 212t110 177t174.5 121t225.5 45q162 0 289.5 -77t194.5 -203t67 -275t-67 -275t-194.5 -203t-289.5 -77q-123 0 -227.5 45t-174.5 121t-109 177t-39 212zM616 172q134 0 227 105 t93 258t-93 257.5t-227 104.5q-133 0 -226 -106t-93 -259q0 -154 92.5 -257t226.5 -103z" />
<glyph unicode="&#x1e50;" d="M541 2267h215l116 -225l-143 -45zM471 1698v143h606v-143h-606zM72 727q0 144 53.5 278.5t145.5 235.5t223 162t278 61q151 0 283 -64t220.5 -168.5t139.5 -237t51 -269.5q0 -144 -53.5 -278t-144.5 -235t-222 -161.5t-278 -60.5q-122 0 -232 40.5t-193.5 111.5t-145 164 t-93.5 201.5t-32 219.5zM770 197q106 0 195 46t146 121.5t88.5 169.5t31.5 193q0 103 -33.5 198.5t-92 169t-146 117t-189.5 43.5q-106 0 -195.5 -45.5t-147.5 -120.5t-90 -169t-32 -193q0 -138 55.5 -258t163.5 -196t246 -76z" />
<glyph unicode="&#x1e51;" horiz-adv-x="1232" d="M385 1888h215l117 -225l-144 -45zM315 1319v143h607v-143h-607zM66 535q0 111 40 212t110 177t174.5 121t225.5 45q162 0 289.5 -77t194.5 -203t67 -275t-67 -275t-194.5 -203t-289.5 -77q-123 0 -227.5 45t-174.5 121t-109 177t-39 212zM616 172q134 0 227 105t93 258 t-93 257.5t-227 104.5q-133 0 -226 -106t-93 -259q0 -154 92.5 -257t226.5 -103z" />
<glyph unicode="&#x1e52;" d="M852 1995l-147 45l116 225h215zM471 1698v143h606v-143h-606zM72 727q0 144 53.5 278.5t145.5 235.5t223 162t278 61q151 0 283 -64t220.5 -168.5t139.5 -237t51 -269.5q0 -144 -53.5 -278t-144.5 -235t-222 -161.5t-278 -60.5q-122 0 -232 40.5t-193.5 111.5t-145 164 t-93.5 201.5t-32 219.5zM770 197q106 0 195 46t146 121.5t88.5 169.5t31.5 193q0 103 -33.5 198.5t-92 169t-146 117t-189.5 43.5q-106 0 -195.5 -45.5t-147.5 -120.5t-90 -169t-32 -193q0 -138 55.5 -258t163.5 -196t246 -76z" />
<glyph unicode="&#x1e53;" horiz-adv-x="1232" d="M696 1616l-147 45l117 225h215zM315 1319v143h607v-143h-607zM66 535q0 111 40 212t110 177t174.5 121t225.5 45q162 0 289.5 -77t194.5 -203t67 -275t-67 -275t-194.5 -203t-289.5 -77q-123 0 -227.5 45t-174.5 121t-109 177t-39 212zM616 172q134 0 227 105t93 258 t-93 257.5t-227 104.5q-133 0 -226 -106t-93 -259q0 -154 92.5 -257t226.5 -103z" />
<glyph unicode="&#x1e5a;" horiz-adv-x="1353" d="M164 0v1454h633q95 0 180.5 -41t143.5 -108t92 -152t34 -172q0 -148 -78 -267.5t-206 -160.5l342 -553h-258l-316 506h-338v-506h-229zM393 709h402q95 0 157 79.5t62 192.5q0 111 -70 190.5t-162 79.5h-389v-542zM588 -395v237h203v-237h-203z" />
<glyph unicode="&#x1e5b;" horiz-adv-x="765" d="M737 877q-132 -3 -233.5 -61.5t-143.5 -160.5v-655h-225v1071h209v-240q56 110 145.5 177t190.5 73q43 0 57 -2v-202zM137 -395v237h203v-237h-203z" />
<glyph unicode="&#x1e5e;" horiz-adv-x="1353" d="M164 0v1454h633q95 0 180.5 -41t143.5 -108t92 -152t34 -172q0 -148 -78 -267.5t-206 -160.5l342 -553h-258l-316 506h-338v-506h-229zM393 709h402q95 0 157 79.5t62 192.5q0 111 -70 190.5t-162 79.5h-389v-542zM387 -311v141h606v-141h-606z" />
<glyph unicode="&#x1e5f;" horiz-adv-x="765" d="M737 877q-132 -3 -233.5 -61.5t-143.5 -160.5v-655h-225v1071h209v-240q56 110 145.5 177t190.5 73q43 0 57 -2v-202zM-63 -311v141h606v-141h-606z" />
<glyph unicode="&#x1e60;" horiz-adv-x="1251" d="M541 1661v235h202v-235h-202zM1024 1112q-47 52 -160 100t-233 48q-142 0 -212.5 -52.5t-70.5 -148.5q0 -30 8 -54t20.5 -42.5t37.5 -35.5t49.5 -29t67 -25.5t79.5 -23t97 -24.5q96 -23 164 -45.5t131 -57t101 -77t60.5 -103.5t22.5 -139q0 -87 -27.5 -157t-75.5 -118 t-116 -80.5t-146 -47t-168 -14.5q-166 0 -321 50.5t-279 145.5l105 197q63 -65 205.5 -125.5t293.5 -60.5q136 0 209.5 48t73.5 138q0 36 -11 65t-38 52.5t-55.5 40.5t-81 35t-96 30t-117.5 31q-115 30 -190 61t-132.5 76t-83.5 106.5t-26 145.5q0 105 40.5 189.5 t111.5 139.5t167 84t209 29q268 0 491 -164z" />
<glyph unicode="&#x1e61;" horiz-adv-x="1005" d="M416 1260v235h202v-235h-202zM516 -20q-137 0 -257.5 45t-205.5 131l84 151q178 -155 371 -155q97 0 155 36.5t58 104.5q0 16 -3 30t-11.5 25.5t-16.5 20t-24.5 17t-29 14t-36.5 13.5t-40 12.5t-47.5 13t-51.5 14.5q-94 29 -152.5 54t-106 60t-68.5 82t-21 111 q0 153 116 241.5t306 88.5q243 0 391 -148l-97 -149q-139 127 -307 127q-85 0 -141.5 -32t-56.5 -104q0 -26 10 -46t24 -33.5t46.5 -28t59 -23t79.5 -24.5q48 -14 79 -23.5t70.5 -23t64 -24.5t53.5 -27t46.5 -31.5t35.5 -36t27 -43t15 -50.5t6 -61q0 -154 -115 -241.5 t-309 -87.5z" />
<glyph unicode="&#x1e62;" horiz-adv-x="1251" d="M1024 1112q-47 52 -160 100t-233 48q-142 0 -212.5 -52.5t-70.5 -148.5q0 -30 8 -54t20.5 -42.5t37.5 -35.5t49.5 -29t67 -25.5t79.5 -23t97 -24.5q96 -23 164 -45.5t131 -57t101 -77t60.5 -103.5t22.5 -139q0 -87 -27.5 -157t-75.5 -118t-116 -80.5t-146 -47t-168 -14.5 q-166 0 -321 50.5t-279 145.5l105 197q63 -65 205.5 -125.5t293.5 -60.5q136 0 209.5 48t73.5 138q0 36 -11 65t-38 52.5t-55.5 40.5t-81 35t-96 30t-117.5 31q-115 30 -190 61t-132.5 76t-83.5 106.5t-26 145.5q0 105 40.5 189.5t111.5 139.5t167 84t209 29q268 0 491 -164 zM551 -395v237h203v-237h-203z" />
<glyph unicode="&#x1e63;" horiz-adv-x="1005" d="M516 -20q-137 0 -257.5 45t-205.5 131l84 151q178 -155 371 -155q97 0 155 36.5t58 104.5q0 16 -3 30t-11.5 25.5t-16.5 20t-24.5 17t-29 14t-36.5 13.5t-40 12.5t-47.5 13t-51.5 14.5q-94 29 -152.5 54t-106 60t-68.5 82t-21 111q0 153 116 241.5t306 88.5 q243 0 391 -148l-97 -149q-139 127 -307 127q-85 0 -141.5 -32t-56.5 -104q0 -26 10 -46t24 -33.5t46.5 -28t59 -23t79.5 -24.5q48 -14 79 -23.5t70.5 -23t64 -24.5t53.5 -27t46.5 -31.5t35.5 -36t27 -43t15 -50.5t6 -61q0 -154 -115 -241.5t-309 -87.5zM414 -395v237h202 v-237h-202z" />
<glyph unicode="&#x1e64;" horiz-adv-x="1251" d="M637 2085v235h203v-235h-203zM721 1626l-148 45l117 225h215zM1024 1112q-47 52 -160 100t-233 48q-142 0 -212.5 -52.5t-70.5 -148.5q0 -30 8 -54t20.5 -42.5t37.5 -35.5t49.5 -29t67 -25.5t79.5 -23t97 -24.5q96 -23 164 -45.5t131 -57t101 -77t60.5 -103.5t22.5 -139 q0 -87 -27.5 -157t-75.5 -118t-116 -80.5t-146 -47t-168 -14.5q-166 0 -321 50.5t-279 145.5l105 197q63 -65 205.5 -125.5t293.5 -60.5q136 0 209.5 48t73.5 138q0 36 -11 65t-38 52.5t-55.5 40.5t-81 35t-96 30t-117.5 31q-115 30 -190 61t-132.5 76t-83.5 106.5 t-26 145.5q0 105 40.5 189.5t111.5 139.5t167 84t209 29q268 0 491 -164z" />
<glyph unicode="&#x1e65;" horiz-adv-x="1005" d="M512 1683v236h203v-236h-203zM596 1225l-147 45l116 225h215zM516 -20q-137 0 -257.5 45t-205.5 131l84 151q178 -155 371 -155q97 0 155 36.5t58 104.5q0 16 -3 30t-11.5 25.5t-16.5 20t-24.5 17t-29 14t-36.5 13.5t-40 12.5t-47.5 13t-51.5 14.5q-94 29 -152.5 54 t-106 60t-68.5 82t-21 111q0 153 116 241.5t306 88.5q243 0 391 -148l-97 -149q-139 127 -307 127q-85 0 -141.5 -32t-56.5 -104q0 -26 10 -46t24 -33.5t46.5 -28t59 -23t79.5 -24.5q48 -14 79 -23.5t70.5 -23t64 -24.5t53.5 -27t46.5 -31.5t35.5 -36t27 -43t15 -50.5t6 -61 q0 -154 -115 -241.5t-309 -87.5z" />
<glyph unicode="&#x1e66;" horiz-adv-x="1251" d="M541 2085v235h202v-235h-202zM469 1896l174 -129l174 129l121 -57l-213 -194h-162l-213 194zM1024 1112q-47 52 -160 100t-233 48q-142 0 -212.5 -52.5t-70.5 -148.5q0 -30 8 -54t20.5 -42.5t37.5 -35.5t49.5 -29t67 -25.5t79.5 -23t97 -24.5q96 -23 164 -45.5t131 -57 t101 -77t60.5 -103.5t22.5 -139q0 -87 -27.5 -157t-75.5 -118t-116 -80.5t-146 -47t-168 -14.5q-166 0 -321 50.5t-279 145.5l105 197q63 -65 205.5 -125.5t293.5 -60.5q136 0 209.5 48t73.5 138q0 36 -11 65t-38 52.5t-55.5 40.5t-81 35t-96 30t-117.5 31q-115 30 -190 61 t-132.5 76t-83.5 106.5t-26 145.5q0 105 40.5 189.5t111.5 139.5t167 84t209 29q268 0 491 -164z" />
<glyph unicode="&#x1e67;" horiz-adv-x="1005" d="M416 1683v236h202v-236h-202zM344 1495l174 -129l174 129l121 -57l-213 -195h-162l-213 195zM516 -20q-137 0 -257.5 45t-205.5 131l84 151q178 -155 371 -155q97 0 155 36.5t58 104.5q0 16 -3 30t-11.5 25.5t-16.5 20t-24.5 17t-29 14t-36.5 13.5t-40 12.5t-47.5 13 t-51.5 14.5q-94 29 -152.5 54t-106 60t-68.5 82t-21 111q0 153 116 241.5t306 88.5q243 0 391 -148l-97 -149q-139 127 -307 127q-85 0 -141.5 -32t-56.5 -104q0 -26 10 -46t24 -33.5t46.5 -28t59 -23t79.5 -24.5q48 -14 79 -23.5t70.5 -23t64 -24.5t53.5 -27t46.5 -31.5 t35.5 -36t27 -43t15 -50.5t6 -61q0 -154 -115 -241.5t-309 -87.5z" />
<glyph unicode="&#x1e68;" horiz-adv-x="1251" d="M541 1661v235h202v-235h-202zM1024 1112q-47 52 -160 100t-233 48q-142 0 -212.5 -52.5t-70.5 -148.5q0 -30 8 -54t20.5 -42.5t37.5 -35.5t49.5 -29t67 -25.5t79.5 -23t97 -24.5q96 -23 164 -45.5t131 -57t101 -77t60.5 -103.5t22.5 -139q0 -87 -27.5 -157t-75.5 -118 t-116 -80.5t-146 -47t-168 -14.5q-166 0 -321 50.5t-279 145.5l105 197q63 -65 205.5 -125.5t293.5 -60.5q136 0 209.5 48t73.5 138q0 36 -11 65t-38 52.5t-55.5 40.5t-81 35t-96 30t-117.5 31q-115 30 -190 61t-132.5 76t-83.5 106.5t-26 145.5q0 105 40.5 189.5 t111.5 139.5t167 84t209 29q268 0 491 -164zM551 -395v237h203v-237h-203z" />
<glyph unicode="&#x1e69;" horiz-adv-x="1005" d="M416 1260v235h202v-235h-202zM516 -20q-137 0 -257.5 45t-205.5 131l84 151q178 -155 371 -155q97 0 155 36.5t58 104.5q0 16 -3 30t-11.5 25.5t-16.5 20t-24.5 17t-29 14t-36.5 13.5t-40 12.5t-47.5 13t-51.5 14.5q-94 29 -152.5 54t-106 60t-68.5 82t-21 111 q0 153 116 241.5t306 88.5q243 0 391 -148l-97 -149q-139 127 -307 127q-85 0 -141.5 -32t-56.5 -104q0 -26 10 -46t24 -33.5t46.5 -28t59 -23t79.5 -24.5q48 -14 79 -23.5t70.5 -23t64 -24.5t53.5 -27t46.5 -31.5t35.5 -36t27 -43t15 -50.5t6 -61q0 -154 -115 -241.5 t-309 -87.5zM414 -395v237h202v-237h-202z" />
<glyph unicode="&#x1e6c;" horiz-adv-x="1261" d="M1231 1251h-483v-1251h-232v1251h-485v203h1200v-203zM532 -395v237h203v-237h-203z" />
<glyph unicode="&#x1e6d;" horiz-adv-x="751" d="M731 55q-150 -71 -280 -71q-114 0 -187.5 60.5t-73.5 182.5v670h-141v174h141v352h226v-352h233v-174h-233v-598q3 -54 34 -81.5t80 -27.5q71 0 154 43zM348 -395v237h203v-237h-203z" />
<glyph unicode="&#x1e6e;" horiz-adv-x="1261" d="M1231 1251h-483v-1251h-232v1251h-485v203h1200v-203zM332 -311v141h606v-141h-606z" />
<glyph unicode="&#x1e6f;" horiz-adv-x="751" d="M731 55q-150 -71 -280 -71q-114 0 -187.5 60.5t-73.5 182.5v670h-141v174h141v352h226v-352h233v-174h-233v-598q3 -54 34 -81.5t80 -27.5q71 0 154 43zM147 -311v141h607v-141h-607z" />
<glyph unicode="&#x1e78;" d="M848 2028l-148 45l117 225h215zM635 1726q-32 0 -54 -13.5t-31 -33t-12 -32t-3 -19.5h-127q0 15 6 41t22.5 60.5t40 64t63 50t87.5 20.5q51 0 97 -22.5t88 -45t83 -22.5q28 0 49.5 10t33 23t18.5 28.5t8.5 24.5t1.5 14h129q0 -13 -6.5 -38t-24 -60t-42.5 -65t-67.5 -51.5 t-93.5 -21.5q-53 0 -101 22t-88.5 44t-76.5 22zM770 -10q-135 0 -242.5 40t-178.5 107t-118 161.5t-67.5 198t-20.5 220.5v737h230v-737q0 -83 12 -156.5t41.5 -141.5t73.5 -116t113 -77t157 -29q89 0 158.5 29.5t113.5 78.5t73 117t40.5 140.5t11.5 154.5v737h232v-737 q0 -153 -36 -281.5t-109.5 -230t-197 -158.5t-286.5 -57z" />
<glyph unicode="&#x1e79;" horiz-adv-x="1247" d="M686 1649l-147 45l116 225h215zM473 1348q-32 0 -54 -13.5t-31 -33.5t-12 -32.5t-3 -19.5h-127q0 15 6 41t22.5 60.5t40 64t63 50t87.5 20.5q51 0 97 -22.5t88 -45t83 -22.5q28 0 49.5 10t33 23t18.5 28.5t8.5 24.5t1.5 14h129q0 -13 -6.5 -38t-24 -59.5t-42.5 -65 t-67.5 -51.5t-93.5 -21q-53 0 -101 22t-88.5 44t-76.5 22zM125 416v655h225v-610q0 -143 52 -216t153 -73q98 0 183.5 60.5t131.5 170.5v668h226v-817q0 -39 14 -56t47 -18v-180q-59 -10 -100 -10q-62 0 -104 33.5t-46 87.5l-4 106q-71 -115 -185.5 -176t-252.5 -61 q-167 0 -253.5 110.5t-86.5 325.5z" />
<glyph unicode="&#x1e7a;" d="M498 2032v225h188v-225h-188zM860 2032v225h189v-225h-189zM469 1698v143h606v-143h-606zM770 -10q-135 0 -242.5 40t-178.5 107t-118 161.5t-67.5 198t-20.5 220.5v737h230v-737q0 -83 12 -156.5t41.5 -141.5t73.5 -116t113 -77t157 -29q89 0 158.5 29.5t113.5 78.5 t73 117t40.5 140.5t11.5 154.5v737h232v-737q0 -153 -36 -281.5t-109.5 -230t-197 -158.5t-286.5 -57z" />
<glyph unicode="&#x1e7b;" horiz-adv-x="1247" d="M336 1653v225h188v-225h-188zM698 1653v225h189v-225h-189zM307 1319v143h606v-143h-606zM125 416v655h225v-610q0 -143 52 -216t153 -73q98 0 183.5 60.5t131.5 170.5v668h226v-817q0 -39 14 -56t47 -18v-180q-59 -10 -100 -10q-62 0 -104 33.5t-46 87.5l-4 106 q-71 -115 -185.5 -176t-252.5 -61q-167 0 -253.5 110.5t-86.5 325.5z" />
<glyph unicode="&#x1e80;" horiz-adv-x="2152" d="M842 1876h215l117 -225l-144 -45zM680 1448h215l180 -494l182 494h216l-250 -647l217 -535l452 1188h252l-596 -1454h-198l-273 651l-274 -651h-201l-594 1454h250l455 -1188l217 535z" />
<glyph unicode="&#x1e81;" horiz-adv-x="1699" d="M616 1497h215l117 -225l-143 -45zM1470 1071h216l-451 -1071h-193l-192 483l-193 -483h-192l-453 1071h215l344 -852l152 395l-184 455h190l121 -334l119 334h190l-182 -455l151 -395z" />
<glyph unicode="&#x1e82;" horiz-adv-x="2152" d="M1153 1604l-147 45l116 225h215zM680 1448h215l180 -494l182 494h216l-250 -647l217 -535l452 1188h252l-596 -1454h-198l-273 651l-274 -651h-201l-594 1454h250l455 -1188l217 535z" />
<glyph unicode="&#x1e83;" horiz-adv-x="1699" d="M928 1225l-148 45l117 225h215zM1470 1071h216l-451 -1071h-193l-192 483l-193 -483h-192l-453 1071h215l344 -852l152 395l-184 455h190l121 -334l119 334h190l-182 -455l151 -395z" />
<glyph unicode="&#x1e84;" horiz-adv-x="2152" d="M801 1640v226h188v-226h-188zM1163 1640v226h189v-226h-189zM680 1448h215l180 -494l182 494h216l-250 -647l217 -535l452 1188h252l-596 -1454h-198l-273 651l-274 -651h-201l-594 1454h250l455 -1188l217 535z" />
<glyph unicode="&#x1e85;" horiz-adv-x="1699" d="M575 1262v225h189v-225h-189zM938 1262v225h188v-225h-188zM1470 1071h216l-451 -1071h-193l-192 483l-193 -483h-192l-453 1071h215l344 -852l152 395l-184 455h190l121 -334l119 334h190l-182 -455l151 -395z" />
<glyph unicode="&#x1e8e;" horiz-adv-x="1345" d="M569 1638v236h203v-236h-203zM270 1454l402 -723l405 723h252l-543 -934v-520h-229v524l-539 930h252z" />
<glyph unicode="&#x1e8f;" horiz-adv-x="1120" d="M479 1260v235h203v-235h-203zM172 -252q72 -14 109 -14q52 0 85.5 50.5t92.5 215.5l-441 1071h236l328 -842l290 842h218l-486 -1319q-34 -96 -117.5 -156.5t-203.5 -60.5q-54 0 -111 16v197z" />
<glyph unicode="&#x1e92;" horiz-adv-x="1288" d="M63 176l879 1075h-858v203h1130v-176l-856 -1075h859v-203h-1154v176zM543 -395v237h202v-237h-202z" />
<glyph unicode="&#x1e93;" horiz-adv-x="1009" d="M57 141l635 770h-612v160h858v-141l-631 -770h637v-160h-887v141zM403 -395v237h203v-237h-203z" />
<glyph unicode="&#x1e97;" horiz-adv-x="751" d="M43 1645v225h188v-225h-188zM406 1645v225h188v-225h-188zM731 55q-150 -71 -280 -71q-114 0 -187.5 60.5t-73.5 182.5v670h-141v174h141v352h226v-352h233v-174h-233v-598q3 -54 34 -81.5t80 -27.5q71 0 154 43z" />
<glyph unicode="&#x1e9e;" horiz-adv-x="1359" d="M905 627q51 -15 79 -24t69.5 -23t63.5 -24.5t52 -26t45.5 -30t33.5 -35t26 -43t14 -50t6 -60.5q0 -155 -112 -243t-303 -88q-137 0 -257.5 45t-205.5 131l84 151q172 -155 362 -155q97 0 155 36.5t58 104.5q0 15 -3 27.5t-7.5 22.5t-14.5 19t-17.5 16t-24 14.5t-27 12 t-33.5 12t-36.5 11.5t-43 12t-45.5 13q-94 28 -153.5 53.5t-106.5 61.5t-67.5 83.5t-20.5 112.5q0 72 26 129.5t69.5 95.5t108 66.5t132.5 44t152 26.5q-34 74 -109.5 111t-173.5 37q-162 0 -246 -93.5t-84 -240.5v-940h-215v979q0 146 73.5 257t196.5 168.5t275 57.5 q208 0 345.5 -106t166.5 -291l10 -68q-36 -6 -106 -17q-46 -7 -68.5 -10.5t-62.5 -10.5t-60.5 -12t-52.5 -13t-48.5 -16t-39.5 -18.5t-34 -22t-23 -25.5t-16.5 -31t-4.5 -37q0 -27 10.5 -47.5t25.5 -34.5t47 -28t58.5 -23t77.5 -24z" />
<glyph unicode="&#x1ea0;" horiz-adv-x="1382" d="M584 1454h217l565 -1454h-242l-153 395h-561l-152 -395h-244zM926 565l-234 637l-241 -637h475zM608 -395v237h203v-237h-203z" />
<glyph unicode="&#x1ea1;" horiz-adv-x="1155" d="M57 313q0 153 127 246.5t330 93.5q163 0 279 -43v68q0 113 -69 176.5t-194 63.5q-86 0 -166 -30t-174 -91l-75 151q213 142 440 142q217 0 340 -114.5t123 -322.5v-399q0 -38 13.5 -55.5t45.5 -18.5v-180q-54 -10 -96 -10q-68 0 -106.5 33t-45.5 83l-6 62 q-69 -89 -176.5 -138.5t-220.5 -49.5q-160 0 -264.5 95.5t-104.5 237.5zM739 248q54 54 54 100v123q-118 45 -246 45q-124 0 -200.5 -50t-76.5 -134q0 -76 58.5 -131.5t160.5 -55.5q70 0 138 29t112 74zM510 -395v237h203v-237h-203z" />
<glyph unicode="&#x1ea2;" horiz-adv-x="1382" d="M594 1796l-76 74q90 84 193 84q73 0 114 -42t41 -102q0 -49 -29 -95t-94 -99l-59 67q64 53 64 103q0 25 -16 41t-42 16t-46 -10t-50 -37zM584 1454h217l565 -1454h-242l-153 395h-561l-152 -395h-244zM926 565l-234 637l-241 -637h475z" />
<glyph unicode="&#x1ea3;" horiz-adv-x="1155" d="M453 1417l-76 74q90 84 192 84q73 0 114.5 -41.5t41.5 -101.5q0 -95 -123 -195l-59 68q63 52 63 102q0 25 -15.5 41t-41.5 16t-46 -10t-50 -37zM57 313q0 153 127 246.5t330 93.5q163 0 279 -43v68q0 113 -69 176.5t-194 63.5q-86 0 -166 -30t-174 -91l-75 151 q213 142 440 142q217 0 340 -114.5t123 -322.5v-399q0 -38 13.5 -55.5t45.5 -18.5v-180q-54 -10 -96 -10q-68 0 -106.5 33t-45.5 83l-6 62q-69 -89 -176.5 -138.5t-220.5 -49.5q-160 0 -264.5 95.5t-104.5 237.5zM739 248q54 54 54 100v123q-118 45 -246 45 q-124 0 -200.5 -50t-76.5 -134q0 -76 58.5 -131.5t160.5 -55.5q70 0 138 29t112 74z" />
<glyph unicode="&#x1ea4;" horiz-adv-x="1382" d="M1024 1778l-147 45l116 225h215zM379 1640l213 195h162l213 -195l-121 -57l-174 129l-174 -129zM584 1454h217l565 -1454h-242l-153 395h-561l-152 -395h-244zM926 565l-234 637l-241 -637h475z" />
<glyph unicode="&#x1ea5;" horiz-adv-x="1155" d="M883 1399l-148 45l117 225h215zM238 1262l213 194h161l213 -194l-120 -58l-175 129l-174 -129zM57 313q0 153 127 246.5t330 93.5q163 0 279 -43v68q0 113 -69 176.5t-194 63.5q-86 0 -166 -30t-174 -91l-75 151q213 142 440 142q217 0 340 -114.5t123 -322.5v-399 q0 -38 13.5 -55.5t45.5 -18.5v-180q-54 -10 -96 -10q-68 0 -106.5 33t-45.5 83l-6 62q-69 -89 -176.5 -138.5t-220.5 -49.5q-160 0 -264.5 95.5t-104.5 237.5zM739 248q54 54 54 100v123q-118 45 -246 45q-124 0 -200.5 -50t-76.5 -134q0 -76 58.5 -131.5t160.5 -55.5 q70 0 138 29t112 74z" />
<glyph unicode="&#x1ea6;" horiz-adv-x="1382" d="M164 2023h215l117 -225l-144 -45zM408 1642l213 195h161l213 -195l-121 -57l-174 129l-174 -129zM584 1454h217l565 -1454h-242l-153 395h-561l-152 -395h-244zM926 565l-234 637l-241 -637h475z" />
<glyph unicode="&#x1ea7;" horiz-adv-x="1155" d="M23 1645h215l116 -226l-143 -45zM266 1264l213 194h162l213 -194l-121 -58l-174 129l-174 -129zM57 313q0 153 127 246.5t330 93.5q163 0 279 -43v68q0 113 -69 176.5t-194 63.5q-86 0 -166 -30t-174 -91l-75 151q213 142 440 142q217 0 340 -114.5t123 -322.5v-399 q0 -38 13.5 -55.5t45.5 -18.5v-180q-54 -10 -96 -10q-68 0 -106.5 33t-45.5 83l-6 62q-69 -89 -176.5 -138.5t-220.5 -49.5q-160 0 -264.5 95.5t-104.5 237.5zM739 248q54 54 54 100v123q-118 45 -246 45q-124 0 -200.5 -50t-76.5 -134q0 -76 58.5 -131.5t160.5 -55.5 q70 0 138 29t112 74z" />
<glyph unicode="&#x1ea8;" horiz-adv-x="1382" d="M848 1901l-76 73q90 84 193 84q73 0 114 -41.5t41 -101.5q0 -95 -123 -195l-59 68q63 52 63 102q0 25 -15.5 41.5t-41.5 16.5t-46 -10t-50 -37zM375 1642l213 195h162l213 -195l-121 -57l-174 129l-174 -129zM584 1454h217l565 -1454h-242l-153 395h-561l-152 -395h-244z M926 565l-234 637l-241 -637h475z" />
<glyph unicode="&#x1ea9;" horiz-adv-x="1155" d="M707 1522l-76 73q90 84 192 84q73 0 114.5 -41.5t41.5 -101.5q0 -95 -123 -195l-59 68q63 52 63 102q0 25 -15.5 41.5t-41.5 16.5t-46 -10t-50 -37zM233 1264l213 194h162l213 -194l-121 -58l-174 129l-174 -129zM57 313q0 153 127 246.5t330 93.5q163 0 279 -43v68 q0 113 -69 176.5t-194 63.5q-86 0 -166 -30t-174 -91l-75 151q213 142 440 142q217 0 340 -114.5t123 -322.5v-399q0 -38 13.5 -55.5t45.5 -18.5v-180q-54 -10 -96 -10q-68 0 -106.5 33t-45.5 83l-6 62q-69 -89 -176.5 -138.5t-220.5 -49.5q-160 0 -264.5 95.5t-104.5 237.5 zM739 248q54 54 54 100v123q-118 45 -246 45q-124 0 -200.5 -50t-76.5 -134q0 -76 58.5 -131.5t160.5 -55.5q70 0 138 29t112 74z" />
<glyph unicode="&#x1eaa;" horiz-adv-x="1382" d="M545 1970q-32 0 -54.5 -13.5t-31 -33t-12 -32t-3.5 -19.5h-127q0 15 6 41t22.5 60t40 63.5t63.5 50t88 20.5q51 0 97 -22.5t88 -45t83 -22.5q28 0 49.5 10t32.5 23t18 29t8.5 25t1.5 14h129q0 -13 -6.5 -38t-23.5 -60t-42 -65t-67.5 -51.5t-93.5 -21.5q-53 0 -101 22 t-88.5 44t-76.5 22zM377 1638l213 195h162l213 -195l-121 -57l-174 129l-174 -129zM584 1454h217l565 -1454h-242l-153 395h-561l-152 -395h-244zM926 565l-234 637l-241 -637h475z" />
<glyph unicode="&#x1eab;" horiz-adv-x="1155" d="M403 1591q-32 0 -54 -13.5t-31 -33t-12 -32t-3 -19.5h-127q0 15 6 41t22.5 60.5t40 64t63 50t87.5 20.5q41 0 79 -14t63.5 -31.5t59.5 -31.5t67 -14q28 0 49.5 10t32.5 23t18 29t8.5 25t1.5 14h129q0 -13 -6.5 -38t-23.5 -60t-42 -65t-67.5 -51.5t-93.5 -21.5 q-53 0 -101 22t-89 44t-77 22zM236 1260l213 194h161l213 -194l-121 -58l-174 129l-174 -129zM57 313q0 153 127 246.5t330 93.5q163 0 279 -43v68q0 113 -69 176.5t-194 63.5q-86 0 -166 -30t-174 -91l-75 151q213 142 440 142q217 0 340 -114.5t123 -322.5v-399 q0 -38 13.5 -55.5t45.5 -18.5v-180q-54 -10 -96 -10q-68 0 -106.5 33t-45.5 83l-6 62q-69 -89 -176.5 -138.5t-220.5 -49.5q-160 0 -264.5 95.5t-104.5 237.5zM739 248q54 54 54 100v123q-118 45 -246 45q-124 0 -200.5 -50t-76.5 -134q0 -76 58.5 -131.5t160.5 -55.5 q70 0 138 29t112 74z" />
<glyph unicode="&#x1eac;" horiz-adv-x="1382" d="M399 1679l213 195h162l213 -195l-121 -57l-174 129l-174 -129zM584 1454h217l565 -1454h-242l-153 395h-561l-152 -395h-244zM926 565l-234 637l-241 -637h475zM608 -395v237h203v-237h-203z" />
<glyph unicode="&#x1ead;" horiz-adv-x="1155" d="M258 1300l213 195h162l213 -195l-121 -57l-174 129l-174 -129zM57 313q0 153 127 246.5t330 93.5q163 0 279 -43v68q0 113 -69 176.5t-194 63.5q-86 0 -166 -30t-174 -91l-75 151q213 142 440 142q217 0 340 -114.5t123 -322.5v-399q0 -38 13.5 -55.5t45.5 -18.5v-180 q-54 -10 -96 -10q-68 0 -106.5 33t-45.5 83l-6 62q-69 -89 -176.5 -138.5t-220.5 -49.5q-160 0 -264.5 95.5t-104.5 237.5zM739 248q54 54 54 100v123q-118 45 -246 45q-124 0 -200.5 -50t-76.5 -134q0 -76 58.5 -131.5t160.5 -55.5q70 0 138 29t112 74zM510 -395v237h203 v-237h-203z" />
<glyph unicode="&#x1eae;" horiz-adv-x="1382" d="M764 1849l-148 45l117 226h215zM807 1827h125q0 -107 -70 -178.5t-174 -71.5t-174 71.5t-70 178.5h125q0 -58 36 -102t83 -44q45 0 79 41.5t40 104.5zM584 1454h217l565 -1454h-242l-153 395h-561l-152 -395h-244zM926 565l-234 637l-241 -637h475z" />
<glyph unicode="&#x1eaf;" horiz-adv-x="1155" d="M623 1470l-148 46l117 225h215zM666 1448h125q0 -107 -70 -178.5t-174 -71.5t-174 71.5t-70 178.5h125q0 -58 36 -101.5t83 -43.5q45 0 79 41t40 104zM57 313q0 153 127 246.5t330 93.5q163 0 279 -43v68q0 113 -69 176.5t-194 63.5q-86 0 -166 -30t-174 -91l-75 151 q213 142 440 142q217 0 340 -114.5t123 -322.5v-399q0 -38 13.5 -55.5t45.5 -18.5v-180q-54 -10 -96 -10q-68 0 -106.5 33t-45.5 83l-6 62q-69 -89 -176.5 -138.5t-220.5 -49.5q-160 0 -264.5 95.5t-104.5 237.5zM739 248q54 54 54 100v123q-118 45 -246 45 q-124 0 -200.5 -50t-76.5 -134q0 -76 58.5 -131.5t160.5 -55.5q70 0 138 29t112 74z" />
<glyph unicode="&#x1eb0;" horiz-adv-x="1382" d="M434 2122h215l117 -226l-143 -45zM797 1825h125q0 -107 -70 -178.5t-174 -71.5t-174 71.5t-70 178.5h125q0 -58 36 -102t83 -44q45 0 79 41.5t40 104.5zM584 1454h217l565 -1454h-242l-153 395h-561l-152 -395h-244zM926 565l-234 637l-241 -637h475z" />
<glyph unicode="&#x1eb1;" horiz-adv-x="1155" d="M293 1743h215l117 -225l-144 -45zM655 1446h125q0 -107 -69.5 -178.5t-173.5 -71.5t-174 71.5t-70 178.5h125q0 -58 36 -102t83 -44q44 0 78 41.5t40 104.5zM57 313q0 153 127 246.5t330 93.5q163 0 279 -43v68q0 113 -69 176.5t-194 63.5q-86 0 -166 -30t-174 -91 l-75 151q213 142 440 142q217 0 340 -114.5t123 -322.5v-399q0 -38 13.5 -55.5t45.5 -18.5v-180q-54 -10 -96 -10q-68 0 -106.5 33t-45.5 83l-6 62q-69 -89 -176.5 -138.5t-220.5 -49.5q-160 0 -264.5 95.5t-104.5 237.5zM739 248q54 54 54 100v123q-118 45 -246 45 q-124 0 -200.5 -50t-76.5 -134q0 -76 58.5 -131.5t160.5 -55.5q70 0 138 29t112 74z" />
<glyph unicode="&#x1eb2;" horiz-adv-x="1382" d="M551 1993l-76 73q90 84 193 84q73 0 114 -41.5t41 -101.5q0 -95 -123 -195l-59 68q64 53 64 102q0 25 -16 41.5t-42 16.5t-46 -10t-50 -37zM813 1833h125q0 -107 -70 -178.5t-174 -71.5t-173.5 71.5t-69.5 178.5h124q0 -58 36 -101.5t83 -43.5q45 0 79 41t40 104z M584 1454h217l565 -1454h-242l-153 395h-561l-152 -395h-244zM926 565l-234 637l-241 -637h475z" />
<glyph unicode="&#x1eb3;" horiz-adv-x="1155" d="M410 1614l-76 74q90 84 192 84q73 0 114.5 -42t41.5 -102q0 -49 -29 -95t-94 -99l-59 67q63 52 63 103q0 25 -15.5 41t-41.5 16t-46 -10t-50 -37zM672 1454h125q0 -107 -70 -178.5t-174 -71.5t-174 71.5t-70 178.5h125q0 -58 36 -101.5t83 -43.5q45 0 79 41t40 104z M57 313q0 153 127 246.5t330 93.5q163 0 279 -43v68q0 113 -69 176.5t-194 63.5q-86 0 -166 -30t-174 -91l-75 151q213 142 440 142q217 0 340 -114.5t123 -322.5v-399q0 -38 13.5 -55.5t45.5 -18.5v-180q-54 -10 -96 -10q-68 0 -106.5 33t-45.5 83l-6 62 q-69 -89 -176.5 -138.5t-220.5 -49.5q-160 0 -264.5 95.5t-104.5 237.5zM739 248q54 54 54 100v123q-118 45 -246 45q-124 0 -200.5 -50t-76.5 -134q0 -76 58.5 -131.5t160.5 -55.5q70 0 138 29t112 74z" />
</font>
</defs>
</svg>
