<?xml version="1.0" standalone="no"?>
<!DOCTYPE svg PUBLIC "-//W3C//DTD SVG 1.1//EN" "http://www.w3.org/Graphics/SVG/1.1/DTD/svg11.dtd" >
<svg xmlns="http://www.w3.org/2000/svg" xmlns:xlink="http://www.w3.org/1999/xlink" version="1.1">
<metadata></metadata>
<defs>
<font id="rawlinesemibold_italic" horiz-adv-x="1259" >
<font-face units-per-em="2048" ascent="1638" descent="-410" />
<missing-glyph horiz-adv-x="495" />
<glyph unicode="fi" horiz-adv-x="1081" d="M240 870h-134l37 174h136l8 43q17 84 60 161t105 137t147 95.5t179 35.5q180 0 328 -119l-127 -168q-38 42 -98 68t-129 26q-92 0 -154.5 -67t-83.5 -162l-10 -50h536l-223 -1044h-225l184 870h-311l-184 -870h-226z" />
<glyph unicode="fl" horiz-adv-x="1245" d="M682 158q0 16 10 78l187 862q10 72 10 82q0 64 -33.5 103.5t-107.5 39.5q-94 0 -153.5 -68t-84.5 -184l-6 -27h180l-35 -174h-184l-184 -870h-226l185 870h-134l37 174h136l12 62q43 193 171.5 301.5t319.5 108.5q172 0 257 -73t85 -202q0 -47 -12 -96l-176 -836 q-4 -20 -4 -35q0 -37 18.5 -62.5t57.5 -25.5q13 0 30.5 3t32.5 7t28.5 7.5t22.5 6.5l8 3l-10 -182q-3 -4 -37 -14.5t-92 -20.5t-108 -10q-95 0 -148 48t-53 124z" />
<glyph unicode="&#xd;" horiz-adv-x="0" />
<glyph unicode=" "  horiz-adv-x="495" />
<glyph unicode="&#x09;" horiz-adv-x="495" />
<glyph unicode="&#xa0;" horiz-adv-x="495" />
<glyph unicode="!" horiz-adv-x="561" d="M147 518l201 950h225l-200 -950h-226zM37 0l59 281h226l-60 -281h-225z" />
<glyph unicode="&#x22;" horiz-adv-x="718" d="M211 1026l96 451h193l-97 -451h-192zM483 1026l97 451h192l-96 -451h-193z" />
<glyph unicode="#" horiz-adv-x="1388" d="M1372 893h-274l-140 -324h254l-34 -172h-297l-176 -397h-183l176 397h-268l-176 -397h-184l178 397h-219l37 172h260l139 324h-242l35 160h281l178 401h182l-178 -401h270l176 401h183l-179 -401h236zM776 569l139 324h-268l-139 -324h268z" />
<glyph unicode="$" horiz-adv-x="1234" d="M743 825q92 -25 155.5 -51.5t116 -66t78 -95.5t25.5 -129q0 -98 -31 -179.5t-84.5 -138t-127 -96.5t-157.5 -60t-177 -23l-45 -215h-105l47 217q-283 22 -461 194l150 197q36 -55 140 -112.5t229 -69.5l90 421q-7 2 -24 7.5t-27 7.5q-172 50 -253 120t-81 191 q0 113 43.5 208t119 160t174.5 103.5t212 46.5l45 207h104l-45 -207q230 -14 389 -162l-143 -188q-28 47 -115.5 92.5t-189.5 52.5l-90 -421q6 -2 19 -5.5t19 -5.5zM455 1022q0 -61 43.5 -98t138.5 -68l86 404q-132 -9 -200 -72.5t-68 -165.5zM569 193q139 3 215 61t76 160 q0 65 -50.5 106t-154.5 76z" />
<glyph unicode="%" horiz-adv-x="1499" d="M186 1118q0 94 55 177t143.5 131.5t184.5 48.5q114 0 185 -72t71 -180q0 -94 -55 -177t-144 -131.5t-186 -48.5q-112 0 -183 72.5t-71 179.5zM53 82l692 682l662 702l86 -92l-680 -674l-674 -712zM664 1208q0 64 -33.5 107t-85.5 43q-73 0 -135 -70t-62 -155 q0 -64 32.5 -107t84.5 -43q74 0 136.5 69t62.5 156zM723 231q0 94 55 177t143.5 131.5t184.5 48.5q113 0 183.5 -72t70.5 -180q0 -94 -54.5 -177t-143 -131t-185.5 -48q-112 0 -183 72t-71 179zM1200 322q0 63 -34.5 106t-86.5 43q-73 0 -134.5 -69t-61.5 -156 q0 -64 33 -107t85 -43q73 0 136 70t63 156z" />
<glyph unicode="&#x26;" horiz-adv-x="1400" d="M1325 684h-184q-61 -189 -162 -336l242 -348h-285l-115 168q-207 -188 -432 -188q-161 0 -258.5 98.5t-97.5 247.5q0 65 20 125t51 105.5t80.5 92t96 80t110.5 74.5q-104 162 -104 278q0 108 61.5 198.5t163.5 142t219 51.5q118 0 208.5 -62t129.5 -176l-156 -109 q-26 80 -84 129.5t-127 49.5q-82 0 -143 -56t-61 -131q0 -42 27.5 -100t97.5 -158l251 -360q86 162 115 352h367zM442 156q148 0 291 143l-246 360q-118 -74 -176.5 -146t-58.5 -163t53.5 -142.5t136.5 -51.5z" />
<glyph unicode="'" horiz-adv-x="448" d="M211 1024l96 453h193l-97 -453h-192z" />
<glyph unicode="(" horiz-adv-x="595" d="M561 1536l156 -74q-76 -94 -144.5 -195.5t-135.5 -223.5t-106.5 -250.5t-39.5 -239.5q0 -129 28.5 -280t79.5 -285l-184 -84q-62 145 -98.5 313t-36.5 320q0 105 26 211t64.5 195.5t107 198.5t129 191.5t154.5 202.5z" />
<glyph unicode=")" horiz-adv-x="593" d="M78 -96l-150 84q98 123 167 224t128.5 213t89 222.5t29.5 220.5q0 153 -33 325t-71 269l188 74q131 -366 131 -651q0 -128 -36.5 -256.5t-107.5 -254t-148.5 -233.5t-186.5 -237z" />
<glyph unicode="*" horiz-adv-x="673" d="M258 1085l117 138l-125 45l53 102l125 -59l25 155h122l-40 -155l153 59l8 -102l-145 -45l59 -138l-102 -61l-55 145l-119 -145z" />
<glyph unicode="+" horiz-adv-x="862" d="M778 817v-180h-225v-248h-205v248h-227v180h227v248h205v-248h225z" />
<glyph unicode="," horiz-adv-x="446" d="M-23 -199l93 211h-72l51 250h201l-51 -250l-117 -211h-105z" />
<glyph unicode="-" horiz-adv-x="827" d="M88 459l43 203h584l-43 -203h-584z" />
<glyph unicode="." horiz-adv-x="434" d="M-6 0l55 262h189l-58 -262h-186z" />
<glyph unicode="/" horiz-adv-x="1349" d="M1456 1454l-1259 -1454h-250l1259 1454h250z" />
<glyph unicode="0" horiz-adv-x="1216" d="M88 457q0 155 54 298t143 245t207.5 162.5t244.5 60.5q176 0 281.5 -133.5t105.5 -346.5q0 -155 -54.5 -297.5t-144 -243.5t-208.5 -161.5t-244 -60.5q-176 0 -280.5 132.5t-104.5 344.5zM893 719q0 133 -54 214t-145 81q-101 0 -188.5 -72t-139 -195t-51.5 -266 q0 -134 53.5 -213.5t147.5 -79.5q98 0 185 71t139.5 194t52.5 266z" />
<glyph unicode="1" horiz-adv-x="931" d="M47 203h277l151 715q-46 -49 -161 -101.5t-189 -52.5l45 211q48 0 130.5 41t146.5 86.5t79 66.5h232l-205 -966h248l-43 -203h-756z" />
<glyph unicode="2" horiz-adv-x="1083" d="M377 532q36 19 90.5 46t85.5 42.5t72 38.5t63.5 41.5t44.5 42t31.5 49.5t9.5 56q0 61 -44 102t-126 41q-91 0 -167.5 -45.5t-149.5 -116.5l-109 166q33 28 78.5 57t112 62.5t151 54.5t168.5 21q161 0 251.5 -77.5t90.5 -201.5q0 -39 -8.5 -75t-20.5 -65.5t-34.5 -59 t-41 -50.5t-50.5 -45.5t-52 -38.5t-56 -35t-53 -30t-52 -27q-286 -139 -355 -282h598l-43 -203h-909q39 185 130.5 306.5t293.5 225.5z" />
<glyph unicode="3" horiz-adv-x="1081" d="M-86 -90l168 156q66 -162 268 -162q151 0 235.5 74t84.5 208q0 94 -66 147.5t-192 53.5h-54l39 176h58q145 0 233 76.5t88 191.5q0 72 -49.5 111t-134.5 39q-95 0 -180 -45t-148 -129l-106 154q77 98 214.5 158.5t286.5 60.5q168 0 266.5 -81.5t98.5 -217.5 q0 -139 -95.5 -257t-230.5 -141q96 -19 150.5 -96t54.5 -188q0 -220 -166 -360t-424 -140q-147 0 -249 54.5t-150 156.5z" />
<glyph unicode="4" horiz-adv-x="1118" d="M526 66h-589l43 200l854 903h153l-192 -899h172l-43 -204h-172l-70 -326h-225zM594 270l119 555l-504 -555h385z" />
<glyph unicode="5" horiz-adv-x="1087" d="M-76 -43l160 129q36 -87 109.5 -139.5t166.5 -52.5q137 0 237.5 99t100.5 243q0 97 -55 157t-147 60q-72 0 -142.5 -35.5t-120.5 -98.5h-198q18 43 169.5 428t168.5 422h678l-45 -206h-512l-152 -398q84 84 225 84q165 0 266 -104t101 -271q0 -99 -32.5 -189t-91 -160 t-135.5 -122.5t-169 -80t-189 -27.5q-148 0 -252.5 70.5t-140.5 191.5z" />
<glyph unicode="6" horiz-adv-x="1210" d="M1104 571q0 173 -107.5 286.5t-279.5 113.5q-105 0 -201 -53.5t-158 -145.5q54 233 166 364.5t254 131.5q93 0 160.5 -50t93.5 -137l162 140q-46 116 -142.5 179.5t-226.5 63.5q-159 0 -297 -81.5t-233 -219t-149 -323t-54 -389.5q0 -221 103.5 -346t289.5 -125 q159 0 302 80.5t230 217.5t87 293zM303 428q0 143 109.5 253t244.5 110q100 0 164 -72.5t64 -179.5q0 -94 -53 -180t-135.5 -136.5t-168.5 -50.5q-98 0 -161.5 74t-63.5 182z" />
<glyph unicode="7" horiz-adv-x="1085" d="M791 987h-660l43 207h1016l-1000 -1454h-253z" />
<glyph unicode="8" horiz-adv-x="1185" d="M45 354q0 63 20 122t51.5 104.5t74 85t85 66.5t86.5 46q-58 31 -95.5 95t-37.5 139q0 81 34 153t90 123.5t126.5 89.5t145.5 57t145 19q96 0 181 -36.5t141.5 -113t56.5 -178.5q0 -114 -77 -207.5t-185 -140.5q73 -39 120.5 -116.5t47.5 -174.5q0 -108 -51 -203.5 t-134.5 -160t-192 -102t-222.5 -37.5q-181 0 -295.5 104t-114.5 266zM915 1092q0 73 -54 117t-134 44q-105 0 -187.5 -66t-82.5 -167q0 -75 56 -119.5t130 -44.5q61 0 122 26.5t105.5 82t44.5 127.5zM827 479q0 93 -65.5 149t-157.5 56q-78 0 -151.5 -36.5t-122.5 -105.5 t-49 -151q0 -91 65.5 -148t155.5 -57q121 0 223 85t102 208z" />
<glyph unicode="9" horiz-adv-x="1175" d="M1083 698q0 221 -104 346t-289 125q-159 0 -301.5 -80.5t-229.5 -217.5t-87 -293q0 -173 107.5 -286.5t279.5 -113.5q106 0 201 53.5t157 145.5q-54 -233 -166 -364.5t-254 -131.5q-93 0 -161 50t-93 137l-161 -140q46 -116 142 -179.5t228 -63.5q158 0 295.5 81.5 t232.5 219t149 323t54 389.5zM289 610q0 94 53 180t136 136.5t169 50.5q98 0 161.5 -74t63.5 -182q0 -143 -109.5 -253t-246.5 -110q-99 0 -163 72.5t-64 179.5z" />
<glyph unicode=":" horiz-adv-x="450" d="M170 801l55 260h187l-56 -260h-186zM0 0l57 262h185l-56 -262h-186z" />
<glyph unicode=";" horiz-adv-x="456" d="M172 801l55 260h185l-56 -260h-184zM-16 -199l92 211h-72l51 250h201l-53 -250l-115 -211h-104z" />
<glyph unicode="&#x3c;" horiz-adv-x="1124" d="M61 582l861 520v-240l-535 -332l535 -323v-250l-861 512v113z" />
<glyph unicode="=" horiz-adv-x="987" d="M164 649v150h633v-150h-633zM164 332v149h633v-149h-633z" />
<glyph unicode="&#x3e;" horiz-adv-x="1122" d="M1024 469l-862 -512v250l534 323l-534 332v240l862 -520v-113z" />
<glyph unicode="?" horiz-adv-x="954" d="M223 453q25 113 77.5 192.5t154.5 136.5q18 10 60.5 32.5t65.5 36t59.5 37t56.5 45t42 50.5t31.5 64t9.5 75q0 77 -48 121.5t-120 44.5q-83 0 -159 -52t-129 -128l-127 100q77 124 202.5 194.5t259.5 70.5q88 0 160 -32.5t119 -106t47 -177.5q0 -73 -17 -133.5t-42 -102 t-69 -80t-82.5 -62.5t-98.5 -56q-7 -4 -41.5 -22t-44 -23.5t-38 -23.5t-39.5 -28.5t-32 -31.5t-31 -39.5t-21 -45t-17 -56.5h-189zM131 0l55 258h187l-54 -258h-188z" />
<glyph unicode="@" horiz-adv-x="1660" d="M1440 614q0 104 -33.5 198t-96.5 168t-162.5 117.5t-221.5 43.5q-147 0 -289 -63t-250.5 -169.5t-175 -257.5t-66.5 -315q0 -156 58 -278t170.5 -192.5t261.5 -70.5q131 0 315 78l11 -90q-174 -82 -347 -82q-254 0 -411.5 172t-157.5 453q0 155 51.5 298t140.5 252.5 t204 191t246.5 124.5t262.5 43q136 0 249 -48t186.5 -129.5t114 -189t40.5 -227.5q0 -72 -13.5 -157.5t-45.5 -178t-77 -167t-114.5 -123t-152.5 -48.5q-67 0 -107.5 33t-40.5 102q0 27 4 41q-72 -69 -160 -108t-176 -39q-148 0 -236.5 107.5t-88.5 269.5q0 109 42.5 214 t111.5 182.5t162 125t188 47.5q102 0 171 -51.5t97 -134.5l33 166h127l-148 -703q-8 -36 -8 -67q0 -78 66 -78q58 0 109.5 54.5t84.5 137t52.5 175.5t19.5 173zM1010 336l45 272q-26 100 -86.5 153.5t-139.5 53.5q-62 0 -125.5 -33t-114 -87.5t-82.5 -132.5t-32 -161 q0 -124 68 -205t172 -81q92 0 175.5 64t119.5 157z" />
<glyph unicode="A" horiz-adv-x="1329" d="M748 1454h202l234 -1454h-242l-57 395h-523l-223 -395h-241zM877 565l-82 625l-357 -625h439z" />
<glyph unicode="B" horiz-adv-x="1333" d="M340 1454h719q115 0 180.5 -87.5t65.5 -209.5q0 -129 -77.5 -244t-203.5 -168q90 -31 139 -107t49 -183q0 -103 -43.5 -190t-116 -144t-165.5 -89t-193 -32h-663zM827 827q93 0 164.5 77.5t71.5 185.5q0 73 -36 119t-95 46h-404l-92 -428h391zM735 199q97 0 173.5 80 t76.5 186q0 74 -39 126t-102 52h-447l-92 -444h430z" />
<glyph unicode="C" horiz-adv-x="1341" d="M84 596q0 154 60.5 307.5t166 278t263.5 202.5t337 78q193 0 314.5 -87t160.5 -230l-194 -117q-61 227 -318 227q-108 0 -200.5 -39t-156.5 -103t-109.5 -147.5t-67 -172t-21.5 -175.5q0 -117 39 -212t118 -153t186 -58q111 0 221 60t184 179l168 -108 q-101 -162 -274 -250t-345 -88q-127 0 -230 51.5t-168 137.5t-99.5 194t-34.5 225z" />
<glyph unicode="D" horiz-adv-x="1417" d="M340 1454h494q136 0 241 -43t170 -119.5t98 -177.5t33 -221q0 -190 -65 -356t-178 -284t-271 -185.5t-338 -67.5h-493zM567 203q127 0 235.5 53.5t181.5 144t114 209t41 248.5q0 177 -90.5 285t-257.5 108h-263l-223 -1048h262z" />
<glyph unicode="E" horiz-adv-x="1185" d="M340 1454h932l-43 -203h-701l-88 -413h607l-39 -191h-609l-94 -444h719l-43 -203h-950z" />
<glyph unicode="F" horiz-adv-x="1148" d="M340 1454h922l-43 -203h-691l-92 -434h578l-41 -190h-578l-133 -627h-231z" />
<glyph unicode="G" horiz-adv-x="1415" d="M831 565l37 170h478l-156 -735h-193l39 180q-214 -190 -438 -190q-152 0 -271 82.5t-181 219.5t-62 302q0 167 70.5 327.5t185 279t268 191t312.5 72.5q191 0 310.5 -84.5t160.5 -232.5l-201 -127q-32 116 -116.5 176.5t-205.5 60.5q-144 0 -272 -93.5t-202.5 -242.5 t-74.5 -309q0 -178 93.5 -296.5t246.5 -118.5q214 0 426 215l33 153h-287z" />
<glyph unicode="H" horiz-adv-x="1464" d="M340 1454h231l-129 -608h680l129 608h230l-310 -1454h-229l137 641h-680l-137 -641h-231z" />
<glyph unicode="I" horiz-adv-x="555" d="M340 1452h231l-309 -1452h-231z" />
<glyph unicode="J" horiz-adv-x="972" d="M-84 68l94 188q30 -28 91.5 -50t138.5 -22q58 0 104 14t82 46.5t62.5 72.5t50 105.5t41 131t38.5 161.5l158 737h230l-158 -737q-22 -104 -42.5 -181t-50.5 -158t-64 -138t-82.5 -109t-106.5 -83.5t-135 -50t-170 -18.5q-173 0 -281 91z" />
<glyph unicode="K" horiz-adv-x="1298" d="M340 1452h231l-159 -747l790 749h256l-678 -643l400 -811h-258l-316 670l-252 -232l-92 -438h-231z" />
<glyph unicode="L" horiz-adv-x="1146" d="M340 1454h231l-266 -1251h731l-43 -203h-962z" />
<glyph unicode="M" horiz-adv-x="1708" d="M340 1454h246l258 -889l637 889h243l-309 -1454h-231l223 1047l-565 -793h-127l-230 793l-223 -1047h-231z" />
<glyph unicode="N" horiz-adv-x="1507" d="M340 1454h180l551 -1048l221 1046h232l-310 -1452h-188l-547 1024l-217 -1024h-231z" />
<glyph unicode="O" horiz-adv-x="1484" d="M84 592q0 162 71 322t186 280.5t270 195t315 74.5q99 0 183.5 -33t145.5 -90.5t104.5 -134.5t65 -165.5t21.5 -182.5q0 -161 -70.5 -320t-184.5 -279t-269 -194.5t-314 -74.5q-123 0 -224 49.5t-165.5 133.5t-99.5 192t-35 227zM1210 842q0 113 -36.5 205t-113 150 t-181.5 58q-115 0 -221 -58.5t-179 -150.5t-116.5 -207.5t-43.5 -228.5t36.5 -205t113.5 -150t184 -58q115 0 220.5 59t178 151.5t115.5 207.5t43 227z" />
<glyph unicode="P" horiz-adv-x="1230" d="M340 1454h582q103 0 183 -57t119.5 -145.5t39.5 -190.5q0 -79 -27.5 -160t-77.5 -151t-115.5 -125.5t-147.5 -87t-167 -31.5h-360l-107 -506h-231zM760 709q106 0 186 100t80 233q0 93 -46.5 151t-117.5 58h-334l-116 -542h348z" />
<glyph unicode="Q" horiz-adv-x="1482" d="M1446 858q0 -178 -82.5 -348.5t-222.5 -298.5l135 -211h-223l-64 100q-184 -110 -381 -110q-123 0 -224 49.5t-166 133.5t-100.5 192t-35.5 227q0 130 45.5 260t126.5 238.5t186 193.5t231.5 132.5t254.5 47.5q98 0 182.5 -33t146 -90.5t105 -134.5t65 -165.5 t21.5 -182.5zM653 197q123 0 234 65l-154 244h219l78 -123q85 95 132.5 217t47.5 242q0 113 -36.5 205.5t-113.5 151t-183 58.5q-92 0 -179 -38t-154.5 -103t-119 -147t-78.5 -175.5t-27 -183.5q0 -113 36.5 -205t113.5 -150t184 -58z" />
<glyph unicode="R" horiz-adv-x="1304" d="M31 0l309 1454h604q154 0 247 -117t93 -276q0 -164 -105.5 -310.5t-260.5 -197.5l204 -553h-260l-188 506h-305l-107 -506h-231zM782 709q103 0 184 101.5t81 225.5q0 91 -45.5 153t-114.5 62h-359l-116 -542h370z" />
<glyph unicode="S" horiz-adv-x="1208" d="M-35 182l150 197q40 -64 163 -125t267 -61q145 0 224 58.5t79 162.5q0 35 -16 63.5t-41 49t-70.5 40.5t-88 33.5t-110.5 32.5q-172 50 -253 120t-81 191q0 159 84.5 279t221 180.5t301.5 60.5q134 0 245.5 -45t190.5 -119l-144 -188q-30 51 -129.5 99.5t-212.5 48.5 q-150 0 -227.5 -64.5t-77.5 -173.5q0 -32 13 -57.5t34 -44t61 -36t79.5 -30t103.5 -29.5q92 -25 155.5 -51.5t116 -66t78 -95.5t25.5 -129q0 -125 -50 -222.5t-136 -156.5t-193 -88.5t-229 -29.5q-158 0 -296.5 50.5t-236.5 145.5z" />
<glyph unicode="T" horiz-adv-x="1206" d="M621 1251h-455l43 203h1141l-43 -203h-455l-266 -1251h-230z" />
<glyph unicode="U" horiz-adv-x="1478" d="M135 477q0 108 29 240l155 737h232l-158 -737q-22 -110 -22 -199q0 -71 14.5 -127.5t46.5 -101t87 -68.5t130 -24q82 0 153 29.5t122.5 78.5t92.5 117t67.5 140.5t43.5 154.5l156 737h232l-158 -737q-26 -122 -69.5 -228.5t-109 -199t-148.5 -158.5t-191.5 -103.5 t-233.5 -37.5t-218 37t-147 105t-80 153.5t-26 191.5z" />
<glyph unicode="V" horiz-adv-x="1327" d="M186 1454h244l158 -1165l651 1165h244l-858 -1454h-197z" />
<glyph unicode="W" horiz-adv-x="2052" d="M180 1454h248l170 -1188l313 535l-98 647h215l62 -494l272 494h215l-373 -647l84 -535l674 1188h252l-879 -1454h-194l-115 651l-393 -651h-195z" />
<glyph unicode="X" d="M528 717l-348 737h254l252 -573l496 573h252l-660 -737l334 -717h-252l-240 553l-475 -553h-254z" />
<glyph unicode="Y" d="M485 524l-311 930h252l217 -729l533 729h249l-710 -934l-111 -520h-231z" />
<glyph unicode="Z" horiz-adv-x="1224" d="M-33 176l1053 1075h-803l43 203h1071l-37 -176l-1032 -1075h805l-43 -203h-1096z" />
<glyph unicode="[" horiz-adv-x="577" d="M12 -82l340 1598h326l-37 -183h-121l-262 -1233h121l-39 -182h-328z" />
<glyph unicode="\" horiz-adv-x="1185" d="M473 1454l537 -1454h-250l-539 1454h252z" />
<glyph unicode="]" horiz-adv-x="579" d="M-57 -82l39 182h118l262 1233h-118l39 183h327l-338 -1598h-329z" />
<glyph unicode="^" horiz-adv-x="1171" d="M100 621l406 833h190l404 -833h-189l-309 639l-317 -639h-185z" />
<glyph unicode="_" horiz-adv-x="962" d="M-55 -203l43 203h721l-43 -203h-721z" />
<glyph unicode="`" horiz-adv-x="528" d="M307 1495h211l64 -225l-158 -39z" />
<glyph unicode="a" d="M39 422q0 128 49 251t129 214t189 147t223 56q113 0 193 -61.5t114 -160.5l43 201h227l-172 -803q-4 -24 -4 -30q0 -22 11 -31.5t36 -11.5l-41 -193q-65 -10 -92 -10q-64 0 -98.5 27.5t-34.5 78.5q0 33 14 99q-76 -101 -186.5 -158t-218.5 -57q-175 0 -278 126t-103 316z M836 385l57 281q-12 97 -81 164t-155 67q-99 0 -188.5 -65t-141 -166t-51.5 -207q0 -124 66 -205.5t176 -81.5q84 0 179.5 62t138.5 151z" />
<glyph unicode="b" horiz-adv-x="1239" d="M240 195l-41 -195h-199l317 1495h226l-131 -627q81 103 185 162.5t216 59.5q111 0 192.5 -61t120.5 -158t39 -216q0 -134 -51.5 -259.5t-135.5 -216t-195 -145t-226 -54.5q-120 0 -201 57.5t-116 157.5zM928 612q0 120 -60.5 202.5t-165.5 82.5q-90 0 -180 -65.5 t-153 -165.5l-62 -283q6 -90 74 -150.5t164 -60.5q72 0 142.5 37t123 97t85 141t32.5 165z" />
<glyph unicode="c" horiz-adv-x="1097" d="M39 432q0 101 31.5 198.5t90.5 180t138.5 145.5t181.5 98.5t213 35.5q160 0 260 -71.5t133 -195.5l-233 -69q-22 70 -73.5 106.5t-125.5 36.5q-98 0 -186 -58t-142.5 -159.5t-54.5 -220.5q0 -125 64 -206t166 -81q76 0 152.5 42.5t111.5 104.5l207 -65 q-76 -122 -213 -198t-293 -76q-135 0 -233.5 62t-146.5 163t-48 227z" />
<glyph unicode="d" horiz-adv-x="1257" d="M39 422q0 128 49 251t129 214t189 147t223 56q113 0 193 -61.5t114 -160.5l133 627h227l-262 -1229q-4 -24 -4 -30q0 -22 11 -31.5t36 -11.5l-41 -193q-65 -10 -92 -10q-63 0 -99 27.5t-36 76.5q0 33 16 101q-76 -101 -186.5 -158t-218.5 -57q-175 0 -278 126t-103 316z M836 385l57 281q-12 97 -81 164t-155 67q-99 0 -188.5 -65t-141 -166t-51.5 -207q0 -124 66 -205.5t176 -81.5q84 0 179.5 62t138.5 151z" />
<glyph unicode="e" horiz-adv-x="1116" d="M469 459q-101 0 -197 8q-2 -14 -2 -39q0 -126 60 -204.5t178 -78.5q88 0 170 44.5t129 119.5l178 -55q-79 -122 -220.5 -198t-295.5 -76q-198 0 -313 127t-115 325q0 129 51 249.5t137.5 210.5t210 144t260.5 54q170 0 269.5 -76.5t99.5 -218.5q0 -336 -600 -336z M676 924q-140 0 -236 -88t-139 -224q92 -6 172 -6q387 0 387 182q0 67 -48.5 101.5t-135.5 34.5z" />
<glyph unicode="f" horiz-adv-x="710" d="M240 870h-134l37 174h136l8 43q39 197 154.5 313t267.5 116q119 0 225 -66l-84 -168q-57 43 -135 43q-73 0 -124.5 -59t-76.5 -172l-10 -50h258l-39 -174h-258l-277 -1304h-225z" />
<glyph unicode="g" horiz-adv-x="1239" d="M-90 -227l151 118q39 -85 120.5 -130.5t187.5 -45.5q139 0 247 80.5t142 235.5l33 164q-71 -95 -177.5 -150t-212.5 -55q-111 0 -194.5 60t-125.5 157t-42 215q0 129 49.5 251.5t131 214t193.5 147t232 55.5q117 0 196.5 -59.5t121.5 -162.5l43 203h198l-221 -1040 q-32 -151 -128 -263t-230.5 -168.5t-290.5 -56.5q-163 0 -264.5 58.5t-159.5 171.5zM831 385l62 281q-15 101 -83.5 166t-156.5 65q-101 0 -190.5 -67t-140 -168t-50.5 -203q0 -122 67.5 -204.5t174.5 -82.5q92 0 183.5 63t133.5 150z" />
<glyph unicode="h" horiz-adv-x="1175" d="M317 1495h226l-135 -639q82 109 195 171.5t231 62.5q247 0 247 -261q0 -89 -20 -176l-137 -653h-226l127 600q15 84 15 121q0 84 -36.5 126t-105.5 42q-86 0 -184.5 -72t-151.5 -180l-137 -637h-225z" />
<glyph unicode="i" horiz-adv-x="489" d="M317 1495h226l-51 -248h-226zM229 1071h226l-230 -1071h-225z" />
<glyph unicode="j" horiz-adv-x="501" d="M330 1495h225l-53 -248h-226zM-414 -299l131 152q39 -48 113 -48q57 0 109 45t65 111l236 1110h225l-232 -1094q-35 -160 -155.5 -264t-261.5 -104q-153 0 -230 92z" />
<glyph unicode="k" horiz-adv-x="1128" d="M1073 864q0 -133 -85 -245.5t-243 -182.5l220 -436h-242l-231 504q177 38 276.5 123t99.5 182q0 92 -94 92q-121 0 -251 -123t-195 -297l-103 -481h-225l317 1495h226l-150 -702q212 294 461 294q108 0 163.5 -59.5t55.5 -163.5z" />
<glyph unicode="l" horiz-adv-x="602" d="M43 158q0 36 8 69l268 1268h224l-250 -1186q-6 -21 -6 -41q0 -40 23.5 -63t64.5 -23t112 27l-8 -176q-52 -22 -120 -35.5t-121 -13.5q-94 0 -144.5 45.5t-50.5 128.5z" />
<glyph unicode="m" horiz-adv-x="1816" d="M229 1071h203l-45 -215q78 109 191.5 171.5t232.5 62.5q120 0 181.5 -63.5t66.5 -180.5q90 119 199 181.5t229 62.5q239 0 239 -256q0 -68 -22 -181l-139 -653h-226l127 600q17 83 17 129q0 160 -131 160q-87 0 -176.5 -71t-147.5 -183l-133 -635h-225l127 600 q16 68 16 131q0 158 -129 158q-88 0 -177.5 -70t-144.5 -182l-137 -637h-225z" />
<glyph unicode="n" horiz-adv-x="1175" d="M229 1071h203l-45 -215q80 108 204 171t257 63q237 0 237 -250q0 -74 -24 -187l-137 -653h-226l127 600q17 87 17 131q0 158 -131 158q-91 0 -192.5 -72.5t-156.5 -179.5l-137 -637h-225z" />
<glyph unicode="o" horiz-adv-x="1191" d="M39 432q0 176 84 327t232 241t325 90q109 0 194 -35.5t137.5 -97.5t79.5 -143.5t27 -176.5q0 -131 -49.5 -251.5t-134.5 -210t-205.5 -142.5t-255.5 -53q-108 0 -192.5 35t-136.5 97.5t-78.5 143t-26.5 176.5zM883 606q0 131 -62 211t-176 80q-95 0 -180.5 -56.5 t-139 -158t-53.5 -221.5q0 -131 62.5 -210t175.5 -79q149 0 261 125.5t112 308.5z" />
<glyph unicode="p" horiz-adv-x="1241" d="M227 1071h199l-41 -192q82 98 187.5 154.5t218.5 56.5q170 0 272 -128t102 -317q0 -127 -48 -249.5t-126.5 -213.5t-186.5 -146.5t-222 -55.5q-118 0 -199.5 60t-114.5 161l-135 -637h-225zM930 610q0 123 -66 205t-176 82q-84 0 -178.5 -62t-136.5 -149l-62 -280 q19 -101 84 -167.5t154 -66.5q99 0 188.5 65t141 166t51.5 207z" />
<glyph unicode="q" horiz-adv-x="1239" d="M793 201q-172 -221 -406 -221q-107 0 -187.5 59t-120.5 156.5t-40 218.5q0 133 52 259t136 216.5t195.5 145.5t226.5 55t197.5 -58t118.5 -155l41 194h198l-321 -1507h-226zM831 377l60 282q-3 97 -70 167.5t-159 70.5q-98 0 -188.5 -64.5t-145 -167.5t-54.5 -212 q0 -121 63.5 -201t170.5 -80q172 0 323 205z" />
<glyph unicode="r" horiz-adv-x="749" d="M229 1071h209l-53 -240q80 112 178.5 179t192.5 67q29 0 53 -4l-43 -196q-123 -3 -230 -61.5t-171 -160.5l-140 -655h-225z" />
<glyph unicode="s" horiz-adv-x="976" d="M-51 141l121 144q150 -138 329 -138q104 0 168 45t64 119q0 21 -5 37t-19.5 29.5t-27.5 22.5t-43.5 20.5t-52 18t-67.5 20.5q-71 21 -113 36t-83 36t-61.5 44.5t-33 56t-12.5 75.5q0 166 135.5 274.5t335.5 108.5q231 0 366 -144l-125 -135q-110 113 -260 113 q-104 0 -167.5 -42.5t-63.5 -121.5q0 -54 36.5 -77.5t149.5 -55.5q181 -51 259.5 -110t78.5 -169q0 -159 -133.5 -263.5t-349.5 -104.5q-131 0 -243.5 42t-182.5 119z" />
<glyph unicode="t" horiz-adv-x="727" d="M96 160q0 34 8 67l144 670h-137l39 174h133l75 352h226l-76 -352h221l-37 -174h-219l-127 -598q-4 -20 -4 -31q0 -39 23 -58.5t61 -19.5q61 0 156 43l8 -178q-49 -30 -128 -50.5t-159 -20.5q-93 0 -150 44t-57 132z" />
<glyph unicode="u" horiz-adv-x="1200" d="M57 246q0 60 21 170l141 655h223l-131 -610q-14 -66 -14 -123q0 -166 141 -166q91 0 182.5 60.5t159.5 170.5l142 668h225l-170 -805q-6 -18 -6 -30q0 -40 47 -43l-39 -193q-68 -10 -94 -10q-63 0 -97 26t-34 76q0 30 18 125q-91 -116 -212 -176.5t-253 -60.5 q-124 0 -187 67.5t-63 198.5z" />
<glyph unicode="v" horiz-adv-x="1058" d="M109 1071h233l94 -881q163 236 270 448.5t168 432.5h211q-138 -503 -579 -1071h-240z" />
<glyph unicode="w" horiz-adv-x="1593" d="M94 1071h225l150 -870q113 155 209 313l-131 557h213l67 -340q82 162 140 340h196q-88 -283 -256 -551l70 -297q168 230 274 429t172 419h209q-155 -507 -610 -1071h-201l-67 324q-147 -216 -226 -324h-221z" />
<glyph unicode="x" horiz-adv-x="1026" d="M373 535l-256 536h233l164 -366l10 -35l25 35l319 366h234l-484 -536l261 -535h-236l-166 365l-12 32l-23 -32l-321 -365h-236z" />
<glyph unicode="y" horiz-adv-x="1044" d="M-82 -287q127 13 188 47.5t127 130.5l60 86l-193 1094h232l121 -872l69 114q150 244 222.5 407t117.5 351h221q-56 -199 -138 -367t-283 -493l-164 -264q-141 -227 -262.5 -317.5t-286.5 -92.5z" />
<glyph unicode="z" horiz-adv-x="962" d="M-45 141l756 770h-572l35 160h817l-30 -141l-752 -770h594l-35 -160h-844z" />
<glyph unicode="{" horiz-adv-x="583" d="M537 1333l-99 -459q-16 -77 -92 -137q37 -40 37 -104q0 -21 -2 -33l-102 -481h106l-37 -182h-266q-14 0 -24.5 9t-10.5 29q0 15 2 23l113 532q2 10 2 31q0 39 -18 65.5t-48 32.5l35 160q38 0 74.5 42t44.5 83l106 510q7 33 25.5 47.5t34.5 14.5h266l-41 -183h-106z" />
<glyph unicode="|" horiz-adv-x="643" d="M236 -266v1853h192v-1853h-192z" />
<glyph unicode="}" horiz-adv-x="585" d="M248 1333l39 183h264q12 0 23.5 -10t11.5 -33q0 -13 -2 -19l-109 -510q-4 -16 -4 -26q0 -38 18.5 -68.5t51.5 -30.5l-35 -160q-40 -8 -74.5 -44t-44.5 -85l-113 -532q-7 -32 -24.5 -46.5t-34.5 -14.5h-264l39 182h106l103 481q8 34 32.5 72t57.5 65q-35 44 -35 103 q0 22 4 34l96 459h-106z" />
<glyph unicode="~" horiz-adv-x="1083" d="M387 725q45 0 90.5 -17.5t76.5 -39t72 -39t79 -17.5q30 0 56.5 10.5t43 24.5t29 30t18 26t6.5 14h127q-2 -9 -13.5 -33t-37 -60.5t-59 -69t-85 -56t-108.5 -23.5q-46 0 -92 17.5t-77 39t-71 39t-75 17.5q-29 0 -55 -11.5t-42 -27t-27.5 -33t-16.5 -28.5t-5 -13h-129 q2 15 14 42t37 63.5t58 68.5t82.5 54t103.5 22z" />
<glyph unicode="&#xa1;" horiz-adv-x="559" d="M571 1460l-59 -280h-225l59 280h225zM461 942l-201 -950h-225l201 950h225z" />
<glyph unicode="&#xa2;" horiz-adv-x="1144" d="M362 -246l50 228q-108 9 -191 75.5t-124.5 165t-41.5 209.5q0 151 73 292t209.5 240.5t307.5 122.5l51 234h103l-49 -234q138 -4 230.5 -72.5t127.5 -191.5l-234 -69q-18 62 -61.5 96t-103.5 39l-152 -711q66 8 133.5 47t95.5 94l207 -65q-77 -126 -220.5 -200 t-258.5 -74l-47 -226h-105zM455 188l147 693q-129 -23 -221 -153.5t-92 -272.5q0 -97 45 -172t121 -95z" />
<glyph unicode="&#xa3;" horiz-adv-x="1038" d="M680 1280q-93 0 -161 -70.5t-68 -169.5q0 -37 8.5 -78.5t23 -98t21.5 -89.5h356l-37 -172h-307q-6 -105 -63 -198.5t-203 -227.5q94 23 149 23q51 0 133.5 -18.5t126.5 -18.5q59 0 162 35l19 -168q-114 -60 -232 -60q-59 0 -168 28t-172 28q-111 0 -245 -41l-17 161 q163 132 235 236t76 221h-206l34 172h152q-4 19 -20 82.5t-22.5 103.5t-6.5 80q0 113 68 212t177 155.5t228 56.5q115 0 205.5 -57.5t138.5 -157.5l-150 -139q-31 76 -96 123t-139 47z" />
<glyph unicode="&#xa4;" horiz-adv-x="1169" d="M379 1006q94 65 221 65q122 0 219 -65l144 145l98 -96l-143 -144q65 -97 65 -221q0 -121 -68 -221l146 -143l-88 -86l-150 139q-98 -68 -223 -68q-126 0 -227 68l-148 -139l-88 86l146 145q-66 97 -66 219q0 128 64 219l-144 146l99 96zM600 459q88 0 148.5 67t60.5 166 t-60.5 164.5t-148.5 65.5t-148.5 -66.5t-60.5 -167.5q0 -97 60.5 -163t148.5 -66z" />
<glyph unicode="&#xa5;" horiz-adv-x="1376" d="M977 797h151l-32 -150h-230l-96 -127l-12 -59h299l-31 -150h-301l-66 -311h-229l66 311h-295l32 150h295l15 63l-39 123h-232l33 150h152l-224 657h250l215 -729l531 729h254z" />
<glyph unicode="&#xa6;" horiz-adv-x="630" d="M422 1587v-817h-193v817h193zM422 551v-817h-193v817h193z" />
<glyph unicode="&#xa7;" horiz-adv-x="1036" d="M872 289q0 -95 -34.5 -175t-89 -133t-124 -90.5t-137.5 -54t-131 -16.5q-70 0 -133 19.5t-108 52.5t-75 65t-52 66l174 139q93 -127 229 -127q92 0 166 55.5t74 145.5q0 33 -13 55t-38.5 32.5t-48 15t-56.5 7.5q-159 11 -245.5 85.5t-86.5 201.5q0 119 84 225 q-43 50 -43 166q0 118 72 221t185 161t233 58q63 0 116 -15t88.5 -37t65.5 -55t47 -61t33 -63l-193 -82q-17 55 -67 84t-119 29q-91 0 -160 -58t-69 -149q0 -65 41.5 -92t117.5 -29q68 -2 127 -17t110.5 -45.5t81.5 -85t30 -126.5q0 -70 -29 -135.5t-64 -100.5 q41 -41 41 -137zM635 483q30 22 50 62.5t20 79.5q0 66 -48 97.5t-112 31.5q-82 0 -121 22q-26 -24 -45 -63t-19 -80q0 -53 33 -83t74 -36t93.5 -13t74.5 -18z" />
<glyph unicode="&#xa8;" horiz-adv-x="743" d="M256 1260l49 225h187l-48 -225h-188zM608 1260l47 225h187l-47 -225h-187z" />
<glyph unicode="&#xa9;" horiz-adv-x="1744" d="M129 727q0 156 58 293t158.5 234.5t242 153.5t303.5 56q163 0 306.5 -56t245.5 -153.5t161 -234.5t59 -293q0 -157 -59 -294.5t-161 -235.5t-245.5 -154.5t-306.5 -56.5q-162 0 -303.5 56.5t-242 154.5t-158.5 235.5t-58 294.5zM1565 723q0 183 -87 332t-241.5 234 t-345.5 85q-188 0 -340.5 -85t-239 -233.5t-86.5 -330.5q0 -181 86 -329.5t239 -234t341 -85.5t341.5 81t243 229.5t89.5 336.5zM406 727q0 93 31.5 178.5t90.5 154.5t155.5 110.5t215.5 41.5q153 0 266 -65.5t166 -183.5l-217 -70q-32 67 -91.5 96t-123.5 29 q-122 0 -193 -86t-71 -205q0 -131 83 -211t185 -80q67 0 129 34.5t90 94.5l219 -65q-44 -103 -160.5 -179.5t-273.5 -76.5q-215 0 -358 136.5t-143 346.5z" />
<glyph unicode="&#xaa;" horiz-adv-x="862" d="M143 887q0 120 100.5 199t245.5 79q97 0 166 -32l11 45q6 24 6 45q0 56 -33 85t-96 29q-100 0 -236 -82l-28 109q155 94 303 94q124 0 191 -55.5t67 -159.5q0 -29 -11 -86l-51 -242q-2 -8 -2 -20q0 -17 8.5 -24t28.5 -9l-33 -149q-36 -8 -69 -8q-101 0 -101 73q0 12 8 56 q-125 -134 -284 -134q-85 0 -138 53t-53 134zM614 948l19 88q-51 29 -135 29q-80 0 -134.5 -39.5t-54.5 -101.5q0 -42 28.5 -69.5t72.5 -27.5q64 0 129.5 37.5t74.5 83.5z" />
<glyph unicode="&#xab;" horiz-adv-x="1230" d="M72 582l585 379l-41 -187l-376 -244l274 -235l-39 -184l-428 358zM598 582l586 379l-39 -187l-377 -244l276 -235l-40 -184l-429 358z" />
<glyph unicode="&#xac;" horiz-adv-x="1187" d="M1087 793l-118 -562h-193l76 359h-731l43 203h923z" />
<glyph unicode="&#xad;" horiz-adv-x="1169" d="M88 459l43 203h926l-45 -203h-924z" />
<glyph unicode="&#xae;" horiz-adv-x="1744" d="M129 727q0 156 58 293t158.5 234.5t243 153.5t304.5 56q163 0 306 -56t244.5 -153.5t160.5 -234.5t59 -293q0 -157 -59 -294.5t-160.5 -235.5t-244.5 -154.5t-306 -56.5q-162 0 -304.5 56.5t-243 154.5t-158.5 235.5t-58 294.5zM1563 725q0 136 -51 256t-139.5 206.5 t-213 136.5t-266.5 50t-266 -50t-211 -136.5t-137 -206t-50 -254.5q0 -183 85 -332t237.5 -235t341.5 -86q140 0 263.5 48t213 132.5t141.5 206.5t52 264zM569 1182h396q79 0 145 -44t101.5 -112t35.5 -141q0 -91 -50.5 -166t-129.5 -101l217 -346h-182l-201 318h-170v-318 h-162v910zM954 731q62 0 97.5 42t35.5 112t-39.5 110.5t-99.5 40.5h-217v-305h223z" />
<glyph unicode="&#xaf;" horiz-adv-x="784" d="M268 1315l29 143h580l-31 -143h-578z" />
<glyph unicode="&#xb0;" horiz-adv-x="555" d="M221 1245q0 92 70 165t166 73q69 0 111 -44.5t42 -111.5q0 -98 -70 -166.5t-167 -68.5q-67 0 -109.5 42.5t-42.5 110.5zM494 1303q0 30 -17 47.5t-45 17.5q-35 0 -65.5 -29t-30.5 -65q0 -31 16.5 -49.5t44.5 -18.5q35 0 66 30t31 67z" />
<glyph unicode="&#xb1;" horiz-adv-x="1017" d="M836 854v-182h-250v-271h-203v271h-248v182h248v268h203v-268h250zM133 82v182h703v-182h-703z" />
<glyph unicode="&#xb2;" horiz-adv-x="802" d="M104 809q35 159 109 244.5t225 146.5q15 6 59.5 22t63 23.5t54.5 24t53 30t37.5 33t29 42.5t8.5 50q0 52 -34 81.5t-103 29.5q-80 0 -152 -34t-122 -79l-66 103q47 47 148.5 93t224.5 46q126 0 193 -56.5t67 -152.5q0 -124 -81.5 -200.5t-242.5 -129.5 q-196 -64 -223 -184h441l-29 -133h-660z" />
<glyph unicode="&#xb3;" horiz-adv-x="788" d="M135 967l92 82q10 -49 64.5 -88t144.5 -39q93 0 160.5 42.5t67.5 106.5q0 113 -240 113h-45l24 123h46q268 0 268 133q0 47 -43.5 73.5t-104.5 26.5q-149 0 -243 -104l-62 104q52 58 145.5 91.5t190.5 33.5q122 0 196 -56t74 -145q0 -82 -57 -137t-158 -76 q70 -12 110 -61t40 -117q0 -88 -58 -152.5t-145 -94t-188 -29.5q-121 0 -197 45t-82 125z" />
<glyph unicode="&#xb4;" horiz-adv-x="526" d="M401 1233l-143 37l156 225h215z" />
<glyph unicode="&#xb5;" horiz-adv-x="1267" d="M248 1071h225l-131 -610q-16 -72 -16 -123q0 -166 147 -166q87 0 179 60.5t159 170.5l141 668h226l-170 -805q-4 -24 -4 -30q0 -22 12.5 -31.5t40.5 -11.5l-43 -193q-68 -10 -99 -10q-62 0 -96.5 26.5t-34.5 73.5q0 36 21 127q-60 -93 -172 -165t-213 -72 q-75 0 -116.5 38.5t-47.5 100.5l-104 -553h-226z" />
<glyph unicode="&#xb6;" horiz-adv-x="1257" d="M803 1454h545l-37 -172h-137l-308 -1446h-192l129 606h-111l-131 -606h-192l131 606q-175 3 -273 106.5t-98 278.5q0 285 182.5 456t491.5 171zM535 614l143 668q-158 -4 -256 -125.5t-98 -298.5q0 -112 58 -175t153 -69zM981 1282h-111l-143 -668h111z" />
<glyph unicode="&#xb7;" horiz-adv-x="432" d="M96 498l60 280h186l-59 -280h-187z" />
<glyph unicode="&#xb8;" horiz-adv-x="622" d="M115 -395q-109 0 -197 59l84 121q56 -43 109 -43q58 0 93.5 32t35.5 89q0 68 -72 137l86 53q113 -102 113 -213q0 -103 -68.5 -169t-183.5 -66z" />
<glyph unicode="&#xb9;" horiz-adv-x="569" d="M598 944l-29 -135h-432l31 135h154l120 572q-30 -32 -96 -67.5t-110 -35.5l28 137q37 0 88.5 28t85 55t35.5 32h139l-153 -721h139z" />
<glyph unicode="&#xba;" horiz-adv-x="878" d="M166 1004q0 117 58.5 221.5t163 168.5t228.5 64q135 0 211 -87t76 -218q0 -85 -34 -167t-92.5 -145.5t-143 -102t-178.5 -38.5q-136 0 -212.5 87.5t-76.5 216.5zM729 1130q0 78 -40 128.5t-105 50.5q-94 0 -168 -84t-74 -199q0 -79 39.5 -128.5t103.5 -49.5q94 0 169 84 t75 198z" />
<glyph unicode="&#xbb;" horiz-adv-x="1230" d="M592 469l-582 -358l41 184l375 235l-272 244l36 187l426 -379zM1120 469l-579 -358l39 184l374 235l-274 244l41 187l424 -379z" />
<glyph unicode="&#xbc;" horiz-adv-x="1718" d="M563 776l-28 -135h-433l31 135h154l121 572q-32 -32 -98.5 -67.5t-108.5 -35.5l28 135q37 0 88.5 28.5t85 56t35.5 32.5h140l-156 -721h141zM61 82l693 682l661 702l86 -92l-680 -674l-674 -712zM1305 162l-334 41l-60 84l467 450l185 111l-52 -406l66 -114v-88l-98 -37 l-54 -162l-98 -41zM1311 328l96 288l-305 -239z" />
<glyph unicode="&#xbd;" horiz-adv-x="1728" d="M563 776l-28 -135h-433l31 135h154l121 572q-32 -32 -98.5 -67.5t-108.5 -35.5l28 135q37 0 88.5 28.5t85 56t35.5 32.5h140l-156 -721h141zM61 82l693 682l661 702l86 -92l-680 -674l-674 -712zM889 0q32 158 103.5 244t215.5 147q14 5 57.5 21.5t61 24t53 24t51.5 30 t36 33t28 42.5t8 50q0 111 -133 111q-77 0 -147 -35t-117 -80l-62 105q42 46 142 92.5t219 46.5q121 0 184.5 -56t63.5 -153q0 -124 -78.5 -200.5t-231.5 -129.5q-191 -65 -215 -184h424l-30 -133h-633z" />
<glyph unicode="&#xbe;" horiz-adv-x="1937" d="M102 797l93 82q9 -49 63 -88t145 -39q92 0 159 42.5t67 106.5q0 113 -240 113h-45l25 123h45q268 0 268 133q0 47 -43 74.5t-104 27.5q-146 0 -242 -106l-64 106q53 57 146 90t190 33q123 0 197 -56t74 -145q0 -82 -56.5 -137.5t-158.5 -75.5q70 -12 110.5 -61t40.5 -117 q0 -88 -58 -152.5t-145.5 -94t-189.5 -29.5q-120 0 -195.5 45t-81.5 125zM281 82l692 682l661 702l86 -92l-680 -674l-673 -712zM1524 162l-334 41l-60 84l467 450l185 111l-51 -406l65 -114v-88l-98 -37l-53 -162l-99 -41zM1530 328l96 288l-305 -239z" />
<glyph unicode="&#xbf;" horiz-adv-x="944" d="M776 1036l-55 -258h-186l53 258h188zM684 584q-25 -114 -77 -193.5t-154 -136.5q-18 -10 -60.5 -32.5t-65.5 -36t-59.5 -37t-57 -45t-42 -50.5t-31.5 -64t-10 -75q0 -77 48 -121.5t120 -44.5q83 0 159.5 52t129.5 128l127 -100q-77 -124 -202.5 -194t-260.5 -70 q-65 0 -122.5 19t-103.5 56.5t-73 99t-27 140.5q0 73 17 133.5t42 102t69 80t82.5 62.5t98.5 56q9 5 37 19.5t39 21t35 20.5t35.5 24t31 26t30 31.5t23 35.5t21 43.5t13.5 49.5h188z" />
<glyph unicode="&#xc0;" horiz-adv-x="1329" d="M655 1878h211l64 -225l-158 -39zM748 1454h202l234 -1454h-242l-57 395h-523l-223 -395h-241zM877 565l-82 625l-357 -625h439z" />
<glyph unicode="&#xc1;" horiz-adv-x="1329" d="M952 1618l-143 37l156 225h215zM748 1454h202l234 -1454h-242l-57 395h-523l-223 -395h-241zM877 565l-82 625l-357 -625h439z" />
<glyph unicode="&#xc2;" horiz-adv-x="1329" d="M621 1683l243 195h164l160 -195l-131 -57l-137 129l-193 -129zM748 1454h202l234 -1454h-242l-57 395h-523l-223 -395h-241zM877 565l-82 625l-357 -625h439z" />
<glyph unicode="&#xc3;" horiz-adv-x="1329" d="M784 1731q-25 0 -45.5 -9.5t-32.5 -23t-21 -28.5t-12 -24.5t-3 -13.5h-127q3 15 14.5 41t34.5 60.5t52.5 64t72.5 50t90 20.5q39 0 72 -14t52.5 -31t48.5 -31t60 -14q32 0 58.5 14t40.5 34t20 32.5t8 19.5h127q-2 -13 -13.5 -38t-35.5 -60t-55 -65t-76.5 -51.5 t-95.5 -21.5q-39 0 -74 14t-55.5 30.5t-48.5 30.5t-56 14zM748 1454h202l234 -1454h-242l-57 395h-523l-223 -395h-241zM877 565l-82 625l-357 -625h439z" />
<glyph unicode="&#xc4;" horiz-adv-x="1329" d="M627 1642l49 226h186l-47 -226h-188zM979 1642l47 226h186l-47 -226h-186zM748 1454h202l234 -1454h-242l-57 395h-523l-223 -395h-241zM877 565l-82 625l-357 -625h439z" />
<glyph unicode="&#xc5;" horiz-adv-x="1329" d="M946 1878q69 0 108.5 -32t39.5 -89q0 -79 -60 -128.5t-153 -49.5q-68 0 -108 33t-40 88q0 80 61 129t152 49zM834 1716q0 -27 17 -45t46 -18q37 0 67.5 26.5t30.5 63.5q0 28 -18 44.5t-47 16.5q-38 0 -67 -25.5t-29 -62.5zM748 1454h202l234 -1454h-242l-57 395h-523 l-223 -395h-241zM877 565l-82 625l-357 -625h439z" />
<glyph unicode="&#xc6;" horiz-adv-x="1896" d="M1014 1454h973l-45 -203h-680l-86 -409h575l-43 -203h-575l-95 -436h699l-43 -203h-928l86 395h-461l-307 -395h-248zM877 600l127 590l-469 -590h342z" />
<glyph unicode="&#xc7;" horiz-adv-x="1341" d="M662 195q111 0 221 60t184 179l168 -108q-96 -156 -260.5 -244t-333.5 -94q53 -69 53 -148q0 -103 -68.5 -169t-183.5 -66q-108 0 -196 59l84 121q56 -43 108 -43q58 0 93.5 32t35.5 89q0 69 -71 137q-130 29 -225.5 121t-141 214.5t-45.5 260.5q0 154 60.5 307.5 t166 278t263.5 202.5t337 78q193 0 314.5 -87t160.5 -230l-194 -117q-61 227 -318 227q-108 0 -200.5 -39t-156.5 -103t-109.5 -147.5t-67 -172t-21.5 -175.5q0 -117 39 -212t118 -153t186 -58z" />
<glyph unicode="&#xc8;" horiz-adv-x="1185" d="M590 1878h211l63 -225l-157 -39zM340 1454h932l-43 -203h-701l-88 -413h607l-39 -191h-609l-94 -444h719l-43 -203h-950z" />
<glyph unicode="&#xc9;" horiz-adv-x="1185" d="M887 1618l-144 37l156 225h215zM340 1454h932l-43 -203h-701l-88 -413h607l-39 -191h-609l-94 -444h719l-43 -203h-950z" />
<glyph unicode="&#xca;" horiz-adv-x="1185" d="M555 1683l244 195h164l159 -195l-131 -57l-137 129l-192 -129zM340 1454h932l-43 -203h-701l-88 -413h607l-39 -191h-609l-94 -444h719l-43 -203h-950z" />
<glyph unicode="&#xcb;" horiz-adv-x="1185" d="M561 1642l49 226h187l-47 -226h-189zM913 1642l48 226h186l-47 -226h-187zM340 1454h932l-43 -203h-701l-88 -413h607l-39 -191h-609l-94 -444h719l-43 -203h-950z" />
<glyph unicode="&#xcc;" horiz-adv-x="555" d="M260 1878h211l64 -225l-158 -39zM340 1452h231l-309 -1452h-231z" />
<glyph unicode="&#xcd;" horiz-adv-x="555" d="M557 1618l-143 37l155 225h215zM340 1452h231l-309 -1452h-231z" />
<glyph unicode="&#xce;" horiz-adv-x="555" d="M225 1683l244 195h164l160 -195l-131 -57l-138 129l-192 -129zM340 1452h231l-309 -1452h-231z" />
<glyph unicode="&#xcf;" horiz-adv-x="555" d="M231 1642l50 226h186l-47 -226h-189zM584 1642l47 226h186l-47 -226h-186zM340 1452h231l-309 -1452h-231z" />
<glyph unicode="&#xd0;" horiz-adv-x="1429" d="M846 1454q136 0 241 -43t170 -119.5t98.5 -177.5t33.5 -221q0 -190 -65 -356t-178 -284t-271 -185.5t-338 -67.5h-494l137 645h-100l37 172h100l135 637h494zM580 203q169 0 301 92t201 240.5t69 322.5q0 177 -90.5 285t-257.5 108h-262l-92 -434h286l-35 -172h-288 l-95 -442h263z" />
<glyph unicode="&#xd1;" horiz-adv-x="1507" d="M883 1726q-25 0 -45.5 -9.5t-33 -22.5t-21 -28t-12 -25t-3.5 -13h-127q3 15 14.5 41t34.5 60.5t52.5 64t72.5 50t90 20.5q49 0 87.5 -22.5t73 -45t73.5 -22.5q32 0 58.5 14t40.5 34t20 32.5t8 19.5h127q-3 -17 -22 -52t-52 -78t-87.5 -74.5t-115.5 -31.5q-39 0 -73.5 14 t-55.5 30t-48.5 30t-55.5 14zM340 1454h180l551 -1048l221 1046h232l-310 -1452h-188l-547 1024l-217 -1024h-231z" />
<glyph unicode="&#xd2;" horiz-adv-x="1484" d="M729 1874h211l64 -225l-158 -39zM84 592q0 162 71 322t186 280.5t270 195t315 74.5q99 0 183.5 -33t145.5 -90.5t104.5 -134.5t65 -165.5t21.5 -182.5q0 -161 -70.5 -320t-184.5 -279t-269 -194.5t-314 -74.5q-123 0 -224 49.5t-165.5 133.5t-99.5 192t-35 227zM1210 842 q0 113 -36.5 205t-113 150t-181.5 58q-115 0 -221 -58.5t-179 -150.5t-116.5 -207.5t-43.5 -228.5t36.5 -205t113.5 -150t184 -58q115 0 220.5 59t178 151.5t115.5 207.5t43 227z" />
<glyph unicode="&#xd3;" horiz-adv-x="1484" d="M1026 1614l-143 37l155 225h215zM84 592q0 162 71 322t186 280.5t270 195t315 74.5q99 0 183.5 -33t145.5 -90.5t104.5 -134.5t65 -165.5t21.5 -182.5q0 -161 -70.5 -320t-184.5 -279t-269 -194.5t-314 -74.5q-123 0 -224 49.5t-165.5 133.5t-99.5 192t-35 227zM1210 842 q0 113 -36.5 205t-113 150t-181.5 58q-115 0 -221 -58.5t-179 -150.5t-116.5 -207.5t-43.5 -228.5t36.5 -205t113.5 -150t184 -58q115 0 220.5 59t178 151.5t115.5 207.5t43 227z" />
<glyph unicode="&#xd4;" horiz-adv-x="1484" d="M694 1679l244 195h164l160 -195l-132 -57l-137 129l-192 -129zM84 592q0 162 71 322t186 280.5t270 195t315 74.5q99 0 183.5 -33t145.5 -90.5t104.5 -134.5t65 -165.5t21.5 -182.5q0 -161 -70.5 -320t-184.5 -279t-269 -194.5t-314 -74.5q-123 0 -224 49.5t-165.5 133.5 t-99.5 192t-35 227zM1210 842q0 113 -36.5 205t-113 150t-181.5 58q-115 0 -221 -58.5t-179 -150.5t-116.5 -207.5t-43.5 -228.5t36.5 -205t113.5 -150t184 -58q115 0 220.5 59t178 151.5t115.5 207.5t43 227z" />
<glyph unicode="&#xd5;" horiz-adv-x="1484" d="M858 1726q-25 0 -45.5 -9.5t-33 -22.5t-21 -28t-12 -25t-3.5 -13h-127q3 15 14.5 41t35 60.5t52.5 64t72.5 50t90.5 20.5q39 0 72 -14t52.5 -31t48.5 -31t60 -14q32 0 58.5 14t40.5 34t20 32.5t8 19.5h127q-2 -13 -13.5 -38t-35.5 -60t-55 -65t-76.5 -51.5t-95.5 -21.5 t-90.5 22t-75 44t-68.5 22zM84 592q0 162 71 322t186 280.5t270 195t315 74.5q99 0 183.5 -33t145.5 -90.5t104.5 -134.5t65 -165.5t21.5 -182.5q0 -161 -70.5 -320t-184.5 -279t-269 -194.5t-314 -74.5q-123 0 -224 49.5t-165.5 133.5t-99.5 192t-35 227zM1210 842 q0 113 -36.5 205t-113 150t-181.5 58q-115 0 -221 -58.5t-179 -150.5t-116.5 -207.5t-43.5 -228.5t36.5 -205t113.5 -150t184 -58q115 0 220.5 59t178 151.5t115.5 207.5t43 227z" />
<glyph unicode="&#xd6;" horiz-adv-x="1484" d="M700 1638l50 226h186l-47 -226h-189zM1053 1638l47 226h186l-47 -226h-186zM84 592q0 162 71 322t186 280.5t270 195t315 74.5q99 0 183.5 -33t145.5 -90.5t104.5 -134.5t65 -165.5t21.5 -182.5q0 -161 -70.5 -320t-184.5 -279t-269 -194.5t-314 -74.5q-123 0 -224 49.5 t-165.5 133.5t-99.5 192t-35 227zM1210 842q0 113 -36.5 205t-113 150t-181.5 58q-115 0 -221 -58.5t-179 -150.5t-116.5 -207.5t-43.5 -228.5t36.5 -205t113.5 -150t184 -58q115 0 220.5 59t178 151.5t115.5 207.5t43 227z" />
<glyph unicode="&#xd7;" horiz-adv-x="980" d="M842 336l-144 -139l-225 223l-223 -223l-141 141l223 223l-217 219l143 140l217 -218l217 220l142 -142l-218 -219z" />
<glyph unicode="&#xd8;" horiz-adv-x="1484" d="M1526 1454l-187 -215q107 -162 107 -381q0 -161 -70.5 -320t-184.5 -279t-269 -194.5t-314 -74.5q-155 0 -280 82l-62 -72h-250l179 207q-111 163 -111 385q0 162 71 322t186 280.5t270 195t315 74.5q157 0 284 -86l66 76h250zM319 610q0 -117 41 -213l697 803 q-77 55 -178 55q-115 0 -221 -58.5t-179 -150.5t-116.5 -207.5t-43.5 -228.5zM1210 842q0 117 -36 205l-695 -801q74 -49 174 -49q115 0 220.5 59t178 151.5t115.5 207.5t43 227z" />
<glyph unicode="&#xd9;" horiz-adv-x="1478" d="M711 1874h211l63 -225l-158 -39zM135 477q0 108 29 240l155 737h232l-158 -737q-22 -110 -22 -199q0 -71 14.5 -127.5t46.5 -101t87 -68.5t130 -24q82 0 153 29.5t122.5 78.5t92.5 117t67.5 140.5t43.5 154.5l156 737h232l-158 -737q-26 -122 -69.5 -228.5t-109 -199 t-148.5 -158.5t-191.5 -103.5t-233.5 -37.5t-218 37t-147 105t-80 153.5t-26 191.5z" />
<glyph unicode="&#xda;" horiz-adv-x="1478" d="M1008 1614l-144 37l156 225h215zM135 477q0 108 29 240l155 737h232l-158 -737q-22 -110 -22 -199q0 -71 14.5 -127.5t46.5 -101t87 -68.5t130 -24q82 0 153 29.5t122.5 78.5t92.5 117t67.5 140.5t43.5 154.5l156 737h232l-158 -737q-26 -122 -69.5 -228.5t-109 -199 t-148.5 -158.5t-191.5 -103.5t-233.5 -37.5t-218 37t-147 105t-80 153.5t-26 191.5z" />
<glyph unicode="&#xdb;" horiz-adv-x="1478" d="M676 1679l244 195h163l160 -195l-131 -57l-137 129l-193 -129zM135 477q0 108 29 240l155 737h232l-158 -737q-22 -110 -22 -199q0 -71 14.5 -127.5t46.5 -101t87 -68.5t130 -24q82 0 153 29.5t122.5 78.5t92.5 117t67.5 140.5t43.5 154.5l156 737h232l-158 -737 q-26 -122 -69.5 -228.5t-109 -199t-148.5 -158.5t-191.5 -103.5t-233.5 -37.5t-218 37t-147 105t-80 153.5t-26 191.5z" />
<glyph unicode="&#xdc;" horiz-adv-x="1478" d="M682 1638l49 226h187l-48 -226h-188zM1034 1638l47 226h187l-47 -226h-187zM135 477q0 108 29 240l155 737h232l-158 -737q-22 -110 -22 -199q0 -71 14.5 -127.5t46.5 -101t87 -68.5t130 -24q82 0 153 29.5t122.5 78.5t92.5 117t67.5 140.5t43.5 154.5l156 737h232 l-158 -737q-26 -122 -69.5 -228.5t-109 -199t-148.5 -158.5t-191.5 -103.5t-233.5 -37.5t-218 37t-147 105t-80 153.5t-26 191.5z" />
<glyph unicode="&#xdd;" d="M866 1614l-143 37l156 225h215zM485 524l-311 930h252l217 -729l533 729h249l-710 -934l-111 -520h-231z" />
<glyph unicode="&#xde;" horiz-adv-x="1191" d="M340 1454h231l-57 -272h315q103 0 183 -57t119.5 -145t39.5 -189t-43 -202t-114 -179.5t-170.5 -127.5t-204.5 -49h-328l-49 -233h-231zM672 438q104 0 184 102t80 226q0 92 -45.5 152.5t-116.5 60.5h-305l-115 -541h318z" />
<glyph unicode="&#xdf;" horiz-adv-x="1095" d="M393 195q166 3 268.5 81t102.5 228q0 94 -55.5 148.5t-145.5 54.5h-41l43 204h39q93 0 155 64.5t62 157.5q0 66 -41 101.5t-104 35.5q-95 0 -157.5 -69t-84.5 -175l-219 -1026h-215l227 1065q37 173 180 285t326 112q141 0 227.5 -74.5t86.5 -199.5q0 -119 -79 -226.5 t-175 -138.5q99 -26 151.5 -109.5t52.5 -199.5q0 -128 -52.5 -228.5t-143.5 -163.5t-206 -96.5t-247 -37.5z" />
<glyph unicode="&#xe0;" d="M545 1495h211l63 -225l-157 -39zM39 422q0 128 49 251t129 214t189 147t223 56q113 0 193 -61.5t114 -160.5l43 201h227l-172 -803q-4 -24 -4 -30q0 -22 11 -31.5t36 -11.5l-41 -193q-65 -10 -92 -10q-64 0 -98.5 27.5t-34.5 78.5q0 33 14 99q-76 -101 -186.5 -158 t-218.5 -57q-175 0 -278 126t-103 316zM836 385l57 281q-12 97 -81 164t-155 67q-99 0 -188.5 -65t-141 -166t-51.5 -207q0 -124 66 -205.5t176 -81.5q84 0 179.5 62t138.5 151z" />
<glyph unicode="&#xe1;" d="M842 1235l-144 37l156 225h215zM39 422q0 128 49 251t129 214t189 147t223 56q113 0 193 -61.5t114 -160.5l43 201h227l-172 -803q-4 -24 -4 -30q0 -22 11 -31.5t36 -11.5l-41 -193q-65 -10 -92 -10q-64 0 -98.5 27.5t-34.5 78.5q0 33 14 99q-76 -101 -186.5 -158 t-218.5 -57q-175 0 -278 126t-103 316zM836 385l57 281q-12 97 -81 164t-155 67q-99 0 -188.5 -65t-141 -166t-51.5 -207q0 -124 66 -205.5t176 -81.5q84 0 179.5 62t138.5 151z" />
<glyph unicode="&#xe2;" d="M510 1300l244 195h164l159 -195l-131 -57l-137 129l-193 -129zM39 422q0 128 49 251t129 214t189 147t223 56q113 0 193 -61.5t114 -160.5l43 201h227l-172 -803q-4 -24 -4 -30q0 -22 11 -31.5t36 -11.5l-41 -193q-65 -10 -92 -10q-64 0 -98.5 27.5t-34.5 78.5 q0 33 14 99q-76 -101 -186.5 -158t-218.5 -57q-175 0 -278 126t-103 316zM836 385l57 281q-12 97 -81 164t-155 67q-99 0 -188.5 -65t-141 -166t-51.5 -207q0 -124 66 -205.5t176 -81.5q84 0 179.5 62t138.5 151z" />
<glyph unicode="&#xe3;" d="M674 1348q-25 0 -45.5 -9.5t-33 -23t-21 -28.5t-12 -25t-3.5 -13h-127q3 15 14.5 41t34.5 60.5t52.5 64t72.5 50t90 20.5q49 0 87.5 -22.5t73 -45t73.5 -22.5q32 0 58.5 14t40.5 34t20 32.5t8 19.5h127q-3 -17 -22 -52t-52 -78t-87.5 -74t-115.5 -31q-39 0 -73.5 14 t-55.5 30t-48.5 30t-55.5 14zM39 422q0 128 49 251t129 214t189 147t223 56q113 0 193 -61.5t114 -160.5l43 201h227l-172 -803q-4 -24 -4 -30q0 -22 11 -31.5t36 -11.5l-41 -193q-65 -10 -92 -10q-64 0 -98.5 27.5t-34.5 78.5q0 33 14 99q-76 -101 -186.5 -158t-218.5 -57 q-175 0 -278 126t-103 316zM836 385l57 281q-12 97 -81 164t-155 67q-99 0 -188.5 -65t-141 -166t-51.5 -207q0 -124 66 -205.5t176 -81.5q84 0 179.5 62t138.5 151z" />
<glyph unicode="&#xe4;" d="M516 1260l49 225h187l-47 -225h-189zM868 1260l47 225h187l-47 -225h-187zM39 422q0 128 49 251t129 214t189 147t223 56q113 0 193 -61.5t114 -160.5l43 201h227l-172 -803q-4 -24 -4 -30q0 -22 11 -31.5t36 -11.5l-41 -193q-65 -10 -92 -10q-64 0 -98.5 27.5 t-34.5 78.5q0 33 14 99q-76 -101 -186.5 -158t-218.5 -57q-175 0 -278 126t-103 316zM836 385l57 281q-12 97 -81 164t-155 67q-99 0 -188.5 -65t-141 -166t-51.5 -207q0 -124 66 -205.5t176 -81.5q84 0 179.5 62t138.5 151z" />
<glyph unicode="&#xe5;" d="M836 1495q69 0 108 -32t39 -89q0 -79 -60 -128.5t-153 -49.5q-67 0 -107 32.5t-40 88.5q0 80 61 129t152 49zM723 1333q0 -27 17 -45t46 -18q37 0 68 26.5t31 63.5q0 28 -18.5 44.5t-47.5 16.5q-38 0 -67 -25.5t-29 -62.5zM39 422q0 128 49 251t129 214t189 147t223 56 q113 0 193 -61.5t114 -160.5l43 201h227l-172 -803q-4 -24 -4 -30q0 -22 11 -31.5t36 -11.5l-41 -193q-65 -10 -92 -10q-64 0 -98.5 27.5t-34.5 78.5q0 33 14 99q-76 -101 -186.5 -158t-218.5 -57q-175 0 -278 126t-103 316zM836 385l57 281q-12 97 -81 164t-155 67 q-99 0 -188.5 -65t-141 -166t-51.5 -207q0 -124 66 -205.5t176 -81.5q84 0 179.5 62t138.5 151z" />
<glyph unicode="&#xe6;" horiz-adv-x="1824" d="M-16 256q0 171 147.5 284t362.5 113q138 0 231 -41q4 15 24.5 70.5t20.5 87.5q0 71 -52 115.5t-147 44.5q-148 0 -346 -123l-39 143q231 140 443 140q241 0 315 -175q85 81 190.5 128t219.5 47q132 0 228.5 -61t144 -161.5t47.5 -226.5q0 -93 -35 -180h-824 q-4 -36 -4 -55q0 -117 70.5 -189t179.5 -72q86 0 169.5 45.5t125.5 118.5l182 -55q-80 -122 -220 -198t-298 -76q-139 0 -238.5 60.5t-146.5 166.5q-88 -113 -219.5 -170t-245.5 -57q-131 0 -208.5 77.5t-77.5 198.5zM1548 604q4 40 4 60q0 118 -64.5 189t-174.5 71 q-124 0 -227.5 -90t-143.5 -230h606zM694 319q-6 24 -6 60q0 53 10 108q-92 37 -194 37q-128 0 -213.5 -63.5t-85.5 -159.5q0 -68 42.5 -112t121.5 -44q90 0 191.5 53t133.5 121z" />
<glyph unicode="&#xe7;" horiz-adv-x="1097" d="M502 172q76 0 152.5 42.5t111.5 104.5l207 -65q-62 -99 -167.5 -170t-230.5 -94q54 -70 54 -150q0 -103 -68.5 -169t-183.5 -66q-109 0 -197 59l84 121q56 -43 109 -43q58 0 93.5 32t35.5 89q0 60 -51 117q-194 6 -303 134t-109 318q0 101 31.5 198.5t90.5 180 t138.5 145.5t181.5 98.5t213 35.5q160 0 260 -71.5t133 -195.5l-233 -69q-22 70 -73.5 106.5t-125.5 36.5q-98 0 -186 -58t-142.5 -159.5t-54.5 -220.5q0 -125 64 -206t166 -81z" />
<glyph unicode="&#xe8;" horiz-adv-x="1116" d="M776 1268l-158 -39l-116 264h211zM469 459q-101 0 -197 8q-2 -14 -2 -39q0 -126 60 -204.5t178 -78.5q88 0 170 44.5t129 119.5l178 -55q-79 -122 -220.5 -198t-295.5 -76q-198 0 -313 127t-115 325q0 129 51 249.5t137.5 210.5t210 144t260.5 54q170 0 269.5 -76.5 t99.5 -218.5q0 -336 -600 -336zM676 924q-140 0 -236 -88t-139 -224q92 -6 172 -6q387 0 387 182q0 67 -48.5 101.5t-135.5 34.5z" />
<glyph unicode="&#xe9;" horiz-adv-x="1116" d="M1026 1495l-227 -262l-144 37l156 225h215zM469 459q-101 0 -197 8q-2 -14 -2 -39q0 -126 60 -204.5t178 -78.5q88 0 170 44.5t129 119.5l178 -55q-79 -122 -220.5 -198t-295.5 -76q-198 0 -313 127t-115 325q0 129 51 249.5t137.5 210.5t210 144t260.5 54 q170 0 269.5 -76.5t99.5 -218.5q0 -336 -600 -336zM676 924q-140 0 -236 -88t-139 -224q92 -6 172 -6q387 0 387 182q0 67 -48.5 101.5t-135.5 34.5z" />
<glyph unicode="&#xea;" horiz-adv-x="1116" d="M766 1370l-193 -129l-106 57l244 195h163l160 -195l-131 -57zM469 459q-101 0 -197 8q-2 -14 -2 -39q0 -126 60 -204.5t178 -78.5q88 0 170 44.5t129 119.5l178 -55q-79 -122 -220.5 -198t-295.5 -76q-198 0 -313 127t-115 325q0 129 51 249.5t137.5 210.5t210 144 t260.5 54q170 0 269.5 -76.5t99.5 -218.5q0 -336 -600 -336zM676 924q-140 0 -236 -88t-139 -224q92 -6 172 -6q387 0 387 182q0 67 -48.5 101.5t-135.5 34.5z" />
<glyph unicode="&#xeb;" horiz-adv-x="1116" d="M709 1483l-47 -226h-189l49 226h187zM1059 1483l-47 -226h-187l47 226h187zM469 459q-101 0 -197 8q-2 -14 -2 -39q0 -126 60 -204.5t178 -78.5q88 0 170 44.5t129 119.5l178 -55q-79 -122 -220.5 -198t-295.5 -76q-198 0 -313 127t-115 325q0 129 51 249.5t137.5 210.5 t210 144t260.5 54q170 0 269.5 -76.5t99.5 -218.5q0 -336 -600 -336zM676 924q-140 0 -236 -88t-139 -224q92 -6 172 -6q387 0 387 182q0 67 -48.5 101.5t-135.5 34.5z" />
<glyph unicode="&#xec;" horiz-adv-x="489" d="M305 1473h211l64 -226l-158 -39zM229 1071h226l-230 -1071h-225z" />
<glyph unicode="&#xed;" horiz-adv-x="489" d="M436 1235l-143 37l156 225h215zM229 1071h226l-230 -1071h-225z" />
<glyph unicode="&#xee;" horiz-adv-x="489" d="M104 1300l244 195h164l160 -195l-131 -57l-138 129l-192 -129zM229 1071h226l-230 -1071h-225z" />
<glyph unicode="&#xef;" horiz-adv-x="489" d="M111 1260l49 225h186l-47 -225h-188zM463 1260l47 225h186l-47 -225h-186zM229 1071h226l-230 -1071h-225z" />
<glyph unicode="&#xf0;" horiz-adv-x="1202" d="M1171 1368l-170 -90q70 -113 105 -247.5t35 -264.5q0 -140 -37 -265t-102.5 -219t-151.5 -162.5t-188 -104t-209 -35.5q-187 0 -304.5 117t-117.5 294q0 150 84 284.5t220 214t283 79.5q108 0 191 -52t117 -139q0 75 -11 131q-22 156 -102 285l-209 -115l-47 92l195 107 q-91 111 -252 217h297q83 -59 145 -133l182 98zM500 172q146 0 258 112.5t112 258.5q0 106 -64.5 174.5t-170.5 68.5q-146 0 -258.5 -109t-112.5 -257q0 -106 66 -177t170 -71z" />
<glyph unicode="&#xf1;" horiz-adv-x="1175" d="M733 1346q-25 0 -45.5 -9.5t-33 -23t-21 -28.5t-12 -25t-3.5 -13h-126q3 15 14.5 41t34.5 60.5t52.5 64t72.5 50t90 20.5q39 0 72 -14t52.5 -31t48.5 -31t60 -14q32 0 58.5 14t40.5 34t20 32.5t8 19.5h127q-2 -13 -13.5 -38t-35.5 -60t-55 -65t-76.5 -51.5t-95.5 -21.5 q-39 0 -74 14t-55.5 30.5t-48.5 30.5t-56 14zM229 1071h203l-45 -215q80 108 204 171t257 63q237 0 237 -250q0 -74 -24 -187l-137 -653h-226l127 600q17 87 17 131q0 158 -131 158q-91 0 -192.5 -72.5t-156.5 -179.5l-137 -637h-225z" />
<glyph unicode="&#xf2;" horiz-adv-x="1191" d="M496 1493h211l63 -225l-158 -39zM39 432q0 176 84 327t232 241t325 90q109 0 194 -35.5t137.5 -97.5t79.5 -143.5t27 -176.5q0 -131 -49.5 -251.5t-134.5 -210t-205.5 -142.5t-255.5 -53q-108 0 -192.5 35t-136.5 97.5t-78.5 143t-26.5 176.5zM883 606q0 131 -62 211 t-176 80q-95 0 -180.5 -56.5t-139 -158t-53.5 -221.5q0 -131 62.5 -210t175.5 -79q149 0 261 125.5t112 308.5z" />
<glyph unicode="&#xf3;" horiz-adv-x="1191" d="M793 1233l-144 37l156 225h215zM39 432q0 176 84 327t232 241t325 90q109 0 194 -35.5t137.5 -97.5t79.5 -143.5t27 -176.5q0 -131 -49.5 -251.5t-134.5 -210t-205.5 -142.5t-255.5 -53q-108 0 -192.5 35t-136.5 97.5t-78.5 143t-26.5 176.5zM883 606q0 131 -62 211 t-176 80q-95 0 -180.5 -56.5t-139 -158t-53.5 -221.5q0 -131 62.5 -210t175.5 -79q149 0 261 125.5t112 308.5z" />
<glyph unicode="&#xf4;" horiz-adv-x="1191" d="M461 1298l244 195h163l160 -195l-131 -57l-137 129l-193 -129zM39 432q0 176 84 327t232 241t325 90q109 0 194 -35.5t137.5 -97.5t79.5 -143.5t27 -176.5q0 -131 -49.5 -251.5t-134.5 -210t-205.5 -142.5t-255.5 -53q-108 0 -192.5 35t-136.5 97.5t-78.5 143 t-26.5 176.5zM883 606q0 131 -62 211t-176 80q-95 0 -180.5 -56.5t-139 -158t-53.5 -221.5q0 -131 62.5 -210t175.5 -79q149 0 261 125.5t112 308.5z" />
<glyph unicode="&#xf5;" horiz-adv-x="1191" d="M625 1346q-25 0 -45.5 -9.5t-33 -23t-21 -28.5t-12 -25t-3.5 -13h-127q3 15 14.5 41t34.5 60.5t52.5 64t72.5 50t90 20.5q49 0 87.5 -22.5t73 -45t73.5 -22.5q32 0 58.5 14t40.5 34t20 32.5t8 19.5h127q-3 -17 -22 -52t-52 -78t-87.5 -74.5t-115.5 -31.5 q-50 0 -90.5 22.5t-74.5 44.5t-68 22zM39 432q0 176 84 327t232 241t325 90q109 0 194 -35.5t137.5 -97.5t79.5 -143.5t27 -176.5q0 -131 -49.5 -251.5t-134.5 -210t-205.5 -142.5t-255.5 -53q-108 0 -192.5 35t-136.5 97.5t-78.5 143t-26.5 176.5zM883 606q0 131 -62 211 t-176 80q-95 0 -180.5 -56.5t-139 -158t-53.5 -221.5q0 -131 62.5 -210t175.5 -79q149 0 261 125.5t112 308.5z" />
<glyph unicode="&#xf6;" horiz-adv-x="1191" d="M467 1257l49 226h186l-47 -226h-188zM819 1257l47 226h187l-47 -226h-187zM39 432q0 176 84 327t232 241t325 90q109 0 194 -35.5t137.5 -97.5t79.5 -143.5t27 -176.5q0 -131 -49.5 -251.5t-134.5 -210t-205.5 -142.5t-255.5 -53q-108 0 -192.5 35t-136.5 97.5t-78.5 143 t-26.5 176.5zM883 606q0 131 -62 211t-176 80q-95 0 -180.5 -56.5t-139 -158t-53.5 -221.5q0 -131 62.5 -210t175.5 -79q149 0 261 125.5t112 308.5z" />
<glyph unicode="&#xf7;" horiz-adv-x="1079" d="M438 842v235h193v-235h-193zM121 508v180h825v-180h-825zM438 119v233h193v-233h-193z" />
<glyph unicode="&#xf8;" horiz-adv-x="1191" d="M1153 1077l-135 -131q100 -121 100 -305q0 -125 -51 -245.5t-137.5 -212t-210 -147.5t-258.5 -56q-156 0 -262 83l-70 -69h-131l137 133q-96 122 -96 299q0 127 51.5 248t138.5 212.5t210 147.5t257 56q152 0 256 -80l68 67h133zM653 897q-144 0 -262.5 -133t-118.5 -309 q0 -92 35 -160l490 549q-63 53 -144 53zM502 172q94 0 182.5 59t144.5 162t56 219q0 94 -37 164l-492 -549q61 -55 146 -55z" />
<glyph unicode="&#xf9;" horiz-adv-x="1200" d="M516 1495h211l64 -225l-158 -39zM57 246q0 60 21 170l141 655h223l-131 -610q-14 -66 -14 -123q0 -166 141 -166q91 0 182.5 60.5t159.5 170.5l142 668h225l-170 -805q-6 -18 -6 -30q0 -40 47 -43l-39 -193q-68 -10 -94 -10q-63 0 -97 26t-34 76q0 30 18 125 q-91 -116 -212 -176.5t-253 -60.5q-124 0 -187 67.5t-63 198.5z" />
<glyph unicode="&#xfa;" horiz-adv-x="1200" d="M813 1235l-143 37l155 225h215zM57 246q0 60 21 170l141 655h223l-131 -610q-14 -66 -14 -123q0 -166 141 -166q91 0 182.5 60.5t159.5 170.5l142 668h225l-170 -805q-6 -18 -6 -30q0 -40 47 -43l-39 -193q-68 -10 -94 -10q-63 0 -97 26t-34 76q0 30 18 125 q-91 -116 -212 -176.5t-253 -60.5q-124 0 -187 67.5t-63 198.5z" />
<glyph unicode="&#xfb;" horiz-adv-x="1200" d="M481 1300l244 195h164l160 -195l-131 -57l-138 129l-192 -129zM57 246q0 60 21 170l141 655h223l-131 -610q-14 -66 -14 -123q0 -166 141 -166q91 0 182.5 60.5t159.5 170.5l142 668h225l-170 -805q-6 -18 -6 -30q0 -40 47 -43l-39 -193q-68 -10 -94 -10q-63 0 -97 26 t-34 76q0 30 18 125q-91 -116 -212 -176.5t-253 -60.5q-124 0 -187 67.5t-63 198.5z" />
<glyph unicode="&#xfc;" horiz-adv-x="1200" d="M487 1260l50 225h186l-47 -225h-189zM840 1260l47 225h186l-47 -225h-186zM57 246q0 60 21 170l141 655h223l-131 -610q-14 -66 -14 -123q0 -166 141 -166q91 0 182.5 60.5t159.5 170.5l142 668h225l-170 -805q-6 -18 -6 -30q0 -40 47 -43l-39 -193q-68 -10 -94 -10 q-63 0 -97 26t-34 76q0 30 18 125q-91 -116 -212 -176.5t-253 -60.5q-124 0 -187 67.5t-63 198.5z" />
<glyph unicode="&#xfd;" horiz-adv-x="1044" d="M690 1233l-143 37l155 225h216zM-82 -287q127 13 188 47.5t127 130.5l60 86l-193 1094h232l121 -872l69 114q150 244 222.5 407t117.5 351h221q-56 -199 -138 -367t-283 -493l-164 -264q-141 -227 -262.5 -317.5t-286.5 -92.5z" />
<glyph unicode="&#xfe;" horiz-adv-x="1204" d="M-92 -436l401 1890h232l-117 -536q74 80 169.5 126t197.5 46q170 0 272 -128t102 -317q0 -127 -48 -249.5t-126.5 -213.5t-186.5 -146.5t-222 -55.5q-118 0 -199.5 60t-114.5 161l-135 -637h-225zM549 172q99 0 188.5 65t141 166t51.5 207q0 123 -66 205t-176 82 q-84 0 -178.5 -62t-136.5 -149l-62 -280q19 -101 84 -167.5t154 -66.5z" />
<glyph unicode="&#xff;" horiz-adv-x="1044" d="M365 1257l49 226h186l-47 -226h-188zM717 1257l47 226h186l-47 -226h-186zM-82 -287q127 13 188 47.5t127 130.5l60 86l-193 1094h232l121 -872l69 114q150 244 222.5 407t117.5 351h221q-56 -199 -138 -367t-283 -493l-164 -264q-141 -227 -262.5 -317.5t-286.5 -92.5z " />
<glyph unicode="&#x100;" horiz-adv-x="1329" d="M616 1698l29 143h580l-31 -143h-578zM748 1454h202l234 -1454h-242l-57 395h-523l-223 -395h-241zM877 565l-82 625l-357 -625h439z" />
<glyph unicode="&#x101;" d="M506 1315l29 143h579l-31 -143h-577zM39 422q0 128 49 251t129 214t189 147t223 56q113 0 193 -61.5t114 -160.5l43 201h227l-172 -803q-4 -24 -4 -30q0 -22 11 -31.5t36 -11.5l-41 -193q-65 -10 -92 -10q-64 0 -98.5 27.5t-34.5 78.5q0 33 14 99q-76 -101 -186.5 -158 t-218.5 -57q-175 0 -278 126t-103 316zM836 385l57 281q-12 97 -81 164t-155 67q-99 0 -188.5 -65t-141 -166t-51.5 -207q0 -124 66 -205.5t176 -81.5q84 0 179.5 62t138.5 151z" />
<glyph unicode="&#x102;" horiz-adv-x="1329" d="M1055 1878h125q-23 -108 -106 -179t-185 -71q-87 0 -140 53t-53 138q0 14 9 59h124q-4 -24 -4 -37q0 -45 24 -76.5t62 -31.5q43 0 84 41t60 104zM748 1454h202l234 -1454h-242l-57 395h-523l-223 -395h-241zM877 565l-82 625l-357 -625h439z" />
<glyph unicode="&#x103;" d="M944 1495h125q-23 -108 -106 -179t-185 -71q-87 0 -139.5 53t-52.5 138q0 19 8 59h125q-4 -24 -4 -37q0 -45 24 -76.5t62 -31.5q43 0 83.5 41t59.5 104zM39 422q0 128 49 251t129 214t189 147t223 56q113 0 193 -61.5t114 -160.5l43 201h227l-172 -803q-4 -24 -4 -30 q0 -22 11 -31.5t36 -11.5l-41 -193q-65 -10 -92 -10q-64 0 -98.5 27.5t-34.5 78.5q0 33 14 99q-76 -101 -186.5 -158t-218.5 -57q-175 0 -278 126t-103 316zM836 385l57 281q-12 97 -81 164t-155 67q-99 0 -188.5 -65t-141 -166t-51.5 -207q0 -124 66 -205.5t176 -81.5 q84 0 179.5 62t138.5 151z" />
<glyph unicode="&#x104;" horiz-adv-x="1329" d="M1024 -201q0 -57 92 -63l-80 -133q-82 10 -120.5 50t-38.5 95q0 127 165 252h-100l-57 395h-523l-223 -395h-241l850 1454h202l234 -1454q-85 -70 -122.5 -116t-37.5 -85zM438 565h439l-82 625z" />
<glyph unicode="&#x105;" d="M1030 236q0 -22 11 -31.5t36 -11.5l-41 -193q-84 -69 -121.5 -115.5t-37.5 -85.5q0 -57 92 -63l-80 -133q-82 10 -121 50t-39 95q0 126 162 248q-80 22 -80 100q0 33 14 99q-76 -101 -186.5 -158t-218.5 -57q-175 0 -278 126t-103 316q0 128 49 251t129 214t189 147 t223 56q113 0 193 -61.5t114 -160.5l43 201h227l-172 -803q-4 -24 -4 -30zM836 385l57 281q-12 97 -81 164t-155 67q-99 0 -188.5 -65t-141 -166t-51.5 -207q0 -124 66 -205.5t176 -81.5q84 0 179.5 62t138.5 151z" />
<glyph unicode="&#x106;" horiz-adv-x="1341" d="M965 1618l-144 37l156 225h215zM84 596q0 154 60.5 307.5t166 278t263.5 202.5t337 78q193 0 314.5 -87t160.5 -230l-194 -117q-61 227 -318 227q-108 0 -200.5 -39t-156.5 -103t-109.5 -147.5t-67 -172t-21.5 -175.5q0 -117 39 -212t118 -153t186 -58q111 0 221 60 t184 179l168 -108q-101 -162 -274 -250t-345 -88q-127 0 -230 51.5t-168 137.5t-99.5 194t-34.5 225z" />
<glyph unicode="&#x107;" horiz-adv-x="1097" d="M797 1233l-144 37l156 225h215zM39 432q0 101 31.5 198.5t90.5 180t138.5 145.5t181.5 98.5t213 35.5q160 0 260 -71.5t133 -195.5l-233 -69q-22 70 -73.5 106.5t-125.5 36.5q-98 0 -186 -58t-142.5 -159.5t-54.5 -220.5q0 -125 64 -206t166 -81q76 0 152.5 42.5 t111.5 104.5l207 -65q-76 -122 -213 -198t-293 -76q-135 0 -233.5 62t-146.5 163t-48 227z" />
<glyph unicode="&#x108;" horiz-adv-x="1341" d="M633 1683l244 195h163l160 -195l-131 -57l-137 129l-193 -129zM84 596q0 154 60.5 307.5t166 278t263.5 202.5t337 78q193 0 314.5 -87t160.5 -230l-194 -117q-61 227 -318 227q-108 0 -200.5 -39t-156.5 -103t-109.5 -147.5t-67 -172t-21.5 -175.5q0 -117 39 -212 t118 -153t186 -58q111 0 221 60t184 179l168 -108q-101 -162 -274 -250t-345 -88q-127 0 -230 51.5t-168 137.5t-99.5 194t-34.5 225z" />
<glyph unicode="&#x109;" horiz-adv-x="1097" d="M465 1298l244 195h163l160 -195l-131 -57l-137 129l-193 -129zM39 432q0 101 31.5 198.5t90.5 180t138.5 145.5t181.5 98.5t213 35.5q160 0 260 -71.5t133 -195.5l-233 -69q-22 70 -73.5 106.5t-125.5 36.5q-98 0 -186 -58t-142.5 -159.5t-54.5 -220.5q0 -125 64 -206 t166 -81q76 0 152.5 42.5t111.5 104.5l207 -65q-76 -122 -213 -198t-293 -76q-135 0 -233.5 62t-146.5 163t-48 227z" />
<glyph unicode="&#x10a;" horiz-adv-x="1341" d="M805 1642l51 236h201l-49 -236h-203zM84 596q0 154 60.5 307.5t166 278t263.5 202.5t337 78q193 0 314.5 -87t160.5 -230l-194 -117q-61 227 -318 227q-108 0 -200.5 -39t-156.5 -103t-109.5 -147.5t-67 -172t-21.5 -175.5q0 -117 39 -212t118 -153t186 -58q111 0 221 60 t184 179l168 -108q-101 -162 -274 -250t-345 -88q-127 0 -230 51.5t-168 137.5t-99.5 194t-34.5 225z" />
<glyph unicode="&#x10b;" horiz-adv-x="1097" d="M637 1257l51 236h201l-49 -236h-203zM39 432q0 101 31.5 198.5t90.5 180t138.5 145.5t181.5 98.5t213 35.5q160 0 260 -71.5t133 -195.5l-233 -69q-22 70 -73.5 106.5t-125.5 36.5q-98 0 -186 -58t-142.5 -159.5t-54.5 -220.5q0 -125 64 -206t166 -81q76 0 152.5 42.5 t111.5 104.5l207 -65q-76 -122 -213 -198t-293 -76q-135 0 -233.5 62t-146.5 163t-48 227z" />
<glyph unicode="&#x10c;" horiz-adv-x="1341" d="M649 1821l131 57l138 -129l192 129l109 -57l-246 -195h-164zM84 596q0 154 60.5 307.5t166 278t263.5 202.5t337 78q193 0 314.5 -87t160.5 -230l-194 -117q-61 227 -318 227q-108 0 -200.5 -39t-156.5 -103t-109.5 -147.5t-67 -172t-21.5 -175.5q0 -117 39 -212 t118 -153t186 -58q111 0 221 60t184 179l168 -108q-101 -162 -274 -250t-345 -88q-127 0 -230 51.5t-168 137.5t-99.5 194t-34.5 225z" />
<glyph unicode="&#x10d;" horiz-adv-x="1097" d="M481 1436l131 57l138 -129l192 129l109 -57l-246 -195h-164zM39 432q0 101 31.5 198.5t90.5 180t138.5 145.5t181.5 98.5t213 35.5q160 0 260 -71.5t133 -195.5l-233 -69q-22 70 -73.5 106.5t-125.5 36.5q-98 0 -186 -58t-142.5 -159.5t-54.5 -220.5q0 -125 64 -206 t166 -81q76 0 152.5 42.5t111.5 104.5l207 -65q-76 -122 -213 -198t-293 -76q-135 0 -233.5 62t-146.5 163t-48 227z" />
<glyph unicode="&#x10e;" horiz-adv-x="1417" d="M594 1817l131 57l137 -129l193 129l108 -57l-245 -195h-164zM340 1454h494q136 0 241 -43t170 -119.5t98 -177.5t33 -221q0 -190 -65 -356t-178 -284t-271 -185.5t-338 -67.5h-493zM567 203q127 0 235.5 53.5t181.5 144t114 209t41 248.5q0 177 -90.5 285t-257.5 108 h-263l-223 -1048h262z" />
<glyph unicode="&#x10f;" horiz-adv-x="1257" d="M39 422q0 128 49 251t129 214t189 147t223 56q113 0 193 -61.5t114 -160.5l133 627h227l-262 -1229q-4 -24 -4 -30q0 -22 11 -31.5t36 -11.5l-41 -193q-65 -10 -92 -10q-63 0 -99 27.5t-36 76.5q0 33 16 101q-76 -101 -186.5 -158t-218.5 -57q-175 0 -278 126t-103 316z M1284 1270l158 225h213l-234 -270zM836 385l57 281q-12 97 -81 164t-155 67q-99 0 -188.5 -65t-141 -166t-51.5 -207q0 -124 66 -205.5t176 -81.5q84 0 179.5 62t138.5 151z" />
<glyph unicode="&#x110;" horiz-adv-x="1429" d="M846 1454q136 0 241 -43t170 -119.5t98.5 -177.5t33.5 -221q0 -190 -65 -356t-178 -284t-271 -185.5t-338 -67.5h-494l137 645h-100l37 172h100l135 637h494zM580 203q169 0 301 92t201 240.5t69 322.5q0 177 -90.5 285t-257.5 108h-262l-92 -434h286l-35 -172h-288 l-95 -442h263z" />
<glyph unicode="&#x111;" horiz-adv-x="1257" d="M1237 1221l-203 -955q-4 -24 -4 -30q0 -22 11 -31.5t36 -11.5l-41 -193q-65 -10 -92 -10q-63 0 -99 27.5t-36 76.5q0 33 16 101q-76 -101 -186.5 -158t-218.5 -57q-175 0 -278 126t-103 316q0 128 49 251t129 214t189 147t223 56q113 0 193 -61.5t114 -160.5l76 353h-178 l28 139h178l29 135h227l-28 -135h149l-28 -139h-152zM836 385l57 281q-12 97 -81 164t-155 67q-99 0 -188.5 -65t-141 -166t-51.5 -207q0 -124 66 -205.5t176 -81.5q84 0 179.5 62t138.5 151z" />
<glyph unicode="&#x112;" horiz-adv-x="1185" d="M551 1698l29 143h579l-31 -143h-577zM340 1454h932l-43 -203h-701l-88 -413h607l-39 -191h-609l-94 -444h719l-43 -203h-950z" />
<glyph unicode="&#x113;" horiz-adv-x="1116" d="M1071 1456l-31 -143h-577l29 143h579zM700 1090q170 0 269.5 -76.5t99.5 -218.5q0 -336 -600 -336q-101 0 -197 8q-2 -14 -2 -39q0 -126 60 -204.5t178 -78.5q88 0 170 44.5t129 119.5l178 -55q-79 -122 -220.5 -198t-295.5 -76q-198 0 -313 127t-115 325q0 129 51 249.5 t137.5 210.5t210 144t260.5 54zM473 606q387 0 387 182q0 67 -48.5 101.5t-135.5 34.5q-140 0 -236 -88t-139 -224q92 -6 172 -6z" />
<glyph unicode="&#x114;" horiz-adv-x="1185" d="M989 1878h125q-23 -108 -106 -179t-185 -71q-87 0 -139.5 53t-52.5 138q0 19 8 59h125q-4 -24 -4 -37q0 -45 24 -76.5t62 -31.5q43 0 83.5 41t59.5 104zM340 1454h932l-43 -203h-701l-88 -413h607l-39 -191h-609l-94 -444h719l-43 -203h-950z" />
<glyph unicode="&#x115;" horiz-adv-x="1116" d="M735 1243q-87 0 -139.5 53t-52.5 138q0 19 8 59h125q-4 -24 -4 -37q0 -45 24 -76.5t62 -31.5q43 0 83.5 41t59.5 104h125q-23 -108 -106 -179t-185 -71zM469 459q-101 0 -197 8q-2 -14 -2 -39q0 -126 60 -204.5t178 -78.5q88 0 170 44.5t129 119.5l178 -55 q-79 -122 -220.5 -198t-295.5 -76q-198 0 -313 127t-115 325q0 129 51 249.5t137.5 210.5t210 144t260.5 54q170 0 269.5 -76.5t99.5 -218.5q0 -336 -600 -336zM676 924q-140 0 -236 -88t-139 -224q92 -6 172 -6q387 0 387 182q0 67 -48.5 101.5t-135.5 34.5z" />
<glyph unicode="&#x116;" horiz-adv-x="1185" d="M727 1642l51 236h201l-49 -236h-203zM340 1454h932l-43 -203h-701l-88 -413h607l-39 -191h-609l-94 -444h719l-43 -203h-950z" />
<glyph unicode="&#x117;" horiz-adv-x="1116" d="M891 1493l-49 -236h-203l51 236h201zM469 459q-101 0 -197 8q-2 -14 -2 -39q0 -126 60 -204.5t178 -78.5q88 0 170 44.5t129 119.5l178 -55q-79 -122 -220.5 -198t-295.5 -76q-198 0 -313 127t-115 325q0 129 51 249.5t137.5 210.5t210 144t260.5 54q170 0 269.5 -76.5 t99.5 -218.5q0 -336 -600 -336zM676 924q-140 0 -236 -88t-139 -224q92 -6 172 -6q387 0 387 182q0 67 -48.5 101.5t-135.5 34.5z" />
<glyph unicode="&#x118;" horiz-adv-x="1185" d="M1229 1251h-701l-88 -413h607l-39 -191h-609l-94 -444h719l-43 -203q-85 -70 -122.5 -116t-37.5 -85q0 -57 92 -63l-79 -133q-82 10 -121 50t-39 95q0 126 166 252h-809l309 1454h932z" />
<glyph unicode="&#x119;" horiz-adv-x="1116" d="M469 459q-101 0 -197 8q-2 -14 -2 -39q0 -126 60 -204.5t178 -78.5q88 0 170 44.5t129 119.5l178 -55q-60 -92 -156.5 -159.5t-210.5 -96.5q-83 -69 -120 -115t-37 -84q0 -57 92 -63l-80 -133q-82 10 -121 50t-39 95q0 114 142 232q-193 6 -303.5 131.5t-110.5 320.5 q0 129 51 249.5t137.5 210.5t210 144t260.5 54q170 0 269.5 -76.5t99.5 -218.5q0 -336 -600 -336zM676 924q-140 0 -236 -88t-139 -224q92 -6 172 -6q387 0 387 182q0 67 -48.5 101.5t-135.5 34.5z" />
<glyph unicode="&#x11a;" horiz-adv-x="1185" d="M571 1821l131 57l138 -129l192 129l109 -57l-246 -195h-164zM340 1454h932l-43 -203h-701l-88 -413h607l-39 -191h-609l-94 -444h719l-43 -203h-950z" />
<glyph unicode="&#x11b;" horiz-adv-x="1116" d="M807 1241h-164l-160 195l131 57l138 -129l192 129l109 -57zM469 459q-101 0 -197 8q-2 -14 -2 -39q0 -126 60 -204.5t178 -78.5q88 0 170 44.5t129 119.5l178 -55q-79 -122 -220.5 -198t-295.5 -76q-198 0 -313 127t-115 325q0 129 51 249.5t137.5 210.5t210 144 t260.5 54q170 0 269.5 -76.5t99.5 -218.5q0 -336 -600 -336zM676 924q-140 0 -236 -88t-139 -224q92 -6 172 -6q387 0 387 182q0 67 -48.5 101.5t-135.5 34.5z" />
<glyph unicode="&#x11c;" horiz-adv-x="1415" d="M987 1751l-192 -129l-107 57l244 195h164l159 -195l-131 -57zM831 565l37 170h478l-156 -735h-193l39 180q-214 -190 -438 -190q-152 0 -271 82.5t-181 219.5t-62 302q0 167 70.5 327.5t185 279t268 191t312.5 72.5q191 0 310.5 -84.5t160.5 -232.5l-201 -127 q-32 116 -116.5 176.5t-205.5 60.5q-144 0 -272 -93.5t-202.5 -242.5t-74.5 -309q0 -178 93.5 -296.5t246.5 -118.5q214 0 426 215l33 153h-287z" />
<glyph unicode="&#x11d;" horiz-adv-x="1239" d="M461 1298l244 195h163l160 -195l-131 -57l-137 129l-193 -129zM-90 -227l151 118q39 -85 120.5 -130.5t187.5 -45.5q139 0 247 80.5t142 235.5l33 164q-71 -95 -177.5 -150t-212.5 -55q-111 0 -194.5 60t-125.5 157t-42 215q0 129 49.5 251.5t131 214t193.5 147t232 55.5 q117 0 196.5 -59.5t121.5 -162.5l43 203h198l-221 -1040q-32 -151 -128 -263t-230.5 -168.5t-290.5 -56.5q-163 0 -264.5 58.5t-159.5 171.5zM831 385l62 281q-15 101 -83.5 166t-156.5 65q-101 0 -190.5 -67t-140 -168t-50.5 -203q0 -122 67.5 -204.5t174.5 -82.5 q92 0 183.5 63t133.5 150z" />
<glyph unicode="&#x11e;" horiz-adv-x="1415" d="M956 1624q-87 0 -139.5 53t-52.5 138q0 19 8 59h125q-4 -24 -4 -37q0 -45 24 -76.5t62 -31.5q43 0 83.5 41t59.5 104h125q-23 -108 -106 -179t-185 -71zM831 565l37 170h478l-156 -735h-193l39 180q-214 -190 -438 -190q-152 0 -271 82.5t-181 219.5t-62 302 q0 167 70.5 327.5t185 279t268 191t312.5 72.5q191 0 310.5 -84.5t160.5 -232.5l-201 -127q-32 116 -116.5 176.5t-205.5 60.5q-144 0 -272 -93.5t-202.5 -242.5t-74.5 -309q0 -178 93.5 -296.5t246.5 -118.5q214 0 426 215l33 153h-287z" />
<glyph unicode="&#x11f;" horiz-adv-x="1239" d="M895 1493h125q-23 -108 -106 -179t-185 -71q-87 0 -139.5 53t-52.5 138q0 19 8 59h125q-4 -24 -4 -37q0 -45 24 -76.5t62 -31.5q43 0 83.5 41t59.5 104zM-90 -227l151 118q39 -85 120.5 -130.5t187.5 -45.5q139 0 247 80.5t142 235.5l33 164q-71 -95 -177.5 -150 t-212.5 -55q-111 0 -194.5 60t-125.5 157t-42 215q0 129 49.5 251.5t131 214t193.5 147t232 55.5q117 0 196.5 -59.5t121.5 -162.5l43 203h198l-221 -1040q-32 -151 -128 -263t-230.5 -168.5t-290.5 -56.5q-163 0 -264.5 58.5t-159.5 171.5zM831 385l62 281 q-15 101 -83.5 166t-156.5 65q-101 0 -190.5 -67t-140 -168t-50.5 -203q0 -122 67.5 -204.5t174.5 -82.5q92 0 183.5 63t133.5 150z" />
<glyph unicode="&#x120;" horiz-adv-x="1415" d="M1112 1874l-49 -236h-203l51 236h201zM831 565l37 170h478l-156 -735h-193l39 180q-214 -190 -438 -190q-152 0 -271 82.5t-181 219.5t-62 302q0 167 70.5 327.5t185 279t268 191t312.5 72.5q191 0 310.5 -84.5t160.5 -232.5l-201 -127q-32 116 -116.5 176.5t-205.5 60.5 q-144 0 -272 -93.5t-202.5 -242.5t-74.5 -309q0 -178 93.5 -296.5t246.5 -118.5q214 0 426 215l33 153h-287z" />
<glyph unicode="&#x121;" horiz-adv-x="1239" d="M633 1257l51 236h201l-49 -236h-203zM-90 -227l151 118q39 -85 120.5 -130.5t187.5 -45.5q139 0 247 80.5t142 235.5l33 164q-71 -95 -177.5 -150t-212.5 -55q-111 0 -194.5 60t-125.5 157t-42 215q0 129 49.5 251.5t131 214t193.5 147t232 55.5q117 0 196.5 -59.5 t121.5 -162.5l43 203h198l-221 -1040q-32 -151 -128 -263t-230.5 -168.5t-290.5 -56.5q-163 0 -264.5 58.5t-159.5 171.5zM831 385l62 281q-15 101 -83.5 166t-156.5 65q-101 0 -190.5 -67t-140 -168t-50.5 -203q0 -122 67.5 -204.5t174.5 -82.5q92 0 183.5 63t133.5 150z " />
<glyph unicode="&#x122;" horiz-adv-x="1415" d="M831 565l37 170h478l-156 -735h-193l39 180q-214 -190 -438 -190q-152 0 -271 82.5t-181 219.5t-62 302q0 167 70.5 327.5t185 279t268 191t312.5 72.5q191 0 310.5 -84.5t160.5 -232.5l-201 -127q-32 116 -116.5 176.5t-205.5 60.5q-144 0 -272 -93.5t-202.5 -242.5 t-74.5 -309q0 -178 93.5 -296.5t246.5 -118.5q214 0 426 215l33 153h-287zM481 -279l39 181h193l-39 -181l-103 -157h-106l82 157h-66z" />
<glyph unicode="&#x123;" horiz-adv-x="1239" d="M874 1493l-75 -131h61l-45 -164h-174l45 164l98 131h90zM-90 -227l151 118q39 -85 120.5 -130.5t187.5 -45.5q139 0 247 80.5t142 235.5l33 164q-71 -95 -177.5 -150t-212.5 -55q-111 0 -194.5 60t-125.5 157t-42 215q0 129 49.5 251.5t131 214t193.5 147t232 55.5 q117 0 196.5 -59.5t121.5 -162.5l43 203h198l-221 -1040q-32 -151 -128 -263t-230.5 -168.5t-290.5 -56.5q-163 0 -264.5 58.5t-159.5 171.5zM831 385l62 281q-15 101 -83.5 166t-156.5 65q-101 0 -190.5 -67t-140 -168t-50.5 -203q0 -122 67.5 -204.5t174.5 -82.5 q92 0 183.5 63t133.5 150z" />
<glyph unicode="&#x124;" horiz-adv-x="1464" d="M694 1683l244 195h164l160 -195l-132 -57l-137 129l-192 -129zM340 1454h231l-129 -608h680l129 608h230l-310 -1454h-229l137 641h-680l-137 -641h-231z" />
<glyph unicode="&#x125;" horiz-adv-x="1175" d="M573 1681l226 193h151l148 -193l-121 -57l-127 127l-178 -127zM317 1495h226l-135 -639q82 109 195 171.5t231 62.5q247 0 247 -261q0 -89 -20 -176l-137 -653h-226l127 600q15 84 15 121q0 84 -36.5 126t-105.5 42q-86 0 -184.5 -72t-151.5 -180l-137 -637h-225z" />
<glyph unicode="&#x126;" horiz-adv-x="1482" d="M1542 1233l-24 -115h-97l-237 -1118h-232l138 641h-680l-138 -641h-231l238 1118h-97l25 115h96l47 221h232l-47 -221h679l48 221h231l-47 -221h96zM1133 846l57 272h-680l-57 -272h680z" />
<glyph unicode="&#x127;" horiz-adv-x="1175" d="M834 1090q247 0 247 -261q0 -89 -20 -176l-137 -653h-226l127 600q15 84 15 121q0 84 -36.5 126t-105.5 42q-86 0 -184.5 -72t-151.5 -180l-137 -637h-225l260 1221h-131l29 139h131l28 135h226l-29 -135h199l-31 -139h-197l-77 -365q82 109 195 171.5t231 62.5z" />
<glyph unicode="&#x128;" horiz-adv-x="555" d="M389 1731q-25 0 -45.5 -9.5t-33 -23t-21 -28.5t-12 -25t-3.5 -13h-127q3 15 14.5 41t35 60.5t52.5 64t72.5 50t90.5 20.5q39 0 72 -14t52.5 -31t48.5 -31t60 -14q32 0 58.5 14t40.5 34t20 32.5t8 19.5h127q-2 -13 -13.5 -38t-35.5 -60t-55 -65t-76.5 -51.5t-95.5 -21.5 q-39 0 -74 14t-55.5 30.5t-48.5 30.5t-56 14zM340 1452h231l-309 -1452h-231z" />
<glyph unicode="&#x129;" horiz-adv-x="489" d="M408 1325q-25 0 -45.5 -9.5t-33 -22.5t-21 -28t-12 -25t-3.5 -13h-127q3 15 14.5 41t34.5 60t52.5 63.5t72.5 50t90 20.5q49 0 87.5 -22.5t73 -45t73.5 -22.5q32 0 58.5 14t40.5 34t20 33t8 20h127q-3 -17 -22 -52t-52 -78t-87.5 -74.5t-115.5 -31.5q-39 0 -73.5 13.5 t-55.5 30.5t-48.5 30.5t-55.5 13.5zM229 1071h226l-230 -1071h-225z" />
<glyph unicode="&#x12a;" horiz-adv-x="555" d="M221 1698l29 143h579l-30 -143h-578zM340 1452h231l-309 -1452h-231z" />
<glyph unicode="&#x12b;" horiz-adv-x="489" d="M100 1315l29 143h580l-31 -143h-578zM229 1071h226l-230 -1071h-225z" />
<glyph unicode="&#x12c;" horiz-adv-x="555" d="M659 1878h125q-23 -108 -105.5 -179t-184.5 -71q-87 0 -140 53t-53 138q0 19 8 59h125q-4 -24 -4 -37q0 -45 24 -76.5t62 -31.5q43 0 83.5 41t59.5 104zM340 1452h231l-309 -1452h-231z" />
<glyph unicode="&#x12d;" horiz-adv-x="489" d="M539 1495h125q-23 -108 -106 -179t-185 -71q-87 0 -140 53t-53 138q0 19 8 59h125q-4 -24 -4 -37q0 -45 24 -76.5t62 -31.5q43 0 84 41t60 104zM229 1071h226l-230 -1071h-225z" />
<glyph unicode="&#x12e;" horiz-adv-x="555" d="M262 0q-85 -70 -122.5 -116t-37.5 -85q0 -57 93 -63l-80 -133q-82 10 -121 50t-39 95q0 126 166 252h-90l309 1452h231z" />
<glyph unicode="&#x12f;" horiz-adv-x="489" d="M317 1495h226l-51 -248h-226zM0 0l229 1071h226l-230 -1071q-84 -69 -121.5 -115.5t-37.5 -85.5q0 -57 92 -63l-80 -133q-82 10 -121 50t-39 95q0 126 166 252h-84z" />
<glyph unicode="&#x130;" horiz-adv-x="555" d="M397 1642l52 236h200l-49 -236h-203zM340 1452h231l-309 -1452h-231z" />
<glyph unicode="&#x131;" horiz-adv-x="489" d="M229 1071h226l-230 -1071h-225z" />
<glyph unicode="&#x134;" horiz-adv-x="972" d="M659 1679l244 195h164l160 -195l-131 -57l-138 129l-192 -129zM-84 68l94 188q30 -28 91.5 -50t138.5 -22q58 0 104 14t82 46.5t62.5 72.5t50 105.5t41 131t38.5 161.5l158 737h230l-158 -737q-22 -104 -42.5 -181t-50.5 -158t-64 -138t-82.5 -109t-106.5 -83.5t-135 -50 t-170 -18.5q-173 0 -281 91z" />
<glyph unicode="&#x135;" horiz-adv-x="489" d="M125 1300l244 195h163l160 -195l-131 -57l-137 129l-193 -129zM-426 -299l133 152q36 -48 113 -48q57 0 108 45t64 111l235 1110h228l-234 -1094q-35 -160 -155.5 -264t-262.5 -104q-149 0 -229 92z" />
<glyph unicode="&#x136;" horiz-adv-x="1298" d="M340 1452h231l-159 -747l790 749h256l-678 -643l400 -811h-258l-316 670l-252 -232l-92 -438h-231zM397 -436l82 157h-65l39 181h192l-39 -181l-102 -157h-107z" />
<glyph unicode="&#x137;" horiz-adv-x="1128" d="M1073 864q0 -133 -85 -245.5t-243 -182.5l220 -436h-242l-231 504q177 38 276.5 123t99.5 182q0 92 -94 92q-121 0 -251 -123t-195 -297l-103 -481h-225l317 1495h226l-150 -702q212 294 461 294q108 0 163.5 -59.5t55.5 -163.5zM299 -279l39 181h192l-38 -181l-103 -157 h-106l82 157h-66z" />
<glyph unicode="&#x138;" horiz-adv-x="1081" d="M229 1071h226l-113 -524l565 522h242l-485 -448l284 -621h-241l-213 494l-199 -168l-70 -326h-225z" />
<glyph unicode="&#x139;" horiz-adv-x="1146" d="M537 1618l-144 37l156 225h215zM340 1454h231l-266 -1251h731l-43 -203h-962z" />
<glyph unicode="&#x13a;" horiz-adv-x="602" d="M524 1659l-143 37l156 225h215zM43 158q0 36 8 69l268 1268h224l-250 -1186q-6 -21 -6 -41q0 -40 23.5 -63t64.5 -23t112 27l-8 -176q-52 -22 -120 -35.5t-121 -13.5q-94 0 -144.5 45.5t-50.5 128.5z" />
<glyph unicode="&#x13b;" horiz-adv-x="1146" d="M340 1454h231l-266 -1251h731l-43 -203h-962zM340 -436l82 157h-66l39 181h193l-39 -181l-103 -157h-106z" />
<glyph unicode="&#x13c;" horiz-adv-x="602" d="M43 158q0 36 8 69l268 1268h224l-250 -1186q-6 -21 -6 -41q0 -40 23.5 -63t64.5 -23t112 27l-8 -176q-52 -22 -120 -35.5t-121 -13.5q-94 0 -144.5 45.5t-50.5 128.5zM86 -436l82 157h-66l39 181h193l-39 -181l-102 -157h-107z" />
<glyph unicode="&#x13d;" horiz-adv-x="1146" d="M899 1270l158 225h213l-234 -270zM340 1454h231l-266 -1251h731l-43 -203h-962z" />
<glyph unicode="&#x13e;" horiz-adv-x="602" d="M43 158q0 36 8 69l268 1268h224l-250 -1186q-6 -21 -6 -41q0 -40 23.5 -63t64.5 -23t112 27l-8 -176q-52 -22 -120 -35.5t-121 -13.5q-94 0 -144.5 45.5t-50.5 128.5zM541 1270l157 225h213l-233 -270z" />
<glyph unicode="&#x13f;" horiz-adv-x="1146" d="M340 1454h231l-266 -1251h731l-43 -203h-962zM678 698l59 281h187l-60 -281h-186z" />
<glyph unicode="&#x140;" horiz-adv-x="731" d="M43 158q0 36 8 69l268 1268h224l-250 -1186q-6 -21 -6 -41q0 -40 23.5 -63t64.5 -23t112 27l-8 -176q-52 -22 -120 -35.5t-121 -13.5q-94 0 -144.5 45.5t-50.5 128.5zM502 547l59 280h187l-60 -280h-186z" />
<glyph unicode="&#x141;" horiz-adv-x="1161" d="M305 203h731l-43 -203h-962l116 551l-102 -66l-33 125l172 109l156 735h231l-120 -565l292 184l33 -123l-360 -229z" />
<glyph unicode="&#x142;" horiz-adv-x="657" d="M340 268q0 -40 23 -63t65 -23t113 27l-9 -176q-122 -49 -241 -49q-94 0 -145.5 45.5t-51.5 128.5q0 19 8 69l88 416l-131 -78l-32 125l198 119l146 686h225l-113 -532l183 108l34 -123l-251 -149l-97 -457q-12 -46 -12 -74z" />
<glyph unicode="&#x143;" horiz-adv-x="1507" d="M1051 1614l-144 37l156 225h215zM340 1454h180l551 -1048l221 1046h232l-310 -1452h-188l-547 1024l-217 -1024h-231z" />
<glyph unicode="&#x144;" horiz-adv-x="1175" d="M901 1233l-143 37l155 225h215zM229 1071h203l-45 -215q80 108 204 171t257 63q237 0 237 -250q0 -74 -24 -187l-137 -653h-226l127 600q17 87 17 131q0 158 -131 158q-91 0 -192.5 -72.5t-156.5 -179.5l-137 -637h-225z" />
<glyph unicode="&#x145;" horiz-adv-x="1507" d="M340 1454h180l551 -1048l221 1046h232l-310 -1452h-188l-547 1024l-217 -1024h-231zM469 -436l82 157h-66l39 181h193l-39 -181l-103 -157h-106z" />
<glyph unicode="&#x146;" horiz-adv-x="1175" d="M229 1071h203l-45 -215q80 108 204 171t257 63q237 0 237 -250q0 -74 -24 -187l-137 -653h-226l127 600q17 87 17 131q0 158 -131 158q-91 0 -192.5 -72.5t-156.5 -179.5l-137 -637h-225zM307 -436l82 157h-65l38 181h193l-39 -181l-102 -157h-107z" />
<glyph unicode="&#x147;" horiz-adv-x="1507" d="M735 1817l131 57l138 -129l192 129l109 -57l-246 -195h-164zM340 1454h180l551 -1048l221 1046h232l-310 -1452h-188l-547 1024l-217 -1024h-231z" />
<glyph unicode="&#x148;" horiz-adv-x="1175" d="M586 1436l131 57l137 -129l193 129l108 -57l-246 -195h-164zM229 1071h203l-45 -215q80 108 204 171t257 63q237 0 237 -250q0 -74 -24 -187l-137 -653h-226l127 600q17 87 17 131q0 158 -131 158q-91 0 -192.5 -72.5t-156.5 -179.5l-137 -637h-225z" />
<glyph unicode="&#x14a;" horiz-adv-x="1486" d="M543 -299l131 152q36 -48 110 -48q58 0 109.5 45t64.5 111l19 82l-498 977l-217 -1020h-231l309 1454h178l533 -1036l221 1034h229l-315 -1483q-33 -157 -155 -258.5t-261 -101.5q-150 0 -227 92z" />
<glyph unicode="&#x14b;" horiz-adv-x="1175" d="M270 -299l133 152q36 -48 113 -48q55 0 107 45t67 111l135 639q17 87 17 131q0 158 -131 158q-91 0 -192.5 -72.5t-156.5 -179.5l-137 -637h-225l229 1071h203l-45 -215q80 108 204 171t257 63q237 0 237 -250q0 -70 -24 -187l-143 -676q-35 -160 -156 -264t-262 -104 q-150 0 -230 92z" />
<glyph unicode="&#x14c;" horiz-adv-x="1484" d="M690 1694l29 143h579l-30 -143h-578zM84 592q0 162 71 322t186 280.5t270 195t315 74.5q99 0 183.5 -33t145.5 -90.5t104.5 -134.5t65 -165.5t21.5 -182.5q0 -161 -70.5 -320t-184.5 -279t-269 -194.5t-314 -74.5q-123 0 -224 49.5t-165.5 133.5t-99.5 192t-35 227z M1210 842q0 113 -36.5 205t-113 150t-181.5 58q-115 0 -221 -58.5t-179 -150.5t-116.5 -207.5t-43.5 -228.5t36.5 -205t113.5 -150t184 -58q115 0 220.5 59t178 151.5t115.5 207.5t43 227z" />
<glyph unicode="&#x14d;" horiz-adv-x="1191" d="M457 1313l28 143h580l-31 -143h-577zM39 432q0 176 84 327t232 241t325 90q109 0 194 -35.5t137.5 -97.5t79.5 -143.5t27 -176.5q0 -131 -49.5 -251.5t-134.5 -210t-205.5 -142.5t-255.5 -53q-108 0 -192.5 35t-136.5 97.5t-78.5 143t-26.5 176.5zM883 606q0 131 -62 211 t-176 80q-95 0 -180.5 -56.5t-139 -158t-53.5 -221.5q0 -131 62.5 -210t175.5 -79q149 0 261 125.5t112 308.5z" />
<glyph unicode="&#x14e;" horiz-adv-x="1484" d="M1128 1874h125q-23 -108 -105.5 -179t-184.5 -71q-87 0 -140 53t-53 138q0 19 8 59h125q-4 -24 -4 -37q0 -45 24 -76.5t62 -31.5q43 0 83.5 41t59.5 104zM84 592q0 162 71 322t186 280.5t270 195t315 74.5q99 0 183.5 -33t145.5 -90.5t104.5 -134.5t65 -165.5 t21.5 -182.5q0 -161 -70.5 -320t-184.5 -279t-269 -194.5t-314 -74.5q-123 0 -224 49.5t-165.5 133.5t-99.5 192t-35 227zM1210 842q0 113 -36.5 205t-113 150t-181.5 58q-115 0 -221 -58.5t-179 -150.5t-116.5 -207.5t-43.5 -228.5t36.5 -205t113.5 -150t184 -58 q115 0 220.5 59t178 151.5t115.5 207.5t43 227z" />
<glyph unicode="&#x14f;" horiz-adv-x="1191" d="M895 1493h125q-23 -108 -106 -179t-185 -71q-87 0 -139.5 53t-52.5 138q0 19 8 59h125q-4 -24 -4 -37q0 -45 24 -76.5t62 -31.5q43 0 83.5 41t59.5 104zM39 432q0 176 84 327t232 241t325 90q109 0 194 -35.5t137.5 -97.5t79.5 -143.5t27 -176.5q0 -131 -49.5 -251.5 t-134.5 -210t-205.5 -142.5t-255.5 -53q-108 0 -192.5 35t-136.5 97.5t-78.5 143t-26.5 176.5zM883 606q0 131 -62 211t-176 80q-95 0 -180.5 -56.5t-139 -158t-53.5 -221.5q0 -131 62.5 -210t175.5 -79q149 0 261 125.5t112 308.5z" />
<glyph unicode="&#x150;" horiz-adv-x="1484" d="M846 1614l-111 35l146 225h182zM1139 1614l-109 35l144 225h182zM84 592q0 162 71 322t186 280.5t270 195t315 74.5q99 0 183.5 -33t145.5 -90.5t104.5 -134.5t65 -165.5t21.5 -182.5q0 -161 -70.5 -320t-184.5 -279t-269 -194.5t-314 -74.5q-123 0 -224 49.5 t-165.5 133.5t-99.5 192t-35 227zM1210 842q0 113 -36.5 205t-113 150t-181.5 58q-115 0 -221 -58.5t-179 -150.5t-116.5 -207.5t-43.5 -228.5t36.5 -205t113.5 -150t184 -58q115 0 220.5 59t178 151.5t115.5 207.5t43 227z" />
<glyph unicode="&#x151;" horiz-adv-x="1191" d="M612 1233l-110 35l145 225h182zM905 1233l-108 35l143 225h182zM39 432q0 176 84 327t232 241t325 90q109 0 194 -35.5t137.5 -97.5t79.5 -143.5t27 -176.5q0 -131 -49.5 -251.5t-134.5 -210t-205.5 -142.5t-255.5 -53q-108 0 -192.5 35t-136.5 97.5t-78.5 143 t-26.5 176.5zM883 606q0 131 -62 211t-176 80q-95 0 -180.5 -56.5t-139 -158t-53.5 -221.5q0 -131 62.5 -210t175.5 -79q149 0 261 125.5t112 308.5z" />
<glyph unicode="&#x152;" horiz-adv-x="2160" d="M84 590q0 131 44.5 261t124 239t182.5 194t228 132.5t252 47.5q135 0 230 -77.5t137 -202.5l55 270h914l-43 -203h-682l-86 -409h575l-43 -203h-575l-94 -436h698l-43 -203h-930l59 270q-96 -125 -226 -202.5t-263 -77.5q-120 0 -219 49.5t-162.5 133.5t-98 191.5 t-34.5 225.5zM1192 846q0 112 -36.5 204t-111.5 149.5t-176 57.5q-113 0 -216.5 -59t-175.5 -152t-114.5 -209t-42.5 -229t35.5 -204.5t110.5 -149t178 -57.5q113 0 217 59t175.5 152.5t114 209t42.5 228.5z" />
<glyph unicode="&#x153;" horiz-adv-x="1990" d="M39 424q0 134 54.5 258t144 213t209.5 142t247 53q134 0 225 -74.5t125 -208.5q201 283 478 283q193 0 304 -123.5t111 -327.5q0 -111 -32 -178h-807q-4 -18 -4 -55q0 -115 67.5 -190t175.5 -75q90 0 175 47.5t126 120.5l177 -55q-83 -124 -225.5 -199t-293.5 -75 q-251 0 -366 274q-223 -274 -471 -274q-191 0 -305.5 124.5t-114.5 319.5zM1714 604q4 36 4 58q0 118 -65.5 190t-171.5 72q-120 0 -221 -90t-138 -230h592zM883 614q0 123 -62.5 203t-165.5 80q-148 0 -265.5 -133.5t-117.5 -312.5q0 -122 63.5 -200.5t166.5 -78.5 q149 0 265 132t116 310z" />
<glyph unicode="&#x154;" horiz-adv-x="1304" d="M907 1618l-143 37l156 225h215zM31 0l309 1454h604q154 0 247 -117t93 -276q0 -164 -105.5 -310.5t-260.5 -197.5l204 -553h-260l-188 506h-305l-107 -506h-231zM782 709q103 0 184 101.5t81 225.5q0 91 -45.5 153t-114.5 62h-359l-116 -542h370z" />
<glyph unicode="&#x155;" horiz-adv-x="749" d="M584 1233l-144 37l156 225h215zM229 1071h209l-53 -240q80 112 178.5 179t192.5 67q29 0 53 -4l-43 -196q-123 -3 -230 -61.5t-171 -160.5l-140 -655h-225z" />
<glyph unicode="&#x156;" horiz-adv-x="1304" d="M31 0l309 1454h604q154 0 247 -117t93 -276q0 -164 -105.5 -310.5t-260.5 -197.5l204 -553h-260l-188 506h-305l-107 -506h-231zM782 709q103 0 184 101.5t81 225.5q0 91 -45.5 153t-114.5 62h-359l-116 -542h370zM348 -436l82 157h-65l38 181h193l-39 -181l-102 -157 h-107z" />
<glyph unicode="&#x157;" horiz-adv-x="749" d="M229 1071h209l-53 -240q80 112 178.5 179t192.5 67q29 0 53 -4l-43 -196q-123 -3 -230 -61.5t-171 -160.5l-140 -655h-225zM-55 -436l82 157h-66l39 181h193l-39 -181l-103 -157h-106z" />
<glyph unicode="&#x158;" horiz-adv-x="1304" d="M592 1821l131 57l137 -129l193 129l108 -57l-246 -195h-163zM31 0l309 1454h604q154 0 247 -117t93 -276q0 -164 -105.5 -310.5t-260.5 -197.5l204 -553h-260l-188 506h-305l-107 -506h-231zM782 709q103 0 184 101.5t81 225.5q0 91 -45.5 153t-114.5 62h-359l-116 -542 h370z" />
<glyph unicode="&#x159;" horiz-adv-x="749" d="M268 1436l131 57l138 -129l192 129l109 -57l-246 -195h-164zM229 1071h209l-53 -240q80 112 178.5 179t192.5 67q29 0 53 -4l-43 -196q-123 -3 -230 -61.5t-171 -160.5l-140 -655h-225z" />
<glyph unicode="&#x15a;" horiz-adv-x="1208" d="M905 1640l-143 37l156 226h215zM-35 182l150 197q40 -64 163 -125t267 -61q145 0 224 58.5t79 162.5q0 35 -16 63.5t-41 49t-70.5 40.5t-88 33.5t-110.5 32.5q-172 50 -253 120t-81 191q0 159 84.5 279t221 180.5t301.5 60.5q134 0 245.5 -45t190.5 -119l-144 -188 q-30 51 -129.5 99.5t-212.5 48.5q-150 0 -227.5 -64.5t-77.5 -173.5q0 -32 13 -57.5t34 -44t61 -36t79.5 -30t103.5 -29.5q92 -25 155.5 -51.5t116 -66t78 -95.5t25.5 -129q0 -125 -50 -222.5t-136 -156.5t-193 -88.5t-229 -29.5q-158 0 -296.5 50.5t-236.5 145.5z" />
<glyph unicode="&#x15b;" horiz-adv-x="976" d="M696 1233l-143 37l156 225h215zM-51 141l121 144q150 -138 329 -138q104 0 168 45t64 119q0 21 -5 37t-19.5 29.5t-27.5 22.5t-43.5 20.5t-52 18t-67.5 20.5q-71 21 -113 36t-83 36t-61.5 44.5t-33 56t-12.5 75.5q0 166 135.5 274.5t335.5 108.5q231 0 366 -144 l-125 -135q-110 113 -260 113q-104 0 -167.5 -42.5t-63.5 -121.5q0 -54 36.5 -77.5t149.5 -55.5q181 -51 259.5 -110t78.5 -169q0 -159 -133.5 -263.5t-349.5 -104.5q-131 0 -243.5 42t-182.5 119z" />
<glyph unicode="&#x15c;" horiz-adv-x="1208" d="M573 1706l244 195h164l160 -195l-131 -57l-138 129l-192 -129zM-35 182l150 197q40 -64 163 -125t267 -61q145 0 224 58.5t79 162.5q0 35 -16 63.5t-41 49t-70.5 40.5t-88 33.5t-110.5 32.5q-172 50 -253 120t-81 191q0 159 84.5 279t221 180.5t301.5 60.5 q134 0 245.5 -45t190.5 -119l-144 -188q-30 51 -129.5 99.5t-212.5 48.5q-150 0 -227.5 -64.5t-77.5 -173.5q0 -32 13 -57.5t34 -44t61 -36t79.5 -30t103.5 -29.5q92 -25 155.5 -51.5t116 -66t78 -95.5t25.5 -129q0 -125 -50 -222.5t-136 -156.5t-193 -88.5t-229 -29.5 q-158 0 -296.5 50.5t-236.5 145.5z" />
<glyph unicode="&#x15d;" horiz-adv-x="976" d="M365 1298l243 195h164l160 -195l-131 -57l-137 129l-193 -129zM-51 141l121 144q150 -138 329 -138q104 0 168 45t64 119q0 21 -5 37t-19.5 29.5t-27.5 22.5t-43.5 20.5t-52 18t-67.5 20.5q-71 21 -113 36t-83 36t-61.5 44.5t-33 56t-12.5 75.5q0 166 135.5 274.5 t335.5 108.5q231 0 366 -144l-125 -135q-110 113 -260 113q-104 0 -167.5 -42.5t-63.5 -121.5q0 -54 36.5 -77.5t149.5 -55.5q181 -51 259.5 -110t78.5 -169q0 -159 -133.5 -263.5t-349.5 -104.5q-131 0 -243.5 42t-182.5 119z" />
<glyph unicode="&#x15e;" horiz-adv-x="1208" d="M731 825q92 -25 155.5 -51.5t116 -66t78 -95.5t25.5 -129q0 -115 -42.5 -207t-117 -151t-168.5 -93t-205 -44q54 -67 54 -148q0 -103 -68.5 -169t-183.5 -66q-109 0 -197 59l84 121q56 -43 109 -43q58 0 93.5 32t35.5 89q0 62 -60 125q-140 8 -263 58t-212 136l150 197 q40 -64 163 -125t267 -61q145 0 224 58.5t79 162.5q0 35 -16 63.5t-41 49t-70.5 40.5t-88 33.5t-110.5 32.5q-172 50 -253 120t-81 191q0 159 84.5 279t221 180.5t301.5 60.5q134 0 245.5 -45t190.5 -119l-144 -188q-30 51 -129.5 99.5t-212.5 48.5q-150 0 -227.5 -64.5 t-77.5 -173.5q0 -32 13 -57.5t34 -44t61 -36t79.5 -30t103.5 -29.5z" />
<glyph unicode="&#x15f;" horiz-adv-x="976" d="M520 627q181 -51 259.5 -110t78.5 -169q0 -141 -106.5 -240.5t-286.5 -121.5q49 -73 49 -146q0 -103 -68.5 -169t-183.5 -66q-108 0 -196 59l84 121q56 -43 108 -43q58 0 93.5 32t35.5 89q0 63 -53 119q-119 6 -220.5 47t-164.5 112l121 144q150 -138 329 -138 q104 0 168 45t64 119q0 21 -5 37t-19.5 29.5t-27.5 22.5t-43.5 20.5t-52 18t-67.5 20.5q-71 21 -113 36t-83 36t-61.5 44.5t-33 56t-12.5 75.5q0 166 135.5 274.5t335.5 108.5q231 0 366 -144l-125 -135q-110 113 -260 113q-104 0 -167.5 -42.5t-63.5 -121.5 q0 -54 36.5 -77.5t149.5 -55.5z" />
<glyph unicode="&#x160;" horiz-adv-x="1208" d="M590 1843l131 58l137 -129l193 129l108 -58l-246 -194h-163zM-35 182l150 197q40 -64 163 -125t267 -61q145 0 224 58.5t79 162.5q0 35 -16 63.5t-41 49t-70.5 40.5t-88 33.5t-110.5 32.5q-172 50 -253 120t-81 191q0 159 84.5 279t221 180.5t301.5 60.5q134 0 245.5 -45 t190.5 -119l-144 -188q-30 51 -129.5 99.5t-212.5 48.5q-150 0 -227.5 -64.5t-77.5 -173.5q0 -32 13 -57.5t34 -44t61 -36t79.5 -30t103.5 -29.5q92 -25 155.5 -51.5t116 -66t78 -95.5t25.5 -129q0 -125 -50 -222.5t-136 -156.5t-193 -88.5t-229 -29.5q-158 0 -296.5 50.5 t-236.5 145.5z" />
<glyph unicode="&#x161;" horiz-adv-x="976" d="M381 1436l131 57l137 -129l193 129l108 -57l-245 -195h-164zM-51 141l121 144q150 -138 329 -138q104 0 168 45t64 119q0 21 -5 37t-19.5 29.5t-27.5 22.5t-43.5 20.5t-52 18t-67.5 20.5q-71 21 -113 36t-83 36t-61.5 44.5t-33 56t-12.5 75.5q0 166 135.5 274.5 t335.5 108.5q231 0 366 -144l-125 -135q-110 113 -260 113q-104 0 -167.5 -42.5t-63.5 -121.5q0 -54 36.5 -77.5t149.5 -55.5q181 -51 259.5 -110t78.5 -169q0 -159 -133.5 -263.5t-349.5 -104.5q-131 0 -243.5 42t-182.5 119z" />
<glyph unicode="&#x162;" horiz-adv-x="1206" d="M209 1454h1141l-43 -203h-455l-266 -1251h-39q61 -74 61 -160q0 -103 -68.5 -169t-183.5 -66q-108 0 -196 59l84 121q56 -43 108 -43q58 0 93.5 32t35.5 89q0 69 -71 137h-54l265 1251h-455z" />
<glyph unicode="&#x163;" horiz-adv-x="727" d="M473 897l-127 -598q-4 -20 -4 -31q0 -39 23 -58.5t61 -19.5q61 0 156 43l8 -178q-44 -27 -113 -47t-141 -24q49 -65 49 -144q0 -103 -68.5 -169t-183.5 -66q-108 0 -196 59l83 121q56 -43 109 -43q58 0 93.5 32t35.5 89q0 68 -72 137l7 4q-97 43 -97 156q0 34 8 67 l144 670h-137l39 174h133l75 352h226l-76 -352h221l-37 -174h-219z" />
<glyph unicode="&#x164;" horiz-adv-x="1206" d="M563 1817l131 57l137 -129l193 129l109 -57l-246 -195h-164zM621 1251h-455l43 203h1141l-43 -203h-455l-266 -1251h-230z" />
<glyph unicode="&#x165;" horiz-adv-x="727" d="M625 1270l157 225h213l-233 -270zM96 160q0 34 8 67l144 670h-137l39 174h133l75 352h226l-76 -352h221l-37 -174h-219l-127 -598q-4 -20 -4 -31q0 -39 23 -58.5t61 -19.5q61 0 156 43l8 -178q-49 -30 -128 -50.5t-159 -20.5q-93 0 -150 44t-57 132z" />
<glyph unicode="&#x166;" horiz-adv-x="1265" d="M1335 1251h-454l-97 -456h385l-24 -115h-385l-146 -680h-231l145 680h-387l25 115h387l96 456h-454l43 203h1140z" />
<glyph unicode="&#x167;" horiz-adv-x="727" d="M692 897h-219l-41 -188h209l-31 -138h-207l-57 -272q-4 -20 -4 -31q0 -39 23 -58.5t61 -19.5q61 0 156 43l8 -178q-49 -30 -128 -50.5t-159 -20.5q-93 0 -150 44t-57 132q0 34 8 67l74 344h-139l31 138h137l41 188h-137l39 174h133l75 352h226l-76 -352h221z" />
<glyph unicode="&#x168;" horiz-adv-x="1478" d="M840 1726q-25 0 -45.5 -9.5t-33 -22.5t-21 -28t-12 -25t-3.5 -13h-127q3 15 14.5 41t34.5 60.5t52.5 64t72.5 50t90 20.5q49 0 87.5 -22.5t73 -45t73.5 -22.5q32 0 58.5 14t40.5 34t20 32.5t8 19.5h127q-3 -17 -22 -52t-52 -78t-87.5 -74.5t-115.5 -31.5q-39 0 -73.5 14 t-55.5 30t-48.5 30t-55.5 14zM135 477q0 108 29 240l155 737h232l-158 -737q-22 -110 -22 -199q0 -71 14.5 -127.5t46.5 -101t87 -68.5t130 -24q82 0 153 29.5t122.5 78.5t92.5 117t67.5 140.5t43.5 154.5l156 737h232l-158 -737q-26 -122 -69.5 -228.5t-109 -199 t-148.5 -158.5t-191.5 -103.5t-233.5 -37.5t-218 37t-147 105t-80 153.5t-26 191.5z" />
<glyph unicode="&#x169;" horiz-adv-x="1200" d="M645 1348q-25 0 -45.5 -9.5t-33 -23t-21 -28.5t-12 -25t-3.5 -13h-127q3 15 14.5 41t35 60.5t52.5 64t72.5 50t90.5 20.5q39 0 72 -14t52.5 -31t48.5 -31t60 -14q32 0 58.5 14t40.5 34t20 32.5t8 19.5h127q-2 -13 -13.5 -38t-35.5 -59.5t-55 -65t-76.5 -51.5t-95.5 -21 t-90.5 22t-75 44t-68.5 22zM57 246q0 60 21 170l141 655h223l-131 -610q-14 -66 -14 -123q0 -166 141 -166q91 0 182.5 60.5t159.5 170.5l142 668h225l-170 -805q-6 -18 -6 -30q0 -40 47 -43l-39 -193q-68 -10 -94 -10q-63 0 -97 26t-34 76q0 30 18 125 q-91 -116 -212 -176.5t-253 -60.5q-124 0 -187 67.5t-63 198.5z" />
<glyph unicode="&#x16a;" horiz-adv-x="1478" d="M672 1694l28 143h580l-31 -143h-577zM135 477q0 108 29 240l155 737h232l-158 -737q-22 -110 -22 -199q0 -71 14.5 -127.5t46.5 -101t87 -68.5t130 -24q82 0 153 29.5t122.5 78.5t92.5 117t67.5 140.5t43.5 154.5l156 737h232l-158 -737q-26 -122 -69.5 -228.5t-109 -199 t-148.5 -158.5t-191.5 -103.5t-233.5 -37.5t-218 37t-147 105t-80 153.5t-26 191.5z" />
<glyph unicode="&#x16b;" horiz-adv-x="1200" d="M477 1315l29 143h579l-30 -143h-578zM57 246q0 60 21 170l141 655h223l-131 -610q-14 -66 -14 -123q0 -166 141 -166q91 0 182.5 60.5t159.5 170.5l142 668h225l-170 -805q-6 -18 -6 -30q0 -40 47 -43l-39 -193q-68 -10 -94 -10q-63 0 -97 26t-34 76q0 30 18 125 q-91 -116 -212 -176.5t-253 -60.5q-124 0 -187 67.5t-63 198.5z" />
<glyph unicode="&#x16c;" horiz-adv-x="1478" d="M1110 1874h125q-23 -108 -106 -179t-185 -71q-87 0 -139.5 53t-52.5 138q0 19 8 59h125q-4 -24 -4 -37q0 -45 24 -76.5t62 -31.5q43 0 83.5 41t59.5 104zM135 477q0 108 29 240l155 737h232l-158 -737q-22 -110 -22 -199q0 -71 14.5 -127.5t46.5 -101t87 -68.5t130 -24 q82 0 153 29.5t122.5 78.5t92.5 117t67.5 140.5t43.5 154.5l156 737h232l-158 -737q-26 -122 -69.5 -228.5t-109 -199t-148.5 -158.5t-191.5 -103.5t-233.5 -37.5t-218 37t-147 105t-80 153.5t-26 191.5z" />
<glyph unicode="&#x16d;" horiz-adv-x="1200" d="M915 1495h125q-23 -108 -105.5 -179t-184.5 -71q-87 0 -140 53t-53 138q0 19 8 59h125q-4 -24 -4 -37q0 -45 24 -76.5t62 -31.5q43 0 83.5 41t59.5 104zM57 246q0 60 21 170l141 655h223l-131 -610q-14 -66 -14 -123q0 -166 141 -166q91 0 182.5 60.5t159.5 170.5 l142 668h225l-170 -805q-6 -18 -6 -30q0 -40 47 -43l-39 -193q-68 -10 -94 -10q-63 0 -97 26t-34 76q0 30 18 125q-91 -116 -212 -176.5t-253 -60.5q-124 0 -187 67.5t-63 198.5z" />
<glyph unicode="&#x16e;" horiz-adv-x="1478" d="M1001 1874q69 0 108.5 -32t39.5 -89q0 -79 -60 -128.5t-153 -49.5q-68 0 -108 33t-40 88q0 80 61 129t152 49zM889 1712q0 -27 17 -45t46 -18q37 0 68 26.5t31 63.5q0 28 -18.5 44.5t-47.5 16.5q-38 0 -67 -25.5t-29 -62.5zM135 477q0 108 29 240l155 737h232l-158 -737 q-22 -110 -22 -199q0 -71 14.5 -127.5t46.5 -101t87 -68.5t130 -24q82 0 153 29.5t122.5 78.5t92.5 117t67.5 140.5t43.5 154.5l156 737h232l-158 -737q-26 -122 -69.5 -228.5t-109 -199t-148.5 -158.5t-191.5 -103.5t-233.5 -37.5t-218 37t-147 105t-80 153.5t-26 191.5z " />
<glyph unicode="&#x16f;" horiz-adv-x="1200" d="M807 1495q69 0 108 -32t39 -89q0 -79 -60 -128.5t-153 -49.5q-67 0 -107 32.5t-40 88.5q0 80 61 129t152 49zM694 1333q0 -27 17.5 -45t46.5 -18q37 0 67.5 26.5t30.5 63.5q0 28 -18 44.5t-47 16.5q-38 0 -67.5 -25.5t-29.5 -62.5zM57 246q0 60 21 170l141 655h223 l-131 -610q-14 -66 -14 -123q0 -166 141 -166q91 0 182.5 60.5t159.5 170.5l142 668h225l-170 -805q-6 -18 -6 -30q0 -40 47 -43l-39 -193q-68 -10 -94 -10q-63 0 -97 26t-34 76q0 30 18 125q-91 -116 -212 -176.5t-253 -60.5q-124 0 -187 67.5t-63 198.5z" />
<glyph unicode="&#x170;" horiz-adv-x="1478" d="M827 1614l-110 35l145 225h182zM1120 1614l-108 35l143 225h182zM135 477q0 108 29 240l155 737h232l-158 -737q-22 -110 -22 -199q0 -71 14.5 -127.5t46.5 -101t87 -68.5t130 -24q82 0 153 29.5t122.5 78.5t92.5 117t67.5 140.5t43.5 154.5l156 737h232l-158 -737 q-26 -122 -69.5 -228.5t-109 -199t-148.5 -158.5t-191.5 -103.5t-233.5 -37.5t-218 37t-147 105t-80 153.5t-26 191.5z" />
<glyph unicode="&#x171;" horiz-adv-x="1200" d="M633 1235l-111 35l146 225h182zM926 1235l-109 35l144 225h182zM57 246q0 60 21 170l141 655h223l-131 -610q-14 -66 -14 -123q0 -166 141 -166q91 0 182.5 60.5t159.5 170.5l142 668h225l-170 -805q-6 -18 -6 -30q0 -40 47 -43l-39 -193q-68 -10 -94 -10q-63 0 -97 26 t-34 76q0 30 18 125q-91 -116 -212 -176.5t-253 -60.5q-124 0 -187 67.5t-63 198.5z" />
<glyph unicode="&#x172;" horiz-adv-x="1478" d="M1284 1454h232l-158 -737q-29 -139 -83 -258.5t-132.5 -217.5t-188.5 -161.5t-241 -81.5q-83 -71 -119.5 -116t-36.5 -83q0 -57 92 -63l-80 -133q-82 10 -120.5 50t-38.5 95q0 121 153 244q-113 6 -197.5 45.5t-134 106t-73 149.5t-23.5 184q0 108 29 240l155 737h232 l-158 -737q-22 -110 -22 -199q0 -71 14.5 -127.5t46.5 -101t87 -68.5t130 -24q82 0 153 29.5t122.5 78.5t92.5 117t67.5 140.5t43.5 154.5z" />
<glyph unicode="&#x173;" horiz-adv-x="1200" d="M971 236q0 -40 47 -43l-39 -193q-85 -70 -122.5 -116t-37.5 -85q0 -57 92 -63l-80 -133q-82 10 -120.5 50t-38.5 95q0 122 159 248q-77 19 -77 96q0 30 18 125q-91 -116 -212 -176.5t-253 -60.5q-124 0 -187 67.5t-63 198.5q0 60 21 170l141 655h223l-131 -610 q-14 -66 -14 -123q0 -166 141 -166q91 0 182.5 60.5t159.5 170.5l142 668h225l-170 -805q-6 -18 -6 -30z" />
<glyph unicode="&#x174;" horiz-adv-x="2052" d="M958 1679l244 195h164l160 -195l-131 -57l-138 129l-192 -129zM180 1454h248l170 -1188l313 535l-98 647h215l62 -494l272 494h215l-373 -647l84 -535l674 1188h252l-879 -1454h-194l-115 651l-393 -651h-195z" />
<glyph unicode="&#x175;" horiz-adv-x="1593" d="M647 1298l244 195h164l159 -195l-131 -57l-137 129l-192 -129zM94 1071h225l150 -870q113 155 209 313l-131 557h213l67 -340q82 162 140 340h196q-88 -283 -256 -551l70 -297q168 230 274 429t172 419h209q-155 -507 -610 -1071h-201l-67 324q-147 -216 -226 -324h-221z " />
<glyph unicode="&#x176;" d="M535 1679l243 195h164l160 -195l-131 -57l-137 129l-193 -129zM485 524l-311 930h252l217 -729l533 729h249l-710 -934l-111 -520h-231z" />
<glyph unicode="&#x177;" horiz-adv-x="1044" d="M358 1298l244 195h164l160 -195l-131 -57l-138 129l-192 -129zM-82 -287q127 13 188 47.5t127 130.5l60 86l-193 1094h232l121 -872l69 114q150 244 222.5 407t117.5 351h221q-56 -199 -138 -367t-283 -493l-164 -264q-141 -227 -262.5 -317.5t-286.5 -92.5z" />
<glyph unicode="&#x178;" d="M541 1638l49 226h186l-47 -226h-188zM893 1638l47 226h186l-47 -226h-186zM485 524l-311 930h252l217 -729l533 729h249l-710 -934l-111 -520h-231z" />
<glyph unicode="&#x179;" horiz-adv-x="1224" d="M905 1618l-143 37l156 225h215zM-33 176l1053 1075h-803l43 203h1071l-37 -176l-1032 -1075h805l-43 -203h-1096z" />
<glyph unicode="&#x17a;" horiz-adv-x="962" d="M692 1235l-143 37l156 225h215zM-45 141l756 770h-572l35 160h817l-30 -141l-752 -770h594l-35 -160h-844z" />
<glyph unicode="&#x17b;" horiz-adv-x="1224" d="M745 1642l52 236h200l-49 -236h-203zM-33 176l1053 1075h-803l43 203h1071l-37 -176l-1032 -1075h805l-43 -203h-1096z" />
<glyph unicode="&#x17c;" horiz-adv-x="962" d="M532 1260l52 235h200l-49 -235h-203zM-45 141l756 770h-572l35 160h817l-30 -141l-752 -770h594l-35 -160h-844z" />
<glyph unicode="&#x17d;" horiz-adv-x="1224" d="M590 1821l131 57l137 -129l193 129l108 -57l-246 -195h-163zM-33 176l1053 1075h-803l43 203h1071l-37 -176l-1032 -1075h805l-43 -203h-1096z" />
<glyph unicode="&#x17e;" horiz-adv-x="962" d="M377 1438l131 57l137 -129l193 129l108 -57l-246 -195h-163zM-45 141l756 770h-572l35 160h817l-30 -141l-752 -770h594l-35 -160h-844z" />
<glyph unicode="&#x18f;" horiz-adv-x="1458" d="M49 578q0 130 47 233h1071q4 46 4 70q0 166 -91 270t-234 104q-121 0 -235.5 -70t-168.5 -179l-211 88q113 167 295.5 268.5t374.5 101.5q158 0 277.5 -81.5t180 -215t60.5 -297.5q0 -169 -68 -330.5t-180.5 -282t-267 -194t-319.5 -73.5q-161 0 -284.5 81.5t-187 214.5 t-63.5 292zM1126 623h-835q-8 -41 -8 -93q0 -145 94 -240t254 -95q164 0 302.5 120.5t192.5 307.5z" />
<glyph unicode="&#x192;" horiz-adv-x="1062" d="M-133 -299l131 152q39 -48 113 -48q58 0 109.5 45t64.5 111l172 811h-135l36 174h136l30 141q41 196 155 312.5t263 116.5q126 0 227 -66l-84 -168q-57 43 -135 43q-73 0 -124 -59t-74 -172l-33 -148h258l-37 -174h-258l-172 -805q-33 -155 -153.5 -256.5t-260.5 -101.5 q-152 0 -229 92z" />
<glyph unicode="&#x1a0;" horiz-adv-x="1484" d="M1245 1350q96 -85 148.5 -216t52.5 -276q0 -161 -70.5 -320t-184.5 -279t-269 -194.5t-314 -74.5q-123 0 -224 49.5t-165.5 133.5t-99.5 192t-35 227q0 162 71 322t186 280.5t270 195t315 74.5q49 0 104 -10q127 0 174 47q24 24 35.5 52.5t22.5 76.5h174 q-19 -76 -45.5 -133t-79.5 -104q-28 -25 -66 -43zM653 197q115 0 220.5 59t178 151.5t115.5 207.5t43 227q0 113 -36.5 205t-113 150t-181.5 58q-115 0 -221 -58.5t-179 -150.5t-116.5 -207.5t-43.5 -228.5t36.5 -205t113.5 -150t184 -58z" />
<glyph unicode="&#x1a1;" horiz-adv-x="1191" d="M1233 1247q-19 -76 -45.5 -133t-79.5 -104q-36 -33 -94 -58q104 -118 104 -315q0 -131 -49.5 -251.5t-134.5 -210t-205.5 -142.5t-255.5 -53q-108 0 -192.5 35t-136.5 97.5t-78.5 143t-26.5 176.5q0 176 84 327t232 241t325 90q77 0 145 -19q70 0 110 10.5t66 36.5 q24 24 35.5 52.5t22.5 76.5h174zM510 172q149 0 261 125.5t112 308.5q0 131 -62 211t-176 80q-95 0 -180.5 -56.5t-139 -158t-53.5 -221.5q0 -131 62.5 -210t175.5 -79z" />
<glyph unicode="&#x1af;" horiz-adv-x="1478" d="M1630 1628h174q-19 -76 -45.5 -133t-79.5 -104q-66 -63 -196 -86l-125 -588q-26 -122 -69.5 -228.5t-109 -199t-148.5 -158.5t-191.5 -103.5t-233.5 -37.5t-218 37t-147 105t-80 153.5t-26 191.5q0 108 29 240l155 737h232l-158 -737q-22 -110 -22 -199 q0 -71 14.5 -127.5t46.5 -101t87 -68.5t130 -24q82 0 153 29.5t122.5 78.5t92.5 117t67.5 140.5t43.5 154.5l156 737h166q84 6 123 45q24 24 35 52t22 77z" />
<glyph unicode="&#x1b0;" horiz-adv-x="1200" d="M1274 1239h174q-19 -76 -45.5 -133.5t-79.5 -104.5q-75 -69 -209 -88l-137 -647q-6 -18 -6 -30q0 -40 47 -43l-39 -193q-68 -10 -94 -10q-63 0 -97 26t-34 76q0 30 18 125q-91 -116 -212 -176.5t-253 -60.5q-124 0 -187 67.5t-63 198.5q0 60 21 170l141 655h223 l-131 -610q-14 -66 -14 -123q0 -166 141 -166q91 0 182.5 60.5t159.5 170.5l142 668h217q51 12 78 39q24 24 35 52t22 77z" />
<glyph unicode="&#x1e6;" horiz-adv-x="1415" d="M1028 1622h-164l-159 195l131 57l137 -129l192 129l109 -57zM831 565l37 170h478l-156 -735h-193l39 180q-214 -190 -438 -190q-152 0 -271 82.5t-181 219.5t-62 302q0 167 70.5 327.5t185 279t268 191t312.5 72.5q191 0 310.5 -84.5t160.5 -232.5l-201 -127 q-32 116 -116.5 176.5t-205.5 60.5q-144 0 -272 -93.5t-202.5 -242.5t-74.5 -309q0 -178 93.5 -296.5t246.5 -118.5q214 0 426 215l33 153h-287z" />
<glyph unicode="&#x1e7;" horiz-adv-x="1239" d="M477 1436l131 57l137 -129l193 129l109 -57l-246 -195h-164zM-90 -227l151 118q39 -85 120.5 -130.5t187.5 -45.5q139 0 247 80.5t142 235.5l33 164q-71 -95 -177.5 -150t-212.5 -55q-111 0 -194.5 60t-125.5 157t-42 215q0 129 49.5 251.5t131 214t193.5 147t232 55.5 q117 0 196.5 -59.5t121.5 -162.5l43 203h198l-221 -1040q-32 -151 -128 -263t-230.5 -168.5t-290.5 -56.5q-163 0 -264.5 58.5t-159.5 171.5zM831 385l62 281q-15 101 -83.5 166t-156.5 65q-101 0 -190.5 -67t-140 -168t-50.5 -203q0 -122 67.5 -204.5t174.5 -82.5 q92 0 183.5 63t133.5 150z" />
<glyph unicode="&#x1ea;" horiz-adv-x="1484" d="M700 -4q-82 -68 -118.5 -113t-36.5 -84q0 -57 92 -63l-80 -133q-82 10 -121 50t-39 95q0 121 156 244q-146 14 -254.5 101.5t-161.5 217t-53 281.5q0 162 71 322t186 280.5t270 195t315 74.5q99 0 183.5 -33t145.5 -90.5t104.5 -134.5t65 -165.5t21.5 -182.5 q0 -150 -61 -298.5t-162 -265t-238.5 -197.5t-284.5 -101zM319 610q0 -113 36.5 -205t113.5 -150t184 -58q115 0 220.5 59t178 151.5t115.5 207.5t43 227q0 113 -36.5 205t-113 150t-181.5 58q-115 0 -221 -58.5t-179 -150.5t-116.5 -207.5t-43.5 -228.5z" />
<glyph unicode="&#x1eb;" horiz-adv-x="1191" d="M567 -14q-76 -63 -109.5 -106.5t-33.5 -80.5q0 -57 92 -63l-80 -133q-82 10 -121 50t-39 95q0 117 144 234q-187 17 -284 141.5t-97 308.5q0 176 84 327t232 241t325 90q109 0 194 -35.5t137.5 -97.5t79.5 -143.5t27 -176.5q0 -160 -70.5 -301t-197 -234t-283.5 -116z M272 461q0 -131 62.5 -210t175.5 -79q149 0 261 125.5t112 308.5q0 131 -62 211t-176 80q-95 0 -180.5 -56.5t-139 -158t-53.5 -221.5z" />
<glyph unicode="&#x1fa;" horiz-adv-x="1329" d="M1055 1604q0 -53 -28 -93.5t-77 -62.5l234 -1448h-242l-57 395h-523l-223 -395h-241l847 1450q-51 31 -51 96t42 111t110 61l143 197h215l-198 -215q49 -30 49 -96zM891 1651q-38 0 -67 -25.5t-29 -62.5q0 -27 17.5 -45.5t45.5 -18.5q37 0 67.5 26.5t30.5 63.5 q0 28 -18 45t-47 17zM438 565h439l-82 625z" />
<glyph unicode="&#x1fb;" d="M934 1659l-143 37l155 225h215zM836 1495q69 0 108 -32t39 -89q0 -79 -60 -128.5t-153 -49.5q-67 0 -107 32.5t-40 88.5q0 80 61 129t152 49zM723 1333q0 -27 17 -45t46 -18q37 0 68 26.5t31 63.5q0 28 -18.5 44.5t-47.5 16.5q-38 0 -67 -25.5t-29 -62.5zM39 422 q0 128 49 251t129 214t189 147t223 56q113 0 193 -61.5t114 -160.5l43 201h227l-172 -803q-4 -24 -4 -30q0 -22 11 -31.5t36 -11.5l-41 -193q-65 -10 -92 -10q-64 0 -98.5 27.5t-34.5 78.5q0 33 14 99q-76 -101 -186.5 -158t-218.5 -57q-175 0 -278 126t-103 316zM836 385 l57 281q-12 97 -81 164t-155 67q-99 0 -188.5 -65t-141 -166t-51.5 -207q0 -124 66 -205.5t176 -81.5q84 0 179.5 62t138.5 151z" />
<glyph unicode="&#x1fc;" horiz-adv-x="1896" d="M1346 1614l-144 37l156 225h215zM1014 1454h973l-45 -203h-680l-86 -409h575l-43 -203h-575l-95 -436h699l-43 -203h-928l86 395h-461l-307 -395h-248zM877 600l127 590l-469 -590h342z" />
<glyph unicode="&#x1fd;" horiz-adv-x="1824" d="M1044 1233l-143 37l156 225h215zM-16 256q0 171 147.5 284t362.5 113q138 0 231 -41q4 15 24.5 70.5t20.5 87.5q0 71 -52 115.5t-147 44.5q-148 0 -346 -123l-39 143q231 140 443 140q241 0 315 -175q85 81 190.5 128t219.5 47q132 0 228.5 -61t144 -161.5t47.5 -226.5 q0 -93 -35 -180h-824q-4 -36 -4 -55q0 -117 70.5 -189t179.5 -72q86 0 169.5 45.5t125.5 118.5l182 -55q-80 -122 -220 -198t-298 -76q-139 0 -238.5 60.5t-146.5 166.5q-88 -113 -219.5 -170t-245.5 -57q-131 0 -208.5 77.5t-77.5 198.5zM1548 604q4 40 4 60 q0 118 -64.5 189t-174.5 71q-124 0 -227.5 -90t-143.5 -230h606zM694 319q-6 24 -6 60q0 53 10 108q-92 37 -194 37q-128 0 -213.5 -63.5t-85.5 -159.5q0 -68 42.5 -112t121.5 -44q90 0 191.5 53t133.5 121z" />
<glyph unicode="&#x1fe;" horiz-adv-x="1484" d="M1253 1876l-227 -262l-143 37l155 225h215zM1538 1454l-192 -223q100 -161 100 -373q0 -161 -70.5 -320t-184.5 -279t-269 -194.5t-314 -74.5q-149 0 -272 76l-57 -66h-250l172 199q-117 159 -117 393q0 162 71 322t186 280.5t270 195t315 74.5q165 0 291 -92l71 82h250z M319 610q0 -125 46 -223l698 809q-78 59 -184 59q-115 0 -221 -58.5t-179 -150.5t-116.5 -207.5t-43.5 -228.5zM1210 842q0 103 -32 194l-691 -794q73 -45 166 -45q115 0 220.5 59t178 151.5t115.5 207.5t43 227z" />
<glyph unicode="&#x1ff;" horiz-adv-x="1191" d="M1174 1495l-228 -262l-143 37l155 225h216zM1020 1077h133l-135 -131q100 -121 100 -305q0 -125 -51 -245.5t-137.5 -212t-210 -147.5t-258.5 -56q-156 0 -262 83l-70 -69h-131l137 133q-96 122 -96 299q0 127 51.5 248t138.5 212.5t210 147.5t257 56q152 0 256 -80z M653 897q-144 0 -262.5 -133t-118.5 -309q0 -92 35 -160l490 549q-63 53 -144 53zM502 172q94 0 182.5 59t144.5 162t56 219q0 94 -37 164l-492 -549q61 -55 146 -55z" />
<glyph unicode="&#x200;" horiz-adv-x="1329" d="M569 1882h181l49 -225l-123 -39zM862 1882h180l52 -225l-125 -39zM748 1454h202l234 -1454h-242l-57 395h-523l-223 -395h-241zM877 565l-82 625l-357 -625h439z" />
<glyph unicode="&#x201;" d="M459 1499h180l49 -225l-123 -39zM752 1499h180l51 -225l-125 -39zM39 422q0 128 49 251t129 214t189 147t223 56q113 0 193 -61.5t114 -160.5l43 201h227l-172 -803q-4 -24 -4 -30q0 -22 11 -31.5t36 -11.5l-41 -193q-65 -10 -92 -10q-64 0 -98.5 27.5t-34.5 78.5 q0 33 14 99q-76 -101 -186.5 -158t-218.5 -57q-175 0 -278 126t-103 316zM836 385l57 281q-12 97 -81 164t-155 67q-99 0 -188.5 -65t-141 -166t-51.5 -207q0 -124 66 -205.5t176 -81.5q84 0 179.5 62t138.5 151z" />
<glyph unicode="&#x202;" horiz-adv-x="1329" d="M936 1880q87 0 139.5 -55t52.5 -139q0 -29 -6 -56h-123q5 50 5 56q0 46 -20 68t-64 22q-119 0 -148 -146h-123q22 107 104.5 178.5t182.5 71.5zM748 1454h202l234 -1454h-242l-57 395h-523l-223 -395h-241zM877 565l-82 625l-357 -625h439z" />
<glyph unicode="&#x203;" d="M825 1497q87 0 140 -55t53 -139q0 -29 -6 -56h-123q4 40 4 56q0 46 -20 68t-64 22q-118 0 -147 -146h-123q22 107 104 178.5t182 71.5zM39 422q0 128 49 251t129 214t189 147t223 56q113 0 193 -61.5t114 -160.5l43 201h227l-172 -803q-4 -24 -4 -30q0 -22 11 -31.5 t36 -11.5l-41 -193q-65 -10 -92 -10q-64 0 -98.5 27.5t-34.5 78.5q0 33 14 99q-76 -101 -186.5 -158t-218.5 -57q-175 0 -278 126t-103 316zM836 385l57 281q-12 97 -81 164t-155 67q-99 0 -188.5 -65t-141 -166t-51.5 -207q0 -124 66 -205.5t176 -81.5q84 0 179.5 62 t138.5 151z" />
<glyph unicode="&#x204;" horiz-adv-x="1185" d="M504 1882h180l49 -225l-123 -39zM797 1882h180l51 -225l-125 -39zM340 1454h932l-43 -203h-701l-88 -413h607l-39 -191h-609l-94 -444h719l-43 -203h-950z" />
<glyph unicode="&#x205;" horiz-adv-x="1116" d="M645 1272l-123 -39l-106 264h180zM940 1272l-125 -39l-106 264h180zM469 459q-101 0 -197 8q-2 -14 -2 -39q0 -126 60 -204.5t178 -78.5q88 0 170 44.5t129 119.5l178 -55q-79 -122 -220.5 -198t-295.5 -76q-198 0 -313 127t-115 325q0 129 51 249.5t137.5 210.5t210 144 t260.5 54q170 0 269.5 -76.5t99.5 -218.5q0 -336 -600 -336zM676 924q-140 0 -236 -88t-139 -224q92 -6 172 -6q387 0 387 182q0 67 -48.5 101.5t-135.5 34.5z" />
<glyph unicode="&#x206;" horiz-adv-x="1185" d="M870 1880q87 0 140 -55t53 -139q0 -29 -6 -56h-123q4 40 4 56q0 46 -20 68t-64 22q-118 0 -147 -146h-123q22 107 104 178.5t182 71.5zM340 1454h932l-43 -203h-701l-88 -413h607l-39 -191h-609l-94 -444h719l-43 -203h-950z" />
<glyph unicode="&#x207;" horiz-adv-x="1116" d="M766 1391q-119 0 -148 -146h-122q22 107 104 178.5t182 71.5q87 0 140 -55.5t53 -139.5q0 -28 -6 -55h-123q4 40 4 55q0 91 -84 91zM469 459q-101 0 -197 8q-2 -14 -2 -39q0 -126 60 -204.5t178 -78.5q88 0 170 44.5t129 119.5l178 -55q-79 -122 -220.5 -198t-295.5 -76 q-198 0 -313 127t-115 325q0 129 51 249.5t137.5 210.5t210 144t260.5 54q170 0 269.5 -76.5t99.5 -218.5q0 -336 -600 -336zM676 924q-140 0 -236 -88t-139 -224q92 -6 172 -6q387 0 387 182q0 67 -48.5 101.5t-135.5 34.5z" />
<glyph unicode="&#x208;" horiz-adv-x="555" d="M174 1882h180l49 -225l-122 -39zM467 1882h180l51 -225l-125 -39zM340 1452h231l-309 -1452h-231z" />
<glyph unicode="&#x209;" horiz-adv-x="489" d="M53 1499h180l50 -225l-123 -39zM346 1499h180l52 -225l-125 -39zM229 1071h226l-230 -1071h-225z" />
<glyph unicode="&#x20a;" horiz-adv-x="555" d="M541 1880q87 0 139.5 -55t52.5 -139q0 -29 -6 -56h-123q4 40 4 56q0 46 -20 68t-64 22q-118 0 -147 -146h-123q22 107 104.5 178.5t182.5 71.5zM340 1452h231l-309 -1452h-231z" />
<glyph unicode="&#x20b;" horiz-adv-x="489" d="M420 1497q87 0 139.5 -55t52.5 -139q0 -29 -6 -56h-123q4 40 4 56q0 46 -20 68t-64 22q-118 0 -147 -146h-123q22 107 104.5 178.5t182.5 71.5zM229 1071h226l-230 -1071h-225z" />
<glyph unicode="&#x20c;" horiz-adv-x="1484" d="M643 1878h180l49 -225l-122 -39zM936 1878h180l51 -225l-125 -39zM84 592q0 162 71 322t186 280.5t270 195t315 74.5q99 0 183.5 -33t145.5 -90.5t104.5 -134.5t65 -165.5t21.5 -182.5q0 -161 -70.5 -320t-184.5 -279t-269 -194.5t-314 -74.5q-123 0 -224 49.5 t-165.5 133.5t-99.5 192t-35 227zM1210 842q0 113 -36.5 205t-113 150t-181.5 58q-115 0 -221 -58.5t-179 -150.5t-116.5 -207.5t-43.5 -228.5t36.5 -205t113.5 -150t184 -58q115 0 220.5 59t178 151.5t115.5 207.5t43 227z" />
<glyph unicode="&#x20d;" horiz-adv-x="1191" d="M410 1497h180l49 -225l-123 -39zM702 1497h181l51 -225l-125 -39zM39 432q0 176 84 327t232 241t325 90q109 0 194 -35.5t137.5 -97.5t79.5 -143.5t27 -176.5q0 -131 -49.5 -251.5t-134.5 -210t-205.5 -142.5t-255.5 -53q-108 0 -192.5 35t-136.5 97.5t-78.5 143 t-26.5 176.5zM883 606q0 131 -62 211t-176 80q-95 0 -180.5 -56.5t-139 -158t-53.5 -221.5q0 -131 62.5 -210t175.5 -79q149 0 261 125.5t112 308.5z" />
<glyph unicode="&#x20e;" horiz-adv-x="1484" d="M1010 1876q87 0 139.5 -55.5t52.5 -139.5q0 -28 -6 -55h-123q4 40 4 55q0 91 -84 91q-118 0 -147 -146h-123q22 107 104.5 178.5t182.5 71.5zM84 592q0 162 71 322t186 280.5t270 195t315 74.5q99 0 183.5 -33t145.5 -90.5t104.5 -134.5t65 -165.5t21.5 -182.5 q0 -161 -70.5 -320t-184.5 -279t-269 -194.5t-314 -74.5q-123 0 -224 49.5t-165.5 133.5t-99.5 192t-35 227zM1210 842q0 113 -36.5 205t-113 150t-181.5 58q-115 0 -221 -58.5t-179 -150.5t-116.5 -207.5t-43.5 -228.5t36.5 -205t113.5 -150t184 -58q115 0 220.5 59 t178 151.5t115.5 207.5t43 227z" />
<glyph unicode="&#x20f;" horiz-adv-x="1191" d="M776 1495q87 0 140 -55.5t53 -139.5q0 -28 -6 -55h-123q4 40 4 55q0 91 -84 91q-119 0 -148 -146h-123q22 107 104.5 178.5t182.5 71.5zM39 432q0 176 84 327t232 241t325 90q109 0 194 -35.5t137.5 -97.5t79.5 -143.5t27 -176.5q0 -131 -49.5 -251.5t-134.5 -210 t-205.5 -142.5t-255.5 -53q-108 0 -192.5 35t-136.5 97.5t-78.5 143t-26.5 176.5zM883 606q0 131 -62 211t-176 80q-95 0 -180.5 -56.5t-139 -158t-53.5 -221.5q0 -131 62.5 -210t175.5 -79q149 0 261 125.5t112 308.5z" />
<glyph unicode="&#x210;" horiz-adv-x="1304" d="M524 1882h181l49 -225l-123 -39zM817 1882h180l52 -225l-125 -39zM31 0l309 1454h604q154 0 247 -117t93 -276q0 -164 -105.5 -310.5t-260.5 -197.5l204 -553h-260l-188 506h-305l-107 -506h-231zM782 709q103 0 184 101.5t81 225.5q0 91 -45.5 153t-114.5 62h-359 l-116 -542h370z" />
<glyph unicode="&#x211;" horiz-adv-x="749" d="M201 1497h180l49 -225l-123 -39zM494 1497h180l51 -225l-125 -39zM229 1071h209l-53 -240q80 112 178.5 179t192.5 67q29 0 53 -4l-43 -196q-123 -3 -230 -61.5t-171 -160.5l-140 -655h-225z" />
<glyph unicode="&#x212;" horiz-adv-x="1304" d="M891 1880q87 0 139.5 -55t52.5 -139q0 -29 -6 -56h-123q4 40 4 56q0 46 -20 68t-64 22q-118 0 -147 -146h-123q22 107 104.5 178.5t182.5 71.5zM31 0l309 1454h604q154 0 247 -117t93 -276q0 -164 -105.5 -310.5t-260.5 -197.5l204 -553h-260l-188 506h-305l-107 -506 h-231zM782 709q103 0 184 101.5t81 225.5q0 91 -45.5 153t-114.5 62h-359l-116 -542h370z" />
<glyph unicode="&#x213;" horiz-adv-x="749" d="M567 1495q87 0 140 -55.5t53 -139.5q0 -28 -6 -55h-123q4 40 4 55q0 91 -84 91q-119 0 -148 -146h-122q22 107 104 178.5t182 71.5zM229 1071h209l-53 -240q80 112 178.5 179t192.5 67q29 0 53 -4l-43 -196q-123 -3 -230 -61.5t-171 -160.5l-140 -655h-225z" />
<glyph unicode="&#x214;" horiz-adv-x="1478" d="M625 1878h180l49 -225l-123 -39zM918 1878h180l51 -225l-125 -39zM135 477q0 108 29 240l155 737h232l-158 -737q-22 -110 -22 -199q0 -71 14.5 -127.5t46.5 -101t87 -68.5t130 -24q82 0 153 29.5t122.5 78.5t92.5 117t67.5 140.5t43.5 154.5l156 737h232l-158 -737 q-26 -122 -69.5 -228.5t-109 -199t-148.5 -158.5t-191.5 -103.5t-233.5 -37.5t-218 37t-147 105t-80 153.5t-26 191.5z" />
<glyph unicode="&#x215;" horiz-adv-x="1200" d="M430 1499h180l49 -225l-122 -39zM723 1499h180l51 -225l-125 -39zM57 246q0 60 21 170l141 655h223l-131 -610q-14 -66 -14 -123q0 -166 141 -166q91 0 182.5 60.5t159.5 170.5l142 668h225l-170 -805q-6 -18 -6 -30q0 -40 47 -43l-39 -193q-68 -10 -94 -10q-63 0 -97 26 t-34 76q0 30 18 125q-91 -116 -212 -176.5t-253 -60.5q-124 0 -187 67.5t-63 198.5z" />
<glyph unicode="&#x216;" horiz-adv-x="1478" d="M991 1876q87 0 140 -55.5t53 -139.5q0 -28 -6 -55h-123q4 40 4 55q0 91 -84 91q-119 0 -148 -146h-122q22 107 104 178.5t182 71.5zM135 477q0 108 29 240l155 737h232l-158 -737q-22 -110 -22 -199q0 -71 14.5 -127.5t46.5 -101t87 -68.5t130 -24q82 0 153 29.5 t122.5 78.5t92.5 117t67.5 140.5t43.5 154.5l156 737h232l-158 -737q-26 -122 -69.5 -228.5t-109 -199t-148.5 -158.5t-191.5 -103.5t-233.5 -37.5t-218 37t-147 105t-80 153.5t-26 191.5z" />
<glyph unicode="&#x217;" horiz-adv-x="1200" d="M797 1497q87 0 139.5 -55t52.5 -139q0 -29 -6 -56h-123q4 40 4 56q0 46 -20 68t-64 22q-118 0 -147 -146h-123q22 107 104.5 178.5t182.5 71.5zM57 246q0 60 21 170l141 655h223l-131 -610q-14 -66 -14 -123q0 -166 141 -166q91 0 182.5 60.5t159.5 170.5l142 668h225 l-170 -805q-6 -18 -6 -30q0 -40 47 -43l-39 -193q-68 -10 -94 -10q-63 0 -97 26t-34 76q0 30 18 125q-91 -116 -212 -176.5t-253 -60.5q-124 0 -187 67.5t-63 198.5z" />
<glyph unicode="&#x218;" horiz-adv-x="1208" d="M-35 182l150 197q40 -64 163 -125t267 -61q145 0 224 58.5t79 162.5q0 35 -16 63.5t-41 49t-70.5 40.5t-88 33.5t-110.5 32.5q-172 50 -253 120t-81 191q0 159 84.5 279t221 180.5t301.5 60.5q134 0 245.5 -45t190.5 -119l-144 -188q-30 51 -129.5 99.5t-212.5 48.5 q-150 0 -227.5 -64.5t-77.5 -173.5q0 -32 13 -57.5t34 -44t61 -36t79.5 -30t103.5 -29.5q92 -25 155.5 -51.5t116 -66t78 -95.5t25.5 -129q0 -125 -50 -222.5t-136 -156.5t-193 -88.5t-229 -29.5q-158 0 -296.5 50.5t-236.5 145.5zM319 -436l82 157h-65l39 181h192l-39 -181 l-102 -157h-107z" />
<glyph unicode="&#x219;" horiz-adv-x="976" d="M-51 141l121 144q150 -138 329 -138q104 0 168 45t64 119q0 21 -5 37t-19.5 29.5t-27.5 22.5t-43.5 20.5t-52 18t-67.5 20.5q-71 21 -113 36t-83 36t-61.5 44.5t-33 56t-12.5 75.5q0 166 135.5 274.5t335.5 108.5q231 0 366 -144l-125 -135q-110 113 -260 113 q-104 0 -167.5 -42.5t-63.5 -121.5q0 -54 36.5 -77.5t149.5 -55.5q181 -51 259.5 -110t78.5 -169q0 -159 -133.5 -263.5t-349.5 -104.5q-131 0 -243.5 42t-182.5 119zM207 -436l82 157h-66l39 181h193l-39 -181l-103 -157h-106z" />
<glyph unicode="&#x21a;" horiz-adv-x="1206" d="M621 1251h-455l43 203h1141l-43 -203h-455l-266 -1251h-230zM301 -436l82 157h-66l39 181h193l-39 -181l-102 -157h-107z" />
<glyph unicode="&#x21b;" horiz-adv-x="727" d="M96 160q0 34 8 67l144 670h-137l39 174h133l75 352h226l-76 -352h221l-37 -174h-219l-127 -598q-4 -20 -4 -31q0 -39 23 -58.5t61 -19.5q61 0 156 43l8 -178q-49 -30 -128 -50.5t-159 -20.5q-93 0 -150 44t-57 132zM78 -436l82 157h-66l39 181h193l-39 -181l-103 -157 h-106z" />
<glyph unicode="&#x22a;" horiz-adv-x="1484" d="M780 2107l29 144h580l-31 -144h-578zM700 1638l50 226h186l-47 -226h-189zM1053 1638l47 226h186l-47 -226h-186zM84 592q0 162 71 322t186 280.5t270 195t315 74.5q99 0 183.5 -33t145.5 -90.5t104.5 -134.5t65 -165.5t21.5 -182.5q0 -161 -70.5 -320t-184.5 -279 t-269 -194.5t-314 -74.5q-123 0 -224 49.5t-165.5 133.5t-99.5 192t-35 227zM1210 842q0 113 -36.5 205t-113 150t-181.5 58q-115 0 -221 -58.5t-179 -150.5t-116.5 -207.5t-43.5 -228.5t36.5 -205t113.5 -150t184 -58q115 0 220.5 59t178 151.5t115.5 207.5t43 227z" />
<glyph unicode="&#x22b;" horiz-adv-x="1191" d="M547 1726l28 144h580l-31 -144h-577zM467 1257l49 226h186l-47 -226h-188zM819 1257l47 226h187l-47 -226h-187zM39 432q0 176 84 327t232 241t325 90q109 0 194 -35.5t137.5 -97.5t79.5 -143.5t27 -176.5q0 -131 -49.5 -251.5t-134.5 -210t-205.5 -142.5t-255.5 -53 q-108 0 -192.5 35t-136.5 97.5t-78.5 143t-26.5 176.5zM883 606q0 131 -62 211t-176 80q-95 0 -180.5 -56.5t-139 -158t-53.5 -221.5q0 -131 62.5 -210t175.5 -79q149 0 261 125.5t112 308.5z" />
<glyph unicode="&#x22c;" horiz-adv-x="1484" d="M780 2118l29 143h580l-31 -143h-578zM858 1726q-25 0 -45.5 -9.5t-33 -22.5t-21 -28t-12 -25t-3.5 -13h-127q3 15 14.5 41t35 60.5t52.5 64t72.5 50t90.5 20.5q39 0 72 -14t52.5 -31t48.5 -31t60 -14q32 0 58.5 14t40.5 34t20 32.5t8 19.5h127q-2 -13 -13.5 -38 t-35.5 -60t-55 -65t-76.5 -51.5t-95.5 -21.5t-90.5 22t-75 44t-68.5 22zM84 592q0 162 71 322t186 280.5t270 195t315 74.5q99 0 183.5 -33t145.5 -90.5t104.5 -134.5t65 -165.5t21.5 -182.5q0 -161 -70.5 -320t-184.5 -279t-269 -194.5t-314 -74.5q-123 0 -224 49.5 t-165.5 133.5t-99.5 192t-35 227zM1210 842q0 113 -36.5 205t-113 150t-181.5 58q-115 0 -221 -58.5t-179 -150.5t-116.5 -207.5t-43.5 -228.5t36.5 -205t113.5 -150t184 -58q115 0 220.5 59t178 151.5t115.5 207.5t43 227z" />
<glyph unicode="&#x22d;" horiz-adv-x="1191" d="M547 1737l28 143h580l-31 -143h-577zM625 1346q-25 0 -45.5 -9.5t-33 -23t-21 -28.5t-12 -25t-3.5 -13h-127q3 15 14.5 41t34.5 60.5t52.5 64t72.5 50t90 20.5q49 0 87.5 -22.5t73 -45t73.5 -22.5q32 0 58.5 14t40.5 34t20 32.5t8 19.5h127q-3 -17 -22 -52t-52 -78 t-87.5 -74.5t-115.5 -31.5q-50 0 -90.5 22.5t-74.5 44.5t-68 22zM39 432q0 176 84 327t232 241t325 90q109 0 194 -35.5t137.5 -97.5t79.5 -143.5t27 -176.5q0 -131 -49.5 -251.5t-134.5 -210t-205.5 -142.5t-255.5 -53q-108 0 -192.5 35t-136.5 97.5t-78.5 143t-26.5 176.5 zM883 606q0 131 -62 211t-176 80q-95 0 -180.5 -56.5t-139 -158t-53.5 -221.5q0 -131 62.5 -210t175.5 -79q149 0 261 125.5t112 308.5z" />
<glyph unicode="&#x230;" horiz-adv-x="1484" d="M780 2118l29 143h580l-31 -143h-578zM866 1638l52 236h200l-49 -236h-203zM84 592q0 162 71 322t186 280.5t270 195t315 74.5q99 0 183.5 -33t145.5 -90.5t104.5 -134.5t65 -165.5t21.5 -182.5q0 -161 -70.5 -320t-184.5 -279t-269 -194.5t-314 -74.5q-123 0 -224 49.5 t-165.5 133.5t-99.5 192t-35 227zM1210 842q0 113 -36.5 205t-113 150t-181.5 58q-115 0 -221 -58.5t-179 -150.5t-116.5 -207.5t-43.5 -228.5t36.5 -205t113.5 -150t184 -58q115 0 220.5 59t178 151.5t115.5 207.5t43 227z" />
<glyph unicode="&#x231;" horiz-adv-x="1191" d="M547 1737l28 143h580l-31 -143h-577zM633 1257l51 236h201l-49 -236h-203zM39 432q0 176 84 327t232 241t325 90q109 0 194 -35.5t137.5 -97.5t79.5 -143.5t27 -176.5q0 -131 -49.5 -251.5t-134.5 -210t-205.5 -142.5t-255.5 -53q-108 0 -192.5 35t-136.5 97.5t-78.5 143 t-26.5 176.5zM883 606q0 131 -62 211t-176 80q-95 0 -180.5 -56.5t-139 -158t-53.5 -221.5q0 -131 62.5 -210t175.5 -79q149 0 261 125.5t112 308.5z" />
<glyph unicode="&#x232;" d="M530 1694l29 143h580l-31 -143h-578zM485 524l-311 930h252l217 -729l533 729h249l-710 -934l-111 -520h-231z" />
<glyph unicode="&#x233;" horiz-adv-x="1044" d="M354 1313l29 143h580l-31 -143h-578zM-82 -287q127 13 188 47.5t127 130.5l60 86l-193 1094h232l121 -872l69 114q150 244 222.5 407t117.5 351h221q-56 -199 -138 -367t-283 -493l-164 -264q-141 -227 -262.5 -317.5t-286.5 -92.5z" />
<glyph unicode="&#x237;" horiz-adv-x="489" d="M-426 -299l133 152q36 -48 113 -48q57 0 108 45t64 111l235 1110h228l-234 -1094q-35 -160 -155.5 -264t-262.5 -104q-149 0 -229 92z" />
<glyph unicode="&#x259;" horiz-adv-x="1171" d="M442 -20q-200 0 -313 118.5t-113 304.5q0 115 37 205h807q4 36 4 58q0 116 -65 186t-168 70q-85 0 -169 -45.5t-128 -116.5l-180 55q80 122 221 198.5t301 76.5q196 0 310 -128t114 -321q0 -170 -85.5 -321.5t-238.5 -245.5t-334 -94zM479 145q118 0 218.5 90t138.5 230 h-590q-4 -20 -4 -59q0 -117 65.5 -189t171.5 -72z" />
<glyph unicode="&#x2b9;" horiz-adv-x="464" d="M236 1024l118 453h178l-167 -453h-129z" />
<glyph unicode="&#x2ba;" horiz-adv-x="907" d="M236 1024l118 453h178l-167 -453h-129zM678 1024l119 453h178l-168 -453h-129z" />
<glyph unicode="&#x2bb;" horiz-adv-x="389" d="M477 1495l-76 -131h62l-45 -164h-174l45 164l98 131h90z" />
<glyph unicode="&#x2bc;" horiz-adv-x="448" d="M377 1225l-125 45l135 225h197z" />
<glyph unicode="&#x2be;" horiz-adv-x="274" d="M195 1174l24 86q30 0 57 35.5t27 86.5q0 29 -10 46.5t-25 17.5l25 90q48 0 74 -36.5t26 -98.5q0 -100 -57.5 -163.5t-140.5 -63.5z" />
<glyph unicode="&#x2bf;" horiz-adv-x="272" d="M330 1174q-47 0 -74 36t-27 97q0 98 58 163.5t141 65.5l-27 -90q-31 0 -55 -34.5t-24 -86.5q0 -28 8.5 -46.5t23.5 -18.5z" />
<glyph unicode="&#x2c6;" horiz-adv-x="774" d="M266 1300l244 195h164l160 -195l-132 -57l-137 129l-192 -129z" />
<glyph unicode="&#x2c7;" horiz-adv-x="774" d="M295 1438l131 57l137 -129l193 129l108 -57l-246 -195h-163z" />
<glyph unicode="&#x2c8;" horiz-adv-x="409" d="M422 1587v-817h-193v817h193z" />
<glyph unicode="&#x2c9;" horiz-adv-x="790" d="M285 1319l34 143h551l-34 -143h-551z" />
<glyph unicode="&#x2cb;" horiz-adv-x="442" d="M260 1024l70 453h180l-121 -453h-129z" />
<glyph unicode="&#x2cc;" horiz-adv-x="411" d="M203 551v-817h-193v817h193z" />
<glyph unicode="&#x2d8;" horiz-adv-x="679" d="M657 1495h125q-23 -108 -105.5 -179t-184.5 -71q-87 0 -140 53t-53 138q0 19 8 59h125q-4 -24 -4 -37q0 -45 24 -76.5t62 -31.5q43 0 83.5 41t59.5 104z" />
<glyph unicode="&#x2d9;" horiz-adv-x="407" d="M256 1260l51 235h201l-49 -235h-203z" />
<glyph unicode="&#x2da;" horiz-adv-x="561" d="M485 1495q69 0 108.5 -32t39.5 -89q0 -79 -60 -128.5t-153 -49.5q-68 0 -108 33t-40 88q0 80 61 129t152 49zM373 1333q0 -27 17 -45t46 -18q37 0 68 26.5t31 63.5q0 28 -18.5 44.5t-47.5 16.5q-38 0 -67 -25.5t-29 -62.5z" />
<glyph unicode="&#x2db;" horiz-adv-x="462" d="M-59 -252q0 148 225 293h67l15 -41q-85 -70 -122.5 -116t-37.5 -85q0 -57 92 -63l-80 -133q-82 10 -120.5 50t-38.5 95z" />
<glyph unicode="&#x2dc;" horiz-adv-x="905" d="M498 1348q-25 0 -45.5 -9.5t-33 -23t-21 -28.5t-12 -25t-3.5 -13h-127q3 15 14.5 41t34.5 60.5t52.5 64t72.5 50t90 20.5q49 0 87.5 -22.5t73 -45t73.5 -22.5q32 0 58.5 14t40.5 34t20 32.5t8 19.5h127q-3 -17 -22 -52t-52 -78t-87.5 -74t-115.5 -31q-39 0 -73.5 14 t-55.5 30t-48.5 30t-55.5 14z" />
<glyph unicode="&#x2dd;" horiz-adv-x="776" d="M369 1235l-111 35l145 225h183zM662 1235l-109 35l143 225h183z" />
<glyph unicode="&#x300;" horiz-adv-x="0" d="M-221 1495h211l63 -225l-157 -39z" />
<glyph unicode="&#x301;" horiz-adv-x="0" d="M-125 1233l-143 37l155 225h215z" />
<glyph unicode="&#x302;" horiz-adv-x="0" d="M-508 1300l244 195h164l159 -195l-131 -57l-137 129l-192 -129z" />
<glyph unicode="&#x303;" horiz-adv-x="0" d="M-408 1348q-25 0 -45.5 -9.5t-32.5 -23t-21 -28.5t-12 -24.5t-3 -13.5h-127q3 15 14.5 41t34.5 60.5t52.5 64t72.5 50t90 20.5q39 0 72 -14t52.5 -31t48.5 -31t60 -14q32 0 58.5 14t40.5 34t20 32.5t8 19.5h127q-2 -13 -13.5 -38t-35.5 -59.5t-55 -65t-76.5 -51.5 t-95.5 -21t-90.5 22t-75 44t-68.5 22z" />
<glyph unicode="&#x304;" horiz-adv-x="0" d="M-516 1315l29 143h579l-31 -143h-577z" />
<glyph unicode="&#x306;" horiz-adv-x="0" d="M-23 1495h125q-23 -108 -105.5 -179t-184.5 -71q-87 0 -140 53t-53 138q0 19 8 59h125q-4 -24 -4 -37q0 -45 24 -76.5t62 -31.5q43 0 83.5 41t59.5 104z" />
<glyph unicode="&#x307;" horiz-adv-x="0" d="M-152 1260l52 235h200l-49 -235h-203z" />
<glyph unicode="&#x308;" horiz-adv-x="0" d="M-487 1260l49 225h186l-47 -225h-188zM-135 1260l47 225h186l-47 -225h-186z" />
<glyph unicode="&#x309;" horiz-adv-x="0" d="M-195 1417l-45 74q119 84 224 84q73 0 98.5 -41t3.5 -102q-39 -96 -199 -195l-34 68q84 52 102 102q9 25 0 41t-35 16q-44 0 -115 -47z" />
<glyph unicode="&#x30a;" horiz-adv-x="0" d="M-76 1495q69 0 108.5 -32t39.5 -89q0 -79 -60 -128.5t-153 -49.5q-68 0 -108 33t-40 88q0 80 61 129t152 49zM-188 1333q0 -27 17 -45t46 -18q37 0 67.5 26.5t30.5 63.5q0 28 -18 44.5t-47 16.5q-38 0 -67 -25.5t-29 -62.5z" />
<glyph unicode="&#x30b;" horiz-adv-x="0" d="M-408 1235l-110 35l145 225h183zM-115 1235l-108 35l143 225h182z" />
<glyph unicode="&#x30c;" horiz-adv-x="0" d="M-479 1438l131 57l137 -129l193 129l108 -57l-246 -195h-163z" />
<glyph unicode="&#x30f;" horiz-adv-x="0" d="M-471 1495h180l49 -225l-123 -39zM-178 1495h180l51 -225l-125 -39z" />
<glyph unicode="&#x311;" horiz-adv-x="0" d="M-137 1495q87 0 139.5 -55.5t52.5 -139.5q0 -28 -6 -55h-123q4 40 4 55q0 91 -84 91q-118 0 -147 -146h-123q22 107 104.5 178.5t182.5 71.5z" />
<glyph unicode="&#x312;" horiz-adv-x="0" d="M88 1495l-76 -131h62l-45 -164h-174l45 164l98 131h90z" />
<glyph unicode="&#x31b;" horiz-adv-x="0" d="M-381 999l35 160q73 0 114.5 10.5t67.5 36.5q24 24 35.5 52.5t22.5 76.5h174q-19 -76 -45.5 -133t-79.5 -104q-52 -47 -139 -73t-185 -26z" />
<glyph unicode="&#x323;" horiz-adv-x="0" d="M-502 -387l51 237h203l-49 -237h-205z" />
<glyph unicode="&#x324;" horiz-adv-x="0" d="M-850 -395l55 225h181l-56 -225h-180zM-532 -395l55 225h180l-55 -225h-180z" />
<glyph unicode="&#x326;" horiz-adv-x="0" d="M-485 -436l82 157h-66l39 181h192l-38 -181l-103 -157h-106z" />
<glyph unicode="&#x327;" horiz-adv-x="0" d="M-508 -395q-109 0 -197 59l84 121q56 -43 109 -43q58 0 93.5 32t35.5 89q0 68 -72 137l86 53q113 -102 113 -213q0 -103 -68.5 -169t-183.5 -66z" />
<glyph unicode="&#x328;" horiz-adv-x="0" d="M-522 -252q0 148 225 293h68l14 -41q-85 -70 -122.5 -116t-37.5 -85q0 -57 92 -63l-79 -133q-82 10 -121 50t-39 95z" />
<glyph unicode="&#x32e;" horiz-adv-x="0" d="M-492 -360q-95 0 -140 71t-17 178h119q-14 -59 4.5 -102t58.5 -43q38 0 76.5 41t58.5 104h119q-28 -108 -107 -178.5t-172 -70.5z" />
<glyph unicode="&#x331;" horiz-adv-x="0" d="M-838 -311l33 141h551l-33 -141h-551z" />
<glyph unicode="&#x335;" horiz-adv-x="0" d="M-608 537l33 139h501l-32 -139h-502z" />
<glyph unicode="&#x3c0;" horiz-adv-x="1437" d="M813 227v643h-324v-870h-219v870h-159v199h1134v-199h-213v-561q0 -60 31 -93.5t86 -33.5q43 0 111 27l32 -176q-115 -49 -237 -49q-113 0 -177.5 64t-64.5 179z" />
<glyph unicode="&#x400;" horiz-adv-x="1185" d="M590 1878h211l63 -225l-157 -39zM340 1454h932l-43 -203h-701l-88 -413h607l-39 -191h-609l-94 -444h719l-43 -203h-950z" />
<glyph unicode="&#x401;" horiz-adv-x="1185" d="M561 1642l49 226h187l-47 -226h-189zM913 1642l48 226h186l-47 -226h-187zM340 1454h932l-43 -203h-701l-88 -413h607l-39 -191h-609l-94 -444h719l-43 -203h-950z" />
<glyph unicode="&#x402;" horiz-adv-x="1613" d="M1057 926q223 0 338 -129.5t80 -347.5q-35 -225 -181 -345t-372 -120q-116 0 -205 30l63 185q90 -23 150 -23q128 0 212 69.5t107 207.5q23 134 -48 209t-202 75q-167 0 -340 -102l-135 -635h-229l264 1251h-393l43 203h1098l-45 -203h-474l-88 -413q178 88 357 88z" />
<glyph unicode="&#x403;" horiz-adv-x="1052" d="M893 1618l-143 37l155 225h215zM20 0l308 1454h868l-43 -203h-635l-266 -1251h-232z" />
<glyph unicode="&#x404;" horiz-adv-x="1472" d="M737 195q122 0 242 60t192 179l177 -108q-60 -105 -170.5 -183.5t-234.5 -116.5t-245 -38t-226 42t-179 115.5t-124 168t-67.5 204t-1.5 219.5q15 106 60 210.5t120 197t169.5 163.5t216.5 112.5t254 41.5q195 0 330 -86.5t188 -230.5l-195 -121q-21 63 -60 109.5t-89 72 t-102.5 37.5t-110.5 12q-96 0 -183 -34t-152 -92.5t-112.5 -131t-75.5 -155.5h572l-39 -197h-565q2 -190 114.5 -320t296.5 -130z" />
<glyph unicode="&#x405;" horiz-adv-x="1208" d="M-35 182l150 197q40 -64 163 -125t267 -61q145 0 224 58.5t79 162.5q0 35 -16 63.5t-41 49t-70.5 40.5t-88 33.5t-110.5 32.5q-172 50 -253 120t-81 191q0 159 84.5 279t221 180.5t301.5 60.5q134 0 245.5 -45t190.5 -119l-144 -188q-30 51 -129.5 99.5t-212.5 48.5 q-150 0 -227.5 -64.5t-77.5 -173.5q0 -32 13 -57.5t34 -44t61 -36t79.5 -30t103.5 -29.5q92 -25 155.5 -51.5t116 -66t78 -95.5t25.5 -129q0 -125 -50 -222.5t-136 -156.5t-193 -88.5t-229 -29.5q-158 0 -296.5 50.5t-236.5 145.5z" />
<glyph unicode="&#x406;" horiz-adv-x="555" d="M340 1452h231l-309 -1452h-231z" />
<glyph unicode="&#x407;" horiz-adv-x="555" d="M231 1642l50 226h186l-47 -226h-189zM584 1642l47 226h186l-47 -226h-186zM340 1452h231l-309 -1452h-231z" />
<glyph unicode="&#x408;" horiz-adv-x="972" d="M-84 68l94 188q30 -28 91.5 -50t138.5 -22q58 0 104 14t82 46.5t62.5 72.5t50 105.5t41 131t38.5 161.5l158 737h230l-158 -737q-22 -104 -42.5 -181t-50.5 -158t-64 -138t-82.5 -109t-106.5 -83.5t-135 -50t-170 -18.5q-173 0 -281 91z" />
<glyph unicode="&#x409;" horiz-adv-x="2136" d="M-27 -6l43 201q102 0 176 69.5t146.5 251t153.5 512.5l102 426h913l-112 -536h213q235 0 345 -124t77 -333q-30 -205 -177.5 -333t-375.5 -128h-508l266 1251h-469l-68 -286q-57 -235 -112 -397t-116 -276t-136 -178t-160.5 -92t-200.5 -28zM1241 197h234q133 0 216 75 t103 189q11 51 2 98t-32 83t-75 57.5t-126 21.5h-209z" />
<glyph unicode="&#x40a;" horiz-adv-x="2068" d="M31 0l309 1454h231l-129 -594h639l127 594h230l-117 -561h217q235 0 345 -120.5t77 -323.5q-30 -199 -177.5 -324t-375.5 -125h-508l139 655h-637l-139 -655h-231zM1171 197h234q133 0 216 71.5t103 180.5q19 108 -34.5 177.5t-196.5 69.5h-215z" />
<glyph unicode="&#x40b;" horiz-adv-x="1550" d="M1006 915q481 0 399 -485l-88 -430h-232l95 444q61 297 -236 297q-86 0 -177.5 -24.5t-160.5 -63.5l-139 -653h-229l264 1253h-336l43 201h1083l-41 -201h-518l-88 -411q172 73 361 73z" />
<glyph unicode="&#x40c;" horiz-adv-x="1337" d="M924 1618l-144 37l156 225h215zM31 0l307 1454h231l-129 -612h156l582 612h274l-682 -690l406 -764h-252l-328 639h-201l-133 -639h-231z" />
<glyph unicode="&#x40d;" horiz-adv-x="1495" d="M723 1878h211l63 -225l-157 -39zM31 0l307 1454h231l-239 -1130l966 1130h215l-307 -1454h-231l237 1108l-954 -1108h-225z" />
<glyph unicode="&#x40e;" horiz-adv-x="1310" d="M829 1616q-165 0 -249.5 71t-65.5 189h178q-9 -53 32.5 -87t117.5 -34q88 0 143 32.5t64 88.5h176q-17 -118 -123.5 -189t-272.5 -71zM207 -4l41 194h98q147 0 221 140l13 18l-410 1106h233l295 -883l467 883h230l-658 -1180q-84 -152 -180.5 -215t-251.5 -63h-98z" />
<glyph unicode="&#x40f;" horiz-adv-x="1445" d="M434 -279l60 279h-463l309 1454h231l-266 -1251h660l266 1251h229l-309 -1454h-459l-59 -279h-199z" />
<glyph unicode="&#x410;" horiz-adv-x="1329" d="M748 1454h202l234 -1454h-242l-57 395h-523l-223 -395h-241zM877 565l-82 625l-357 -625h439z" />
<glyph unicode="&#x411;" horiz-adv-x="1374" d="M31 0l309 1454h1020l-41 -201h-791l-86 -407h422q236 0 342 -111.5t74 -302.5q-30 -195 -170 -313.5t-367 -118.5h-712zM305 199h436q133 0 209.5 69.5t93.5 171.5q4 35 4 67.5t-15 61t-40.5 49.5t-71 33.5t-106.5 12.5h-412z" />
<glyph unicode="&#x412;" horiz-adv-x="1333" d="M340 1454h719q115 0 180.5 -87.5t65.5 -209.5q0 -129 -77.5 -244t-203.5 -168q90 -31 139 -107t49 -183q0 -103 -43.5 -190t-116 -144t-165.5 -89t-193 -32h-663zM827 827q93 0 164.5 77.5t71.5 185.5q0 73 -36 119t-95 46h-404l-92 -428h391zM735 199q97 0 173.5 80 t76.5 186q0 74 -39 126t-102 52h-447l-92 -444h430z" />
<glyph unicode="&#x413;" horiz-adv-x="1052" d="M20 0l308 1454h868l-43 -203h-635l-266 -1251h-232z" />
<glyph unicode="&#x414;" horiz-adv-x="1609" d="M-78 -279l101 482h79q116 5 209 207t189 663l80 381h950l-264 -1251h186l-102 -482h-203l57 279h-1022l-57 -279h-203zM393 203h643l221 1048h-501l-54 -254q-73 -350 -145.5 -535t-163.5 -259z" />
<glyph unicode="&#x415;" horiz-adv-x="1185" d="M340 1454h932l-43 -203h-701l-88 -413h607l-39 -191h-609l-94 -444h719l-43 -203h-950z" />
<glyph unicode="&#x416;" horiz-adv-x="2101" d="M-88 0l680 752l-391 702h235l338 -612h180l129 612h232l-129 -612h157l580 612h266l-669 -694l424 -760h-246l-348 639h-207l-135 -639h-232l135 639h-153l-584 -639h-262z" />
<glyph unicode="&#x417;" horiz-adv-x="1214" d="M500 -16q-168 0 -291 68.5t-182 193.5l192 108q36 -89 116.5 -134.5t192.5 -45.5q140 0 221.5 61.5t96.5 174.5q18 112 -43 178.5t-193 66.5h-123l37 179h113q104 0 173 59.5t83 153.5q15 104 -34.5 162.5t-166.5 58.5q-105 0 -193.5 -44t-138.5 -124l-153 117 q200 251 510 251q214 0 323.5 -106t81.5 -291q-15 -103 -81 -188.5t-171 -128.5q118 -36 172.5 -135t34.5 -232q-29 -189 -186 -296t-391 -107z" />
<glyph unicode="&#x418;" horiz-adv-x="1495" d="M31 0l307 1454h231l-239 -1130l966 1130h215l-307 -1454h-231l237 1108l-954 -1108h-225z" />
<glyph unicode="&#x419;" horiz-adv-x="1495" d="M936 1616q-164 0 -249 71t-66 189h178q-9 -53 32 -87t117 -34q88 0 143 32.5t64 88.5h176q-17 -118 -123 -189t-272 -71zM31 0l307 1454h231l-239 -1130l966 1130h215l-307 -1454h-231l237 1108l-954 -1108h-225z" />
<glyph unicode="&#x41a;" horiz-adv-x="1337" d="M31 0l307 1454h231l-129 -612h156l582 612h274l-682 -690l406 -764h-252l-328 639h-201l-133 -639h-231z" />
<glyph unicode="&#x41b;" horiz-adv-x="1519" d="M-27 -6l43 201q102 0 175.5 70t146 251t154.5 512l102 426h942l-307 -1454h-232l267 1251h-498l-68 -286q-57 -235 -112.5 -396.5t-116.5 -276t-135.5 -178.5t-160 -92t-200.5 -28z" />
<glyph unicode="&#x41c;" horiz-adv-x="1708" d="M340 1454h246l258 -889l637 889h243l-309 -1454h-231l223 1047l-565 -793h-127l-230 793l-223 -1047h-231z" />
<glyph unicode="&#x41d;" horiz-adv-x="1464" d="M340 1454h231l-129 -608h680l129 608h230l-310 -1454h-229l137 641h-680l-137 -641h-231z" />
<glyph unicode="&#x41e;" horiz-adv-x="1568" d="M700 -10q-123 0 -228.5 40.5t-180 111.5t-124 164t-67 201.5t-2.5 219.5q20 144 93.5 278.5t181 235.5t250 162t292.5 61q123 0 229 -40.5t180 -111.5t123.5 -164.5t66.5 -202t2 -220.5q-20 -146 -93 -281t-180.5 -235t-250 -159.5t-292.5 -59.5zM733 197q109 0 207 46 t167.5 121.5t115.5 170t59 192.5q21 143 -19.5 262.5t-140.5 192.5t-241 73q-108 0 -206 -45.5t-167.5 -120.5t-115.5 -169t-60 -193q-20 -139 20 -258.5t140 -195.5t241 -76z" />
<glyph unicode="&#x41f;" horiz-adv-x="1470" d="M31 0l307 1454h1149l-307 -1454h-232l266 1251h-688l-264 -1251h-231z" />
<glyph unicode="&#x420;" horiz-adv-x="1230" d="M340 1454h582q103 0 183 -57t119.5 -145.5t39.5 -190.5q0 -79 -27.5 -160t-77.5 -151t-115.5 -125.5t-147.5 -87t-167 -31.5h-360l-107 -506h-231zM760 709q106 0 186 100t80 233q0 93 -46.5 151t-117.5 58h-334l-116 -542h348z" />
<glyph unicode="&#x421;" horiz-adv-x="1454" d="M698 -12q-121 0 -226 42t-179 115.5t-124 168t-67.5 204t-1.5 219.5q15 106 60 210.5t120 197t169.5 163.5t216.5 112.5t254 41.5q195 0 330 -86.5t188 -230.5l-195 -121q-21 63 -60 109.5t-89 72t-102.5 37.5t-110.5 12q-91 0 -173.5 -30.5t-145 -81.5t-111 -119 t-78.5 -143t-41 -152q-19 -141 24 -263t143.5 -196.5t237.5 -74.5q122 0 242 60t192 179l177 -108q-60 -105 -170.5 -183.5t-234.5 -116.5t-245 -38z" />
<glyph unicode="&#x422;" horiz-adv-x="1206" d="M621 1251h-455l43 203h1141l-43 -203h-455l-266 -1251h-230z" />
<glyph unicode="&#x423;" horiz-adv-x="1310" d="M207 -4l41 194h98q147 0 221 140l13 18l-410 1106h233l295 -883l467 883h230l-658 -1180q-84 -152 -180.5 -215t-251.5 -63h-98z" />
<glyph unicode="&#x424;" horiz-adv-x="1705" d="M1124 1378q127 -9 234 -54t183.5 -120t109.5 -187t12 -245q-22 -133 -96.5 -247t-182.5 -191.5t-242 -122.5t-276 -49l-35 -162h-217l33 164q-129 9 -238 55.5t-184.5 123t-108 188t-10.5 241.5q24 141 99 256t183.5 190.5t241 117.5t275.5 44l29 144h219zM692 344 l180 856q-208 -6 -357.5 -120.5t-184.5 -307.5q-17 -98 5 -178.5t74 -132.5t124.5 -82t158.5 -35zM1438 772q16 96 -5 175.5t-72 132t-123 83t-159 35.5l-180 -856q132 7 245.5 59t193 148.5t100.5 222.5z" />
<glyph unicode="&#x425;" d="M528 717l-348 737h254l252 -573l496 573h252l-660 -737l334 -717h-252l-240 553l-475 -553h-254z" />
<glyph unicode="&#x426;" horiz-adv-x="1527" d="M1065 -276l57 276h-1091l309 1454h231l-266 -1251h647l267 1251h231l-266 -1251h186l-102 -479h-203z" />
<glyph unicode="&#x427;" horiz-adv-x="1390" d="M1176 1454h231l-307 -1454h-232l123 582q-176 -66 -360 -66q-261 0 -368.5 125.5t-53.5 366.5l102 446h228l-107 -469q-31 -146 32 -211t238 -65q88 0 179.5 20.5t152.5 54.5z" />
<glyph unicode="&#x428;" horiz-adv-x="1978" d="M31 0l307 1454h231l-264 -1251h481l265 1251h231l-264 -1251h479l266 1251h230l-307 -1454h-1655z" />
<glyph unicode="&#x429;" horiz-adv-x="2070" d="M1608 -279l57 279h-1634l307 1454h231l-264 -1251h481l265 1251h231l-264 -1251h481l264 1251h230l-267 -1251h187l-103 -482h-202z" />
<glyph unicode="&#x42a;" horiz-adv-x="1452" d="M258 0l266 1262h-356l41 192h588l-115 -536h254q235 0 344 -123.5t76 -333.5q-32 -205 -178.5 -333t-372.5 -128h-547zM532 197h271q137 0 217.5 74.5t99.5 189.5q11 51 2 98t-32 83t-75 57.5t-126 21.5h-248z" />
<glyph unicode="&#x42b;" horiz-adv-x="1753" d="M31 0l307 1454h231l-114 -536h233q235 0 344 -123.5t76 -333.5q-32 -205 -178.5 -333t-372.5 -128h-526zM1538 1452h231l-309 -1452h-231zM305 197h250q135 0 217 74.5t100 189.5q11 51 2 98t-32 83t-75 57.5t-126 21.5h-227z" />
<glyph unicode="&#x42c;" horiz-adv-x="1275" d="M31 0l307 1454h231l-114 -536h295q234 0 342 -123.5t77 -333.5q-32 -205 -178.5 -333t-372.5 -128h-587zM305 197h311q135 0 216.5 74.5t101.5 189.5q11 51 2 98t-32.5 83t-75.5 57.5t-126 21.5h-288z" />
<glyph unicode="&#x42d;" horiz-adv-x="1449" d="M823 1462q95 0 178 -21t145.5 -59.5t113.5 -91.5t81.5 -117t50 -136.5t20 -150t-10.5 -157.5q-22 -146 -91 -279.5t-172.5 -236t-246 -164t-299.5 -61.5q-202 0 -341.5 90t-199.5 248l207 108q39 -115 134.5 -177t225.5 -62q195 0 336 128.5t195 325.5h-606l37 189h596 q2 193 -97.5 305t-285.5 112q-129 0 -239 -59t-185 -174l-166 123q233 317 620 317z" />
<glyph unicode="&#x42e;" horiz-adv-x="2115" d="M1462 1464q123 0 229 -40.5t180 -111.5t123 -164.5t66 -202t2 -220.5q-20 -146 -93 -281t-180.5 -235t-249.5 -159.5t-292 -59.5q-139 0 -256 53t-193.5 141.5t-118.5 204.5t-40 242h-244l-133 -631h-231l307 1454h231l-133 -620h232q49 171 165 314t282.5 229.5 t346.5 86.5zM1829 727q21 143 -20 262.5t-141 192.5t-241 73q-108 0 -206 -45.5t-167 -120.5t-115 -169t-60 -193q-20 -139 20 -258.5t140 -195.5t241 -76q109 0 207 46t167.5 121.5t115.5 170t59 192.5z" />
<glyph unicode="&#x42f;" horiz-adv-x="1353" d="M-16 0l499 633q-138 44 -200.5 158t-36.5 268q35 179 179.5 287t352.5 108h592l-307 -1454h-232l119 567h-213h-45l-438 -567h-270zM700 768h293l103 485h-308q-123 0 -209.5 -60t-107.5 -177q-18 -110 41 -179t188 -69z" />
<glyph unicode="&#x430;" d="M39 422q0 128 49 251t129 214t189 147t223 56q113 0 193 -61.5t114 -160.5l43 201h227l-172 -803q-4 -24 -4 -30q0 -22 11 -31.5t36 -11.5l-41 -193q-65 -10 -92 -10q-64 0 -98.5 27.5t-34.5 78.5q0 33 14 99q-76 -101 -186.5 -158t-218.5 -57q-175 0 -278 126t-103 316z M836 385l57 281q-12 97 -81 164t-155 67q-99 0 -188.5 -65t-141 -166t-51.5 -207q0 -124 66 -205.5t176 -81.5q84 0 179.5 62t138.5 151z" />
<glyph unicode="&#x431;" horiz-adv-x="1265" d="M578 -20q-262 0 -377 165t-62 459q36 206 93 354.5t140 247.5t186.5 155t240.5 81q33 7 84.5 15t85 14t70 16.5t61 28.5t37.5 45l151 -64q-8 -30 -18.5 -55t-22.5 -44.5t-32.5 -36t-37.5 -28.5t-49 -23.5t-56 -19t-68.5 -16t-77 -14.5t-90.5 -15q-136 -22 -224.5 -77.5 t-143.5 -146.5t-97 -241q68 101 176.5 157t240.5 56q209 0 315 -136t75 -353q-36 -238 -194 -381t-406 -143zM596 162q138 0 231.5 88t116.5 237q22 145 -42.5 234.5t-201.5 89.5q-128 0 -224.5 -89.5t-121.5 -234.5q-24 -139 41.5 -232t200.5 -93z" />
<glyph unicode="&#x432;" horiz-adv-x="1193" d="M891 545q158 -74 158 -221q0 -106 -64 -184.5t-175 -118.5t-253 -39q-255 1 -371 133.5t-88 376.5q33 290 203 445t444 155q164 0 253 -69.5t89 -193.5q0 -187 -196 -284zM721 926q-135 0 -234.5 -83.5t-140.5 -234.5q79 -8 166 -8q187 1 279 56t92 145q0 58 -40 91.5 t-122 33.5zM578 143q113 -2 183 48t70 141q0 116 -112 155q-94 -20 -221 -20q-95 0 -174 8q-19 -169 39 -250t215 -82z" />
<glyph unicode="&#x433;" horiz-adv-x="1046" d="M465 -20q-200 0 -296.5 81t-88.5 222q6 121 100.5 193t317.5 140q125 41 172 79t53 102q4 64 -38.5 97.5t-121.5 33.5q-78 0 -149 -34t-113 -93l-158 96q72 94 189 144.5t270 50.5q176 0 265 -77.5t83 -211.5q-6 -119 -90 -191t-272 -131q-157 -49 -214 -90t-63 -106 q-6 -64 46 -98.5t155 -34.5q79 0 153.5 33.5t127.5 95.5l139 -119q-167 -182 -467 -182z" />
<glyph unicode="&#x434;" horiz-adv-x="1255" d="M535 -20q-163 0 -276.5 76.5t-159.5 199.5t-25 270q33 222 189.5 371.5t377.5 149.5q138 0 237 -68t132 -178q22 181 -16 290t-138 162q-148 79 -465 43v183q361 43 574 -78q245 -137 245 -461q0 -309 -114 -565q-37 -85 -88.5 -154t-120 -124.5t-158.5 -86t-194 -30.5z M559 160q130 0 234.5 101t126.5 253t-53.5 254t-207.5 102q-135 0 -236.5 -100t-123.5 -258q-22 -151 53.5 -251.5t206.5 -100.5z" />
<glyph unicode="&#x435;" horiz-adv-x="1157" d="M563 156q61 0 114 18.5t85.5 45.5t49 44.5t22.5 28.5l190 -62q-15 -22 -30 -41.5t-61 -61.5t-96.5 -71.5t-133 -53t-173.5 -23.5q-115 0 -206.5 42t-148 114.5t-82 169.5t-15.5 208q10 118 62 223.5t134 183.5t194.5 123.5t236.5 45.5q164 0 273 -77t112 -218 q2 -167 -142.5 -254.5t-443.5 -87.5q-97 0 -205 6q-5 -139 64.5 -221t199.5 -82zM674 913q-116 0 -213 -83t-137 -216q118 -4 172 -4q103 0 175.5 11.5t113.5 35t59 54t16 71.5q-3 61 -55 96t-131 35z" />
<glyph unicode="&#x436;" horiz-adv-x="1624" d="M-76 0q221 394 479 553l-266 518h225l216 -446h127l94 446h223l-94 -446h127q99 63 185 172t181 274h234q-200 -351 -430 -524l274 -547h-242l-223 467h-139l-98 -467h-226l99 467h-80q-221 -105 -426 -467h-240z" />
<glyph unicode="&#x437;" horiz-adv-x="1030" d="M403 -16q-161 0 -264 58.5t-147 168.5l192 82q56 -127 234 -127q106 0 174 45t80 119q12 69 -30.5 110.5t-133.5 42.5h-133l31 144h129q60 0 105 36.5t56 92.5q11 69 -31.5 109t-132.5 40q-151 0 -233 -117l-160 91q71 99 182 153.5t248 54.5q170 0 264.5 -83t73.5 -230 q-9 -71 -55 -127t-119 -84q90 -29 128.5 -98.5t23.5 -167.5q-23 -146 -156.5 -229.5t-325.5 -83.5z" />
<glyph unicode="&#x438;" horiz-adv-x="1200" d="M57 246q0 60 21 170l141 655h223l-131 -610q-14 -66 -14 -123q0 -166 141 -166q91 0 182.5 60.5t159.5 170.5l142 668h225l-170 -805q-6 -18 -6 -30q0 -40 47 -43l-39 -193q-68 -10 -94 -10q-63 0 -97 26t-34 76q0 30 18 125q-91 -116 -212 -176.5t-253 -60.5 q-124 0 -187 67.5t-63 198.5z" />
<glyph unicode="&#x439;" horiz-adv-x="1200" d="M711 1214q-139 0 -215.5 65.5t-73.5 168.5h123q-3 -57 38 -93t130 -36q85 0 127 33.5t55 95.5h123q-3 -103 -85.5 -168.5t-221.5 -65.5zM57 246q0 60 21 170l141 655h223l-131 -610q-14 -66 -14 -123q0 -166 141 -166q91 0 182.5 60.5t159.5 170.5l142 668h225l-170 -805 q-6 -18 -6 -30q0 -40 47 -43l-39 -193q-68 -10 -94 -10q-63 0 -97 26t-34 76q0 30 18 125q-91 -116 -212 -176.5t-253 -60.5q-124 0 -187 67.5t-63 198.5z" />
<glyph unicode="&#x43a;" horiz-adv-x="1071" d="M18 0l226 1071h225l-92 -438h125q186 119 366 438h234q-201 -352 -432 -524l276 -547h-244l-227 459h-137l-96 -459h-224z" />
<glyph unicode="&#x43b;" horiz-adv-x="1140" d="M-39 0q185 564 647 1071h232l147 -1071h-233l-86 870q-170 -212 -283 -419.5t-203 -450.5h-221z" />
<glyph unicode="&#x43c;" horiz-adv-x="1452" d="M18 0l226 1071h243l207 -643l486 643h254l-226 -1071h-215l162 760l-428 -570h-141l-191 574l-162 -764h-215z" />
<glyph unicode="&#x43d;" horiz-adv-x="1212" d="M18 0l226 1071h225l-92 -436h500l92 436h225l-227 -1071h-226l99 461h-500l-96 -461h-226z" />
<glyph unicode="&#x43e;" horiz-adv-x="1261" d="M549 -20q-162 0 -278 77t-165 203t-28 275t105.5 275t222.5 203t299 77q162 0 279 -77t167 -203t29 -275q-15 -111 -68 -212t-134 -177t-192.5 -121t-236.5 -45zM575 162q132 0 241.5 109t131.5 264q22 158 -55.5 265t-212.5 107q-133 0 -242 -108.5t-131 -266.5 q-21 -158 57.5 -264t210.5 -106z" />
<glyph unicode="&#x43f;" horiz-adv-x="1181" d="M18 0l226 1071h919l-227 -1071h-225l188 895h-465l-190 -895h-226z" />
<glyph unicode="&#x440;" horiz-adv-x="1241" d="M227 1071h199l-41 -192q82 98 187.5 154.5t218.5 56.5q170 0 272 -128t102 -317q0 -127 -48 -249.5t-126.5 -213.5t-186.5 -146.5t-222 -55.5q-118 0 -199.5 60t-114.5 161l-135 -637h-225zM930 610q0 123 -66 205t-176 82q-84 0 -178.5 -62t-136.5 -149l-62 -280 q19 -101 84 -167.5t154 -66.5q99 0 188.5 65t141 166t51.5 207z" />
<glyph unicode="&#x441;" horiz-adv-x="1097" d="M39 432q0 101 31.5 198.5t90.5 180t138.5 145.5t181.5 98.5t213 35.5q160 0 260 -71.5t133 -195.5l-233 -69q-22 70 -73.5 106.5t-125.5 36.5q-98 0 -186 -58t-142.5 -159.5t-54.5 -220.5q0 -125 64 -206t166 -81q76 0 152.5 42.5t111.5 104.5l207 -65 q-76 -122 -213 -198t-293 -76q-135 0 -233.5 62t-146.5 163t-48 227z" />
<glyph unicode="&#x442;" horiz-adv-x="1816" d="M229 1071h203l-45 -215q78 109 191.5 171.5t232.5 62.5q120 0 181.5 -63.5t66.5 -180.5q90 119 199 181.5t229 62.5q239 0 239 -256q0 -68 -22 -181l-139 -653h-226l127 600q17 83 17 129q0 160 -131 160q-87 0 -176.5 -71t-147.5 -183l-133 -635h-225l127 600 q16 68 16 131q0 158 -129 158q-88 0 -177.5 -70t-144.5 -182l-137 -637h-225z" />
<glyph unicode="&#x443;" horiz-adv-x="1044" d="M-82 -287q127 13 188 47.5t127 130.5l60 86l-193 1094h232l121 -872l69 114q150 244 222.5 407t117.5 351h221q-56 -199 -138 -367t-283 -493l-164 -264q-141 -227 -262.5 -317.5t-286.5 -92.5z" />
<glyph unicode="&#x444;" horiz-adv-x="1488" d="M414 -436l92 436h-45q-148 3 -251.5 79.5t-143.5 196.5t-17 259q17 108 68 204.5t128.5 170t185 116.5t228.5 43h74l90 426h219l-90 -426l37 -2q150 -9 254 -83t145.5 -191t18.5 -258q-18 -108 -70 -204.5t-129.5 -170.5t-185.5 -117t-229 -43h-68l-92 -436h-219z M518 166h37l156 739h-74q-133 0 -236.5 -106.5t-126.5 -266.5q-25 -158 43 -262t201 -104zM748 166h69q134 0 237 104t126 262q25 160 -43.5 266.5t-198.5 106.5h-33z" />
<glyph unicode="&#x445;" horiz-adv-x="1026" d="M373 535l-256 536h233l164 -366l10 -35l25 35l319 366h234l-484 -536l261 -535h-236l-166 365l-12 32l-23 -32l-321 -365h-236z" />
<glyph unicode="&#x446;" horiz-adv-x="1255" d="M821 -256l56 256q-70 3 -98 61.5t-3 155.5q-90 -113 -205 -175t-243 -62q-134 0 -201.5 74t-67.5 206q0 69 19 156l141 655h223l-137 -641q-14 -55 -14 -106q0 -152 147 -152q92 0 184.5 60.5t159.5 170.5l142 668h225l-160 -752q-19 -85 -5 -111t79 -26h53l-92 -438 h-203z" />
<glyph unicode="&#x447;" horiz-adv-x="1101" d="M625 0l92 408q-132 -56 -285 -56q-176 0 -256 92.5t-41 270.5l78 356h225l-71 -328q-47 -221 165 -221q57 0 118 13.5t102 35.5l106 500h225l-227 -1071h-231z" />
<glyph unicode="&#x448;" horiz-adv-x="1816" d="M1587 0h-203l46 215q-78 -108 -191.5 -170.5t-232.5 -62.5q-120 0 -181.5 63t-66.5 180q-89 -119 -198.5 -181t-229.5 -62q-240 0 -240 256q0 62 23 180l139 653h225l-127 -600q-16 -78 -16 -129q0 -160 131 -160q87 0 176 71t147 183l134 635h225l-127 -600 q-16 -68 -16 -131q0 -158 129 -158q88 0 177 70t144 182l137 637h226z" />
<glyph unicode="&#x449;" horiz-adv-x="1888" d="M1454 -256l55 256q-80 7 -104.5 57.5t-5.5 159.5q-75 -109 -184.5 -172t-223.5 -63q-122 0 -189 61.5t-75 171.5q-86 -114 -192 -173.5t-222 -59.5q-256 0 -256 274q0 46 21 162l141 653h225l-129 -600q-14 -69 -14 -133q0 -156 129 -156q90 0 178.5 69.5t145.5 184.5 l133 635h225l-127 -600q-16 -75 -16 -129q0 -160 129 -160q89 0 177.5 69t145.5 183l135 637h226l-160 -749q-19 -86 -5.5 -113t75.5 -27h57l-92 -438h-203z" />
<glyph unicode="&#x44a;" horiz-adv-x="1249" d="M655 -16q-206 0 -308.5 88.5t-102.5 249.5q0 248 221 575h-346l37 174h602q-112 -213 -160 -321q51 2 156 2q203 0 303.5 -109t72.5 -291q-30 -183 -158.5 -275.5t-316.5 -92.5zM676 170q94 0 157 54.5t76 148.5q13 100 -38 156.5t-173 56.5q-86 0 -172 -6 q-38 -72 -55 -170q-19 -119 38.5 -179.5t166.5 -60.5z" />
<glyph unicode="&#x44b;" horiz-adv-x="1486" d="M551 750q199 0 303 -106.5t78 -291.5q-18 -127 -85.5 -211t-163 -120.5t-218.5 -36.5q-101 0 -179.5 26t-133 79.5t-73 136t0.5 196.5q18 96 42.5 201t59.5 246.5t49 201.5h226q-31 -121 -78 -321h172zM1245 1071h225l-229 -1071h-225zM713 373q12 99 -39 153t-170 54 h-164q-31 -147 -35 -170q-21 -119 33.5 -181.5t155.5 -62.5q89 0 148 56.5t71 150.5z" />
<glyph unicode="&#x44c;" horiz-adv-x="1103" d="M582 750q209 0 319 -106t84 -292q-12 -77 -44 -139t-78.5 -104t-107 -70.5t-129 -41.5t-145.5 -13q-217 0 -330 110.5t-71 327.5q18 96 42.5 201t59.5 246.5t49 201.5h226q-31 -121 -78 -321h203zM764 373q15 98 -40.5 152.5t-186.5 54.5h-197q-31 -147 -35 -170 q-24 -119 35 -181.5t170 -62.5q104 0 173 56.5t81 150.5z" />
<glyph unicode="&#x44d;" horiz-adv-x="1191" d="M641 1090q104 0 190 -30.5t142 -83t93.5 -123t45.5 -150t-2 -164.5q-18 -109 -69 -207.5t-129 -177.5t-190 -125.5t-241 -46.5q-164 0 -282 69t-164 193l192 82q66 -164 273 -164q126 0 233 87t150 220h-443l33 154h430q-4 131 -83.5 207.5t-207.5 76.5q-192 0 -307 -155 l-158 90q82 115 210 181.5t284 66.5z" />
<glyph unicode="&#x44e;" horiz-adv-x="1730" d="M1174 1090q162 0 279 -77t167 -203t29 -275q-15 -111 -68 -212t-134 -177t-192.5 -121t-236.5 -45q-162 0 -278 77t-165 203t-28 275q3 35 12 63l-205 -72l-22 -374l-158 -72l121 838l125 -80l-158 -353l260 232l45 -86q61 197 226.5 328t380.5 131zM1417 535 q22 158 -55.5 265t-212.5 107q-133 0 -242 -108.5t-131 -266.5q-21 -158 57.5 -264t210.5 -106t241.5 109t131.5 264z" />
<glyph unicode="&#x44f;" horiz-adv-x="1153" d="M-4 0l364 436q-89 33 -137.5 105t-44.5 178q6 173 143.5 266.5t354.5 93.5q243 0 424 -88l-211 -991h-223l84 387h-179l-315 -387h-260zM571 551h213l68 326q-82 30 -199 30t-190 -53t-74 -145q-3 -71 42.5 -114.5t139.5 -43.5z" />
<glyph unicode="&#x450;" horiz-adv-x="1157" d="M780 1270l-157 -39l-117 264h211zM563 156q61 0 114 18.5t85.5 45.5t49 44.5t22.5 28.5l190 -62q-15 -22 -30 -41.5t-61 -61.5t-96.5 -71.5t-133 -53t-173.5 -23.5q-115 0 -206.5 42t-148 114.5t-82 169.5t-15.5 208q10 118 62 223.5t134 183.5t194.5 123.5t236.5 45.5 q164 0 273 -77t112 -218q2 -167 -142.5 -254.5t-443.5 -87.5q-97 0 -205 6q-5 -139 64.5 -221t199.5 -82zM674 913q-116 0 -213 -83t-137 -216q118 -4 172 -4q103 0 175.5 11.5t113.5 35t59 54t16 71.5q-3 61 -55 96t-131 35z" />
<glyph unicode="&#x451;" horiz-adv-x="1157" d="M713 1485l-47 -225h-189l49 225h187zM1063 1485l-47 -225h-187l48 225h186zM563 156q61 0 114 18.5t85.5 45.5t49 44.5t22.5 28.5l190 -62q-15 -22 -30 -41.5t-61 -61.5t-96.5 -71.5t-133 -53t-173.5 -23.5q-115 0 -206.5 42t-148 114.5t-82 169.5t-15.5 208 q10 118 62 223.5t134 183.5t194.5 123.5t236.5 45.5q164 0 273 -77t112 -218q2 -167 -142.5 -254.5t-443.5 -87.5q-97 0 -205 6q-5 -139 64.5 -221t199.5 -82zM674 913q-116 0 -213 -83t-137 -216q118 -4 172 -4q103 0 175.5 11.5t113.5 35t59 54t16 71.5q-3 61 -55 96 t-131 35z" />
<glyph unicode="&#x452;" horiz-adv-x="1245" d="M791 956q211 0 284 -166.5t8 -482.5q-34 -163 -80.5 -283.5t-113 -211t-158 -136t-207.5 -45.5q-56 -1 -106 11.5t-81 31t-54 37t-33 31.5l-10 14l172 115q1 -2 4 -6t14 -13.5t24 -16.5t35.5 -13t47.5 -6q108 0 190 120t131 361q48 255 9.5 358t-177.5 103 q-96 0 -179.5 -58.5t-145.5 -162.5l-123 -537h-226l258 1130h-163l28 138h166l51 227h226l-52 -227h449l-29 -138h-450l-82 -358q73 85 169.5 134.5t203.5 49.5z" />
<glyph unicode="&#x453;" horiz-adv-x="1046" d="M709 1235l-144 37l156 225h215zM465 -20q-200 0 -296.5 81t-88.5 222q6 121 100.5 193t317.5 140q125 41 172 79t53 102q4 64 -38.5 97.5t-121.5 33.5q-78 0 -149 -34t-113 -93l-158 96q72 94 189 144.5t270 50.5q176 0 265 -77.5t83 -211.5q-6 -119 -90 -191t-272 -131 q-157 -49 -214 -90t-63 -106q-6 -64 46 -98.5t155 -34.5q79 0 153.5 33.5t127.5 95.5l139 -119q-167 -182 -467 -182z" />
<glyph unicode="&#x454;" horiz-adv-x="1181" d="M549 172q77 0 151 38.5t125 111.5l209 -68q-80 -126 -217.5 -199t-296.5 -73q-122 0 -218 47t-151.5 125t-78 178t-6.5 207q16 106 67.5 204t131 176t192.5 124.5t241 46.5q161 0 266 -72t148 -195l-227 -69q-60 143 -219 143q-118 0 -214.5 -74t-142.5 -200h426 l-35 -154h-421q0 -130 74.5 -213.5t195.5 -83.5z" />
<glyph unicode="&#x455;" horiz-adv-x="976" d="M-51 141l121 144q150 -138 329 -138q104 0 168 45t64 119q0 21 -5 37t-19.5 29.5t-27.5 22.5t-43.5 20.5t-52 18t-67.5 20.5q-71 21 -113 36t-83 36t-61.5 44.5t-33 56t-12.5 75.5q0 166 135.5 274.5t335.5 108.5q231 0 366 -144l-125 -135q-110 113 -260 113 q-104 0 -167.5 -42.5t-63.5 -121.5q0 -54 36.5 -77.5t149.5 -55.5q181 -51 259.5 -110t78.5 -169q0 -159 -133.5 -263.5t-349.5 -104.5q-131 0 -243.5 42t-182.5 119z" />
<glyph unicode="&#x456;" horiz-adv-x="489" d="M317 1495h226l-51 -248h-226zM229 1071h226l-230 -1071h-225z" />
<glyph unicode="&#x457;" horiz-adv-x="489" d="M111 1260l49 225h186l-47 -225h-188zM463 1260l47 225h186l-47 -225h-186zM229 1071h226l-230 -1071h-225z" />
<glyph unicode="&#x458;" horiz-adv-x="501" d="M330 1495h225l-53 -248h-226zM-414 -299l131 152q39 -48 113 -48q57 0 109 45t65 111l236 1110h225l-232 -1094q-35 -160 -155.5 -264t-261.5 -104q-153 0 -230 92z" />
<glyph unicode="&#x459;" horiz-adv-x="1626" d="M1102 690q199 0 301.5 -83t95.5 -253q-6 -176 -124 -273t-296 -97q-103 0 -170.5 18t-119 64t-79.5 126t-40 205l-49 484q-150 -214 -250.5 -423.5t-184.5 -457.5h-225q158 542 594 1071h244l49 -391q137 10 254 10zM1087 170q91 0 142 51t53 139q-2 78 -49 117t-148 39 q-94 0 -217 -10l11 -82q14 -107 39.5 -162t63 -73.5t105.5 -18.5z" />
<glyph unicode="&#x45a;" horiz-adv-x="1744" d="M1262 662q90 0 159.5 -18.5t119 -57.5t70.5 -104.5t9 -153.5q-17 -116 -88.5 -195t-172.5 -114t-226 -35q-206 0 -313.5 109.5t-69.5 309.5l14 72h-420l-100 -475h-226l226 1071h225l-88 -422h418l90 422h221l-88 -409h240zM1397 332q12 80 -30.5 122t-143.5 42h-236 l-20 -99q-24 -114 29 -172.5t159 -58.5q98 0 163.5 44t78.5 122z" />
<glyph unicode="&#x45b;" horiz-adv-x="1255" d="M811 956q180 0 263 -108t44 -297l-117 -551h-225l109 512q22 119 -19 182.5t-145 63.5q-222 0 -356 -234l-111 -524h-225l239 1130h-157l28 138h160l47 227h225l-47 -227h457l-29 -138h-458l-76 -356q165 182 393 182z" />
<glyph unicode="&#x45c;" horiz-adv-x="1071" d="M737 1235l-143 37l156 225h215zM18 0l226 1071h225l-92 -438h125q186 119 366 438h234q-201 -352 -432 -524l276 -547h-244l-227 459h-137l-96 -459h-224z" />
<glyph unicode="&#x45d;" horiz-adv-x="1200" d="M506 1495h211l63 -225l-157 -39zM57 246q0 60 21 170l141 655h223l-131 -610q-14 -66 -14 -123q0 -166 141 -166q91 0 182.5 60.5t159.5 170.5l142 668h225l-170 -805q-6 -18 -6 -30q0 -40 47 -43l-39 -193q-68 -10 -94 -10q-63 0 -97 26t-34 76q0 30 18 125 q-91 -116 -212 -176.5t-253 -60.5q-124 0 -187 67.5t-63 198.5z" />
<glyph unicode="&#x45e;" horiz-adv-x="1044" d="M635 1214q-139 0 -215.5 65.5t-73.5 168.5h123q-3 -57 38 -93t130 -36q85 0 127 33.5t55 95.5h123q-3 -103 -85.5 -168.5t-221.5 -65.5zM-82 -287q127 13 188 47.5t127 130.5l60 86l-193 1094h232l121 -872l69 114q150 244 222.5 407t117.5 351h221q-56 -199 -138 -367 t-283 -493l-164 -264q-141 -227 -262.5 -317.5t-286.5 -92.5z" />
<glyph unicode="&#x45f;" horiz-adv-x="1200" d="M57 246q0 60 21 170l141 655h223l-131 -610q-14 -66 -14 -123q0 -166 141 -166q91 0 182.5 60.5t159.5 170.5l142 668h225l-170 -805q-6 -18 -6 -30q0 -40 47 -43l-39 -193q-68 -10 -94 -10q-63 0 -97 26t-34 76q0 30 18 125q-91 -116 -212 -176.5t-253 -60.5 q-124 0 -187 67.5t-63 198.5zM303 -387l51 237h203l-49 -237h-205z" />
<glyph unicode="&#x462;" horiz-adv-x="1404" d="M879 913q235 0 342.5 -122t76.5 -330q-32 -205 -177.5 -333t-370.5 -128h-590l237 1118h-264l31 148h262l49 229h232l-50 -229h357l-33 -148h-354l-43 -205h295zM1063 461q11 51 2 98t-32.5 83t-75.5 57.5t-126 21.5h-288l-109 -524h311q137 0 217.5 74t100.5 190z" />
<glyph unicode="&#x463;" horiz-adv-x="1617" d="M1026 -16q-200 0 -298.5 111.5t-49.5 326.5l45 194q37 154 15.5 217.5t-105.5 63.5q-142 0 -254 -178l-154 -719h-225l229 1071h209l-30 -149q136 163 321 163q157 0 210 -107.5t9 -295.5q52 8 170 12q87 1 154.5 -15.5t120 -53t79 -101t23.5 -153.5 q-7 -184 -134.5 -285.5t-334.5 -101.5zM1049 170q105 0 166.5 54t64.5 147q3 71 -42.5 113.5t-137.5 43.5q-111 0 -187 -10l-26 -121q-28 -111 18.5 -169t143.5 -58z" />
<glyph unicode="&#x46a;" horiz-adv-x="2115" d="M2148 1454l-635 -713l445 -741h-252l-377 629h-158l-131 -629h-231l131 629h-166l-581 -629h-261l682 741l-413 713h1947zM791 836h550l406 460h-1217z" />
<glyph unicode="&#x46b;" horiz-adv-x="1671" d="M-78 0l535 553l-307 518h1538l-488 -518l344 -553h-252l-260 449h-98l-94 -449h-228l95 449h-99l-420 -449h-266zM621 623h417l297 327h-893z" />
<glyph unicode="&#x472;" horiz-adv-x="1529" d="M915 1464q123 0 229 -40.5t180 -111.5t123.5 -164.5t66.5 -202t2 -220.5q-20 -146 -93 -281t-180.5 -235t-250 -159.5t-292.5 -59.5q-123 0 -228.5 40.5t-180 111.5t-124 164t-67 201.5t-2.5 219.5q20 144 93.5 278.5t181 235.5t250 162t292.5 61zM881 1255 q-97 0 -185.5 -36.5t-155.5 -99t-116 -141.5t-74 -167h938q3 192 -106.5 318t-300.5 126zM733 197q102 0 195 40.5t161 108t116 152.5t69 178h-948q-7 -129 37 -236.5t141 -175t229 -67.5z" />
<glyph unicode="&#x473;" horiz-adv-x="1234" d="M676 1090q162 0 279 -77t167 -203t29 -275q-15 -111 -68 -212t-134 -177t-192.5 -121t-236.5 -45q-162 0 -278 77t-165 203t-28 275t105.5 275t222.5 203t299 77zM651 907q-115 0 -214 -82t-140 -211h627q-5 129 -80 211t-193 82zM547 162q119 0 221 89.5t139 223.5h-633 q-1 -137 76.5 -225t196.5 -88z" />
<glyph unicode="&#x474;" horiz-adv-x="1359" d="M428 0l-242 1454h244l156 -1145l467 879q80 147 165.5 206.5t221.5 59.5h102l-61 -192h-51q-66 0 -109 -33.5t-94 -124.5l-602 -1104h-197z" />
<glyph unicode="&#x475;" horiz-adv-x="1036" d="M246 0l-137 1071h233l74 -876q201 256 311 546q76 203 162 271.5t264 68.5l-35 -176q-66 0 -108 -39t-80 -135q-182 -414 -463 -731h-221z" />
<glyph unicode="&#x490;" horiz-adv-x="1062" d="M31 0l309 1454h666l63 309h203l-109 -512h-637l-264 -1251h-231z" />
<glyph unicode="&#x491;" horiz-adv-x="907" d="M-74 -373q-116 0 -225 68l84 166q59 -41 137 -41q71 0 108.5 43t57.5 135l227 1073h463l56 256h200l-90 -430h-438l-193 -897q-39 -172 -136 -272.5t-251 -100.5z" />
<glyph unicode="&#x492;" horiz-adv-x="1103" d="M1204 1251h-635l-108 -510h422l-29 -149h-426l-125 -592h-231l125 592h-207l26 149h211l152 713h868z" />
<glyph unicode="&#x493;" horiz-adv-x="935" d="M977 887h-459l-72 -332h318l-31 -143h-317l-88 -412h-226l88 412h-186l29 143h188l109 516h684z" />
<glyph unicode="&#x494;" horiz-adv-x="1370" d="M788 860q224 0 341 -137.5t81 -368.5q-36 -222 -183.5 -340t-373.5 -118q-102 0 -204 30l81 189q73 -25 132 -25q131 0 216 69t107 210q23 151 -49 235t-205 84q-172 0 -344 -104l-125 -584h-231l307 1454h868l-43 -203h-635l-102 -479q169 88 362 88z" />
<glyph unicode="&#x495;" horiz-adv-x="1085" d="M631 664q199 0 278 -129t35 -383q-22 -132 -59.5 -229t-98.5 -170.5t-152.5 -110.5t-213.5 -37q-30 0 -58.5 4t-50.5 10.5t-43 16.5t-35.5 18.5t-29.5 19.5t-22.5 17.5t-16.5 15.5l-10 10l170 115q53 -41 108 -41q121 0 192.5 87t102.5 265q28 173 -22 254.5t-181 81.5 q-107 0 -190 -55l-90 -424h-226l228 1071h684l-39 -184h-457l-63 -297q117 74 260 74z" />
<glyph unicode="&#x496;" horiz-adv-x="2162" d="M1520 760l311 -557h219l-102 -479h-199l57 276h-112l2 6l-346 633h-207l-135 -639h-232l135 639h-153l-584 -639h-262l680 752l-391 702h235l338 -612h180l129 612h232l-129 -612h157l580 612h266z" />
<glyph unicode="&#x497;" horiz-adv-x="1687" d="M1225 547l176 -350h194l-96 -453h-203l54 256h-93l-223 467h-139l-98 -467h-226l99 467h-80q-221 -105 -426 -467h-240q221 394 479 553l-266 518h225l216 -446h127l94 446h223l-94 -446h127q99 63 185 172t181 274h234q-200 -351 -430 -524z" />
<glyph unicode="&#x498;" horiz-adv-x="1214" d="M1122 1071q-15 -103 -81 -188.5t-171 -128.5q118 -36 172.5 -135t34.5 -232q-24 -163 -144.5 -265.5t-307.5 -129.5l-56 -268h-200l53 264q-139 15 -241.5 82t-153.5 176l192 108q36 -89 116.5 -134.5t192.5 -45.5q140 0 221.5 61.5t96.5 174.5q18 112 -43 178.5 t-193 66.5h-123l37 179h113q104 0 173 59.5t83 153.5q15 104 -34.5 162.5t-166.5 58.5q-105 0 -193.5 -44t-138.5 -124l-153 117q200 251 510 251q214 0 323.5 -106t81.5 -291z" />
<glyph unicode="&#x499;" horiz-adv-x="962" d="M907 774q-9 -71 -55 -127t-119 -84q90 -29 128.5 -98.5t23.5 -167.5q-20 -130 -131 -212t-275 -97l-51 -244h-199l52 250q-220 40 -289 217l192 82q56 -127 234 -127q106 0 174 45t80 119q12 69 -30.5 110.5t-133.5 42.5h-133l31 144h129q60 0 105 36.5t56 92.5 q11 69 -31.5 109t-132.5 40q-151 0 -233 -117l-160 91q71 99 182 153.5t248 54.5q170 0 264.5 -83t73.5 -230z" />
<glyph unicode="&#x49a;" horiz-adv-x="1423" d="M770 764l297 -561h242l-103 -479h-198l59 276h-143l-328 639h-201l-133 -639h-231l307 1454h231l-129 -612h156l582 612h274z" />
<glyph unicode="&#x49b;" horiz-adv-x="1136" d="M670 547l176 -350h201l-99 -453h-203l56 256h-99l-227 459h-137l-96 -459h-224l226 1071h225l-92 -438h125q186 119 366 438h234q-201 -352 -432 -524z" />
<glyph unicode="&#x49c;" horiz-adv-x="1361" d="M641 827l39 33l379 -547l-195 -118l-221 514l-22 26l-72 -315h-23l-4 -107l-250 -151l291 979h51l-22 -58h106l-36 -165l-17 -9l10 -14zM1016 1141h98l-240 -119zM680 860l-25 35l7 23l212 104zM545 956l-70 -184h29zM575 772l9 8l-41 49l-2 -57h34z" />
<glyph unicode="&#x49d;" horiz-adv-x="1159" d="M1190 1071q-201 -352 -432 -524l276 -547h-243l-232 467h-6l-43 -199h-117l43 199h-98l-100 -467h-220l226 1071h221l-94 -446h100l45 204h117l-43 -196q191 120 368 438h232z" />
<glyph unicode="&#x4a0;" horiz-adv-x="1529" d="M1645 1454l-682 -690l405 -764h-252l-328 639h-200l-133 -639h-232l266 1255h-323l43 199h553l-129 -612h155l582 612h275z" />
<glyph unicode="&#x4a1;" horiz-adv-x="1247" d="M1278 1071q-201 -352 -432 -524l276 -547h-243l-228 459h-137l-96 -459h-223l188 897h-264l35 174h491l-92 -438h125q186 119 366 438h234z" />
<glyph unicode="&#x4a2;" horiz-adv-x="1572" d="M1481 1454l-267 -1251h201l-102 -479h-199l60 276h-232l137 641h-680l-137 -641h-231l309 1454h231l-129 -608h680l129 608h230z" />
<glyph unicode="&#x4a3;" horiz-adv-x="1318" d="M1194 1071l-186 -874h178l-96 -453h-205l55 256h-199l99 461h-500l-96 -461h-226l226 1071h225l-92 -436h500l92 436h225z" />
<glyph unicode="&#x4a4;" horiz-adv-x="1970" d="M2116 1454l-43 -203h-635l-267 -1251h-229l137 641h-680l-137 -641h-231l309 1454h231l-129 -608h680l129 608h865z" />
<glyph unicode="&#x4a5;" horiz-adv-x="1574" d="M1653 1071l-43 -199h-457v2l-186 -874h-226l99 461h-500l-96 -461h-226l226 1071h225l-92 -436h500l92 436h684z" />
<glyph unicode="&#x4aa;" horiz-adv-x="1454" d="M737 195q122 0 242 60t192 179l177 -108q-78 -136 -229.5 -222.5t-321.5 -109.5l-56 -270h-196l55 272q-128 19 -232.5 90.5t-168.5 173t-90.5 226.5t-8.5 251q15 106 60 210.5t120 197t169.5 163.5t216.5 112.5t254 41.5q195 0 330 -86.5t188 -230.5l-195 -121 q-21 63 -60 109.5t-89 72t-102.5 37.5t-110.5 12q-91 0 -173.5 -30.5t-145 -81.5t-111 -119t-78.5 -143t-41 -152q-19 -141 24 -263t143.5 -196.5t237.5 -74.5z" />
<glyph unicode="&#x4ab;" horiz-adv-x="1099" d="M504 172q76 0 152.5 42.5t111.5 104.5l207 -65q-61 -96 -162 -166t-221 -96l-53 -248h-199l51 242q-166 25 -258 148.5t-92 297.5q0 101 31.5 198.5t90.5 180t138.5 145.5t181.5 98.5t213 35.5q160 0 260.5 -71.5t133.5 -195.5l-234 -69q-22 70 -73.5 106.5t-125.5 36.5 q-98 0 -186 -58t-142.5 -159.5t-54.5 -220.5q0 -125 64 -206t166 -81z" />
<glyph unicode="&#x4ae;" d="M485 524l-311 930h252l217 -729l533 729h249l-710 -934l-111 -520h-231z" />
<glyph unicode="&#x4af;" horiz-adv-x="1032" d="M158 -436l94 436l-143 1071h229l82 -864q149 210 250 416t184 448h205q-161 -552 -590 -1069l-86 -438h-225z" />
<glyph unicode="&#x4b0;" d="M715 520l-2 -10h219l-31 -150h-221l-76 -360h-231l78 360h-211l32 150h209l4 14l-311 930h252l217 -729l533 729h249z" />
<glyph unicode="&#x4b1;" horiz-adv-x="1032" d="M469 2v-2h225l-28 -125h-222l-61 -311h-225l67 311h-221l25 125h223l-143 1071h229l82 -864q149 210 250 416t184 448h205q-161 -552 -590 -1069z" />
<glyph unicode="&#x4b6;" horiz-adv-x="1452" d="M1407 1454l-264 -1251h151l-102 -479h-199l60 276h-185l123 582q-176 -66 -360 -66q-261 0 -368.5 125.5t-53.5 366.5l102 446h228l-107 -469q-31 -146 32 -211t238 -65q88 0 179.5 20.5t152.5 54.5l142 670h231z" />
<glyph unicode="&#x4b7;" horiz-adv-x="1210" d="M1083 1071l-186 -874h178l-96 -453h-205l55 256h-204l92 408q-132 -56 -285 -56q-176 0 -256 92.5t-41 270.5l78 356h225l-71 -328q-47 -221 165 -221q57 0 118 13.5t102 35.5l106 500h225z" />
<glyph unicode="&#x4b8;" horiz-adv-x="1390" d="M1176 1454h231l-307 -1454h-232l123 582q-134 -51 -272 -62l-51 -227h-125l51 223q-241 9 -339.5 134.5t-45.5 357.5l102 446h228l-107 -469q-28 -131 20.5 -196.5t184.5 -77.5l55 245h125l-55 -245q162 13 272 73z" />
<glyph unicode="&#x4b9;" horiz-adv-x="1130" d="M885 1071h227l-227 -1071h-228l86 408q-91 -33 -165 -46l-41 -188h-117l39 178h-37q-171 0 -248 92.5t-39 270.5l80 356h225l-73 -328q-21 -107 11.5 -160t117.5 -61l47 213h116l-45 -207q85 12 164 43z" />
<glyph unicode="&#x4ba;" horiz-adv-x="1390" d="M297 0h-231l307 1454h231l-123 -582q176 66 361 66q261 0 368.5 -125.5t53.5 -366.5l-103 -446h-227l106 469q31 146 -32 211t-238 65q-88 0 -179.5 -20.5t-152.5 -54.5z" />
<glyph unicode="&#x4bb;" horiz-adv-x="1175" d="M317 1495h226l-135 -639q82 109 195 171.5t231 62.5q247 0 247 -261q0 -89 -20 -176l-137 -653h-226l127 600q15 84 15 121q0 84 -36.5 126t-105.5 42q-86 0 -184.5 -72t-151.5 -180l-137 -637h-225z" />
<glyph unicode="&#x4c0;" horiz-adv-x="555" d="M340 1452h231l-309 -1452h-231z" />
<glyph unicode="&#x4c1;" horiz-adv-x="2101" d="M1217 1616q-165 0 -250 71t-66 189h178q-9 -53 32.5 -87t117.5 -34q88 0 143 32.5t64 88.5h176q-17 -118 -123 -189t-272 -71zM-88 0l680 752l-391 702h235l338 -612h180l129 612h232l-129 -612h157l580 612h266l-669 -694l424 -760h-246l-348 639h-207l-135 -639h-232 l135 639h-153l-584 -639h-262z" />
<glyph unicode="&#x4c2;" horiz-adv-x="1624" d="M913 1214q-139 0 -215 65.5t-73 168.5h123q-3 -57 37.5 -93t129.5 -36q86 0 128 33.5t55 95.5h123q-3 -102 -86 -168t-222 -66zM-76 0q221 394 479 553l-266 518h225l216 -446h127l94 446h223l-94 -446h127q99 63 185 172t181 274h234q-200 -351 -430 -524l274 -547h-242 l-223 467h-139l-98 -467h-226l99 467h-80q-221 -105 -426 -467h-240z" />
<glyph unicode="&#x4cb;" horiz-adv-x="1390" d="M1176 1454h231l-307 -1454h-246l-57 -276h-199l96 464h213l84 394q-176 -66 -360 -66q-261 0 -368.5 125.5t-53.5 366.5l102 446h228l-107 -469q-31 -146 32 -211t238 -65q88 0 179.5 20.5t152.5 54.5z" />
<glyph unicode="&#x4cc;" horiz-adv-x="1163" d="M1096 1071l-201 -944h2l-27 -127h-174l-57 -274h-203l82 401h148l63 281q-132 -56 -285 -56q-176 0 -256 92.5t-41 270.5l78 356h226l-72 -328q-47 -221 166 -221q126 0 219 49l106 500h226z" />
<glyph unicode="&#x4cf;" horiz-adv-x="489" d="M229 1071h226l-230 -1071h-225z" />
<glyph unicode="&#x4d0;" horiz-adv-x="1329" d="M868 1616q-165 0 -249.5 71t-65.5 189h178q-9 -53 32.5 -87t117.5 -34q88 0 142.5 32.5t63.5 88.5h177q-17 -118 -123.5 -189t-272.5 -71zM748 1454h202l234 -1454h-242l-57 395h-523l-223 -395h-241zM877 565l-82 625l-357 -625h439z" />
<glyph unicode="&#x4d1;" d="M791 1214q-139 0 -215.5 65.5t-73.5 168.5h123q-3 -57 38 -93t130 -36q85 0 127 33.5t55 95.5h123q-3 -103 -85.5 -168.5t-221.5 -65.5zM39 422q0 128 49 251t129 214t189 147t223 56q113 0 193 -61.5t114 -160.5l43 201h227l-172 -803q-4 -24 -4 -30q0 -22 11 -31.5 t36 -11.5l-41 -193q-65 -10 -92 -10q-64 0 -98.5 27.5t-34.5 78.5q0 33 14 99q-76 -101 -186.5 -158t-218.5 -57q-175 0 -278 126t-103 316zM836 385l57 281q-12 97 -81 164t-155 67q-99 0 -188.5 -65t-141 -166t-51.5 -207q0 -124 66 -205.5t176 -81.5q84 0 179.5 62 t138.5 151z" />
<glyph unicode="&#x4d2;" horiz-adv-x="1329" d="M627 1642l49 226h186l-47 -226h-188zM979 1642l47 226h186l-47 -226h-186zM748 1454h202l234 -1454h-242l-57 395h-523l-223 -395h-241zM877 565l-82 625l-357 -625h439z" />
<glyph unicode="&#x4d3;" d="M557 1260l49 225h187l-48 -225h-188zM909 1260l47 225h187l-47 -225h-187zM39 422q0 128 49 251t129 214t189 147t223 56q113 0 193 -61.5t114 -160.5l43 201h227l-172 -803q-4 -24 -4 -30q0 -22 11 -31.5t36 -11.5l-41 -193q-65 -10 -92 -10q-64 0 -98.5 27.5 t-34.5 78.5q0 33 14 99q-76 -101 -186.5 -158t-218.5 -57q-175 0 -278 126t-103 316zM836 385l57 281q-12 97 -81 164t-155 67q-99 0 -188.5 -65t-141 -166t-51.5 -207q0 -124 66 -205.5t176 -81.5q84 0 179.5 62t138.5 151z" />
<glyph unicode="&#x4d4;" horiz-adv-x="1896" d="M1014 1454h973l-45 -203h-680l-86 -409h575l-43 -203h-575l-95 -436h699l-43 -203h-928l86 395h-461l-307 -395h-248zM877 600l127 590l-469 -590h342z" />
<glyph unicode="&#x4d5;" horiz-adv-x="1824" d="M-16 256q0 171 147.5 284t362.5 113q138 0 231 -41q4 15 24.5 70.5t20.5 87.5q0 71 -52 115.5t-147 44.5q-148 0 -346 -123l-39 143q231 140 443 140q241 0 315 -175q85 81 190.5 128t219.5 47q132 0 228.5 -61t144 -161.5t47.5 -226.5q0 -93 -35 -180h-824 q-4 -36 -4 -55q0 -117 70.5 -189t179.5 -72q86 0 169.5 45.5t125.5 118.5l182 -55q-80 -122 -220 -198t-298 -76q-139 0 -238.5 60.5t-146.5 166.5q-88 -113 -219.5 -170t-245.5 -57q-131 0 -208.5 77.5t-77.5 198.5zM1548 604q4 40 4 60q0 118 -64.5 189t-174.5 71 q-124 0 -227.5 -90t-143.5 -230h606zM694 319q-6 24 -6 60q0 53 10 108q-92 37 -194 37q-128 0 -213.5 -63.5t-85.5 -159.5q0 -68 42.5 -112t121.5 -44q90 0 191.5 53t133.5 121z" />
<glyph unicode="&#x4d6;" horiz-adv-x="1185" d="M803 1616q-165 0 -250 71t-66 189h179q-9 -53 32 -87t117 -34q88 0 143 32.5t64 88.5h176q-17 -118 -123 -189t-272 -71zM340 1454h932l-43 -203h-701l-88 -413h607l-39 -191h-609l-94 -444h719l-43 -203h-950z" />
<glyph unicode="&#x4d7;" horiz-adv-x="1157" d="M711 1214q-139 0 -215.5 65.5t-73.5 168.5h123q-3 -57 38 -93t130 -36q85 0 127 33.5t55 95.5h123q-3 -103 -85.5 -168.5t-221.5 -65.5zM563 156q61 0 114 18.5t85.5 45.5t49 44.5t22.5 28.5l190 -62q-15 -22 -30 -41.5t-61 -61.5t-96.5 -71.5t-133 -53t-173.5 -23.5 q-115 0 -206.5 42t-148 114.5t-82 169.5t-15.5 208q10 118 62 223.5t134 183.5t194.5 123.5t236.5 45.5q164 0 273 -77t112 -218q2 -167 -142.5 -254.5t-443.5 -87.5q-97 0 -205 6q-5 -139 64.5 -221t199.5 -82zM674 913q-116 0 -213 -83t-137 -216q118 -4 172 -4 q103 0 175.5 11.5t113.5 35t59 54t16 71.5q-3 61 -55 96t-131 35z" />
<glyph unicode="&#x4d8;" horiz-adv-x="1458" d="M49 578q0 130 47 233h1071q4 46 4 70q0 166 -91 270t-234 104q-121 0 -235.5 -70t-168.5 -179l-211 88q113 167 295.5 268.5t374.5 101.5q158 0 277.5 -81.5t180 -215t60.5 -297.5q0 -169 -68 -330.5t-180.5 -282t-267 -194t-319.5 -73.5q-161 0 -284.5 81.5t-187 214.5 t-63.5 292zM1126 623h-835q-8 -41 -8 -93q0 -145 94 -240t254 -95q164 0 302.5 120.5t192.5 307.5z" />
<glyph unicode="&#x4d9;" horiz-adv-x="1196" d="M469 -20q-200 0 -313 118.5t-113 304.5q0 115 37 205h807q4 36 4 58q0 116 -65.5 186t-168.5 70q-85 0 -169 -45.5t-128 -116.5l-180 55q80 122 221 198.5t301 76.5q196 0 310 -128t114 -321q0 -127 -51 -247.5t-137 -211.5t-209.5 -146.5t-259.5 -55.5zM506 145 q118 0 218 90t138 230h-590q-4 -20 -4 -59q0 -117 66 -189t172 -72z" />
<glyph unicode="&#x4dc;" horiz-adv-x="2101" d="M975 1642l49 226h186l-47 -226h-188zM1327 1642l47 226h187l-48 -226h-186zM-88 0l680 752l-391 702h235l338 -612h180l129 612h232l-129 -612h157l580 612h266l-669 -694l424 -760h-246l-348 639h-207l-135 -639h-232l135 639h-153l-584 -639h-262z" />
<glyph unicode="&#x4dd;" horiz-adv-x="1624" d="M680 1260l49 225h186l-47 -225h-188zM1032 1260l47 225h187l-47 -225h-187zM-76 0q221 394 479 553l-266 518h225l216 -446h127l94 446h223l-94 -446h127q99 63 185 172t181 274h234q-200 -351 -430 -524l274 -547h-242l-223 467h-139l-98 -467h-226l99 467h-80 q-221 -105 -426 -467h-240z" />
<glyph unicode="&#x4de;" horiz-adv-x="1214" d="M518 1642l49 226h187l-47 -226h-189zM870 1642l48 226h186l-47 -226h-187zM500 -16q-168 0 -291 68.5t-182 193.5l192 108q36 -89 116.5 -134.5t192.5 -45.5q140 0 221.5 61.5t96.5 174.5q18 112 -43 178.5t-193 66.5h-123l37 179h113q104 0 173 59.5t83 153.5 q15 104 -34.5 162.5t-166.5 58.5q-105 0 -193.5 -44t-138.5 -124l-153 117q200 251 510 251q214 0 323.5 -106t81.5 -291q-15 -103 -81 -188.5t-171 -128.5q118 -36 172.5 -135t34.5 -232q-29 -189 -186 -296t-391 -107z" />
<glyph unicode="&#x4df;" horiz-adv-x="1030" d="M346 1260l49 225h187l-47 -225h-189zM698 1260l47 225h187l-47 -225h-187zM403 -16q-161 0 -264 58.5t-147 168.5l192 82q56 -127 234 -127q106 0 174 45t80 119q12 69 -30.5 110.5t-133.5 42.5h-133l31 144h129q60 0 105 36.5t56 92.5q11 69 -31.5 109t-132.5 40 q-151 0 -233 -117l-160 91q71 99 182 153.5t248 54.5q170 0 264.5 -83t73.5 -230q-9 -71 -55 -127t-119 -84q90 -29 128.5 -98.5t23.5 -167.5q-23 -146 -156.5 -229.5t-325.5 -83.5z" />
<glyph unicode="&#x4e2;" horiz-adv-x="1495" d="M684 1698l29 143h579l-30 -143h-578zM31 0l307 1454h231l-239 -1130l966 1130h215l-307 -1454h-231l237 1108l-954 -1108h-225z" />
<glyph unicode="&#x4e3;" horiz-adv-x="1200" d="M467 1315l29 143h579l-31 -143h-577zM57 246q0 60 21 170l141 655h223l-131 -610q-14 -66 -14 -123q0 -166 141 -166q91 0 182.5 60.5t159.5 170.5l142 668h225l-170 -805q-6 -18 -6 -30q0 -40 47 -43l-39 -193q-68 -10 -94 -10q-63 0 -97 26t-34 76q0 30 18 125 q-91 -116 -212 -176.5t-253 -60.5q-124 0 -187 67.5t-63 198.5z" />
<glyph unicode="&#x4e4;" horiz-adv-x="1495" d="M694 1642l49 226h187l-47 -226h-189zM1047 1642l47 226h186l-47 -226h-186zM31 0l307 1454h231l-239 -1130l966 1130h215l-307 -1454h-231l237 1108l-954 -1108h-225z" />
<glyph unicode="&#x4e5;" horiz-adv-x="1200" d="M477 1260l49 225h187l-47 -225h-189zM829 1260l48 225h186l-47 -225h-187zM57 246q0 60 21 170l141 655h223l-131 -610q-14 -66 -14 -123q0 -166 141 -166q91 0 182.5 60.5t159.5 170.5l142 668h225l-170 -805q-6 -18 -6 -30q0 -40 47 -43l-39 -193q-68 -10 -94 -10 q-63 0 -97 26t-34 76q0 30 18 125q-91 -116 -212 -176.5t-253 -60.5q-124 0 -187 67.5t-63 198.5z" />
<glyph unicode="&#x4e6;" horiz-adv-x="1568" d="M719 1642l49 226h186l-47 -226h-188zM1071 1642l47 226h187l-48 -226h-186zM700 -10q-123 0 -228.5 40.5t-180 111.5t-124 164t-67 201.5t-2.5 219.5q20 144 93.5 278.5t181 235.5t250 162t292.5 61q123 0 229 -40.5t180 -111.5t123.5 -164.5t66.5 -202t2 -220.5 q-20 -146 -93 -281t-180.5 -235t-250 -159.5t-292.5 -59.5zM733 197q109 0 207 46t167.5 121.5t115.5 170t59 192.5q21 143 -19.5 262.5t-140.5 192.5t-241 73q-108 0 -206 -45.5t-167.5 -120.5t-115.5 -169t-60 -193q-20 -139 20 -258.5t140 -195.5t241 -76z" />
<glyph unicode="&#x4e7;" horiz-adv-x="1261" d="M516 1253l49 226h187l-47 -226h-189zM868 1253l47 226h187l-47 -226h-187zM549 -20q-162 0 -278 77t-165 203t-28 275t105.5 275t222.5 203t299 77q162 0 279 -77t167 -203t29 -275q-15 -111 -68 -212t-134 -177t-192.5 -121t-236.5 -45zM575 162q132 0 241.5 109 t131.5 264q22 158 -55.5 265t-212.5 107q-133 0 -242 -108.5t-131 -266.5q-21 -158 57.5 -264t210.5 -106z" />
<glyph unicode="&#x4e8;" horiz-adv-x="1529" d="M915 1464q123 0 229 -40.5t180 -111.5t123.5 -164.5t66.5 -202t2 -220.5q-20 -146 -93 -281t-180.5 -235t-250 -159.5t-292.5 -59.5q-123 0 -228.5 40.5t-180 111.5t-124 164t-67 201.5t-2.5 219.5q20 144 93.5 278.5t181 235.5t250 162t292.5 61zM881 1255 q-97 0 -185.5 -36.5t-155.5 -99t-116 -141.5t-74 -167h938q3 192 -106.5 318t-300.5 126zM733 197q102 0 195 40.5t161 108t116 152.5t69 178h-948q-7 -129 37 -236.5t141 -175t229 -67.5z" />
<glyph unicode="&#x4e9;" horiz-adv-x="1234" d="M676 1090q162 0 279 -77t167 -203t29 -275q-15 -111 -68 -212t-134 -177t-192.5 -121t-236.5 -45q-162 0 -278 77t-165 203t-28 275t105.5 275t222.5 203t299 77zM651 907q-115 0 -214 -82t-140 -211h627q-5 129 -80 211t-193 82zM547 162q119 0 221 89.5t139 223.5h-633 q-1 -137 76.5 -225t196.5 -88z" />
<glyph unicode="&#x4ee;" horiz-adv-x="1310" d="M578 1698l28 143h580l-31 -143h-577zM207 -4l41 194h98q147 0 221 140l13 18l-410 1106h233l295 -883l467 883h230l-658 -1180q-84 -152 -180.5 -215t-251.5 -63h-98z" />
<glyph unicode="&#x4ef;" horiz-adv-x="1044" d="M391 1315l29 143h579l-30 -143h-578zM-82 -287q127 13 188 47.5t127 130.5l60 86l-193 1094h232l121 -872l69 114q150 244 222.5 407t117.5 351h221q-56 -199 -138 -367t-283 -493l-164 -264q-141 -227 -262.5 -317.5t-286.5 -92.5z" />
<glyph unicode="&#x4f0;" horiz-adv-x="1310" d="M588 1642l49 226h186l-47 -226h-188zM940 1642l47 226h187l-48 -226h-186zM207 -4l41 194h98q147 0 221 140l13 18l-410 1106h233l295 -883l467 883h230l-658 -1180q-84 -152 -180.5 -215t-251.5 -63h-98z" />
<glyph unicode="&#x4f1;" horiz-adv-x="1044" d="M401 1260l50 225h186l-47 -225h-189zM754 1260l47 225h186l-47 -225h-186zM-82 -287q127 13 188 47.5t127 130.5l60 86l-193 1094h232l121 -872l69 114q150 244 222.5 407t117.5 351h221q-56 -199 -138 -367t-283 -493l-164 -264q-141 -227 -262.5 -317.5t-286.5 -92.5z " />
<glyph unicode="&#x4f2;" horiz-adv-x="1310" d="M733 1618l-110 35l145 225h182zM1026 1618l-108 35l143 225h182zM207 -4l41 194h98q147 0 221 140l13 18l-410 1106h233l295 -883l467 883h230l-658 -1180q-84 -152 -180.5 -215t-251.5 -63h-98z" />
<glyph unicode="&#x4f3;" horiz-adv-x="1044" d="M547 1235l-111 35l146 225h182zM840 1235l-109 35l143 225h183zM-82 -287q127 13 188 47.5t127 130.5l60 86l-193 1094h232l121 -872l69 114q150 244 222.5 407t117.5 351h221q-56 -199 -138 -367t-283 -493l-164 -264q-141 -227 -262.5 -317.5t-286.5 -92.5z" />
<glyph unicode="&#x4f4;" horiz-adv-x="1390" d="M651 1642l49 226h187l-47 -226h-189zM1004 1642l47 226h186l-47 -226h-186zM1176 1454h231l-307 -1454h-232l123 582q-176 -66 -360 -66q-261 0 -368.5 125.5t-53.5 366.5l102 446h228l-107 -469q-31 -146 32 -211t238 -65q88 0 179.5 20.5t152.5 54.5z" />
<glyph unicode="&#x4f5;" horiz-adv-x="1101" d="M449 1260l49 225h186l-47 -225h-188zM801 1260l47 225h186l-47 -225h-186zM625 0l92 408q-132 -56 -285 -56q-176 0 -256 92.5t-41 270.5l78 356h225l-71 -328q-47 -221 165 -221q57 0 118 13.5t102 35.5l106 500h225l-227 -1071h-231z" />
<glyph unicode="&#x4f6;" horiz-adv-x="1052" d="M328 1454h868l-43 -203h-635l-223 -1048h151l-102 -479h-199l60 276h-185z" />
<glyph unicode="&#x4f7;" horiz-adv-x="1046" d="M588 481q-157 -49 -214 -90t-63 -106q-6 -64 46 -98.5t155 -34.5q79 0 153.5 33.5t127.5 95.5l139 -119l-78 -371h-205l51 223q-101 -34 -235 -34q-200 0 -296.5 81t-88.5 222q6 121 100.5 193t317.5 140q125 41 172 79t53 102q4 64 -38.5 97.5t-121.5 33.5 q-78 0 -149 -34t-113 -93l-158 96q72 94 189 144.5t270 50.5q176 0 265 -77.5t83 -211.5q-6 -119 -90 -191t-272 -131z" />
<glyph unicode="&#x4f8;" horiz-adv-x="1753" d="M813 1642l49 226h187l-48 -226h-188zM1165 1642l47 226h187l-47 -226h-187zM31 0l307 1454h231l-114 -536h233q235 0 344 -123.5t76 -333.5q-32 -205 -178.5 -333t-372.5 -128h-526zM1538 1452h231l-309 -1452h-231zM305 197h250q135 0 217 74.5t100 189.5q11 51 2 98 t-32 83t-75 57.5t-126 21.5h-227z" />
<glyph unicode="&#x4f9;" horiz-adv-x="1486" d="M872 1485l-47 -225h-188l49 225h186zM1223 1485l-47 -225h-187l47 225h187zM551 750q199 0 303 -106.5t78 -291.5q-18 -127 -85.5 -211t-163 -120.5t-218.5 -36.5q-101 0 -179.5 26t-133 79.5t-73 136t0.5 196.5q18 96 42.5 201t59.5 246.5t49 201.5h226 q-31 -121 -78 -321h172zM1245 1071h225l-229 -1071h-225zM713 373q12 99 -39 153t-170 54h-164q-31 -147 -35 -170q-21 -119 33.5 -181.5t155.5 -62.5q89 0 148 56.5t71 150.5z" />
<glyph unicode="&#x51a;" horiz-adv-x="1482" d="M1446 858q0 -178 -82.5 -348.5t-222.5 -298.5l135 -211h-223l-64 100q-184 -110 -381 -110q-123 0 -224 49.5t-166 133.5t-100.5 192t-35.5 227q0 130 45.5 260t126.5 238.5t186 193.5t231.5 132.5t254.5 47.5q98 0 182.5 -33t146 -90.5t105 -134.5t65 -165.5 t21.5 -182.5zM653 197q123 0 234 65l-154 244h219l78 -123q85 95 132.5 217t47.5 242q0 113 -36.5 205.5t-113.5 151t-183 58.5q-92 0 -179 -38t-154.5 -103t-119 -147t-78.5 -175.5t-27 -183.5q0 -113 36.5 -205t113.5 -150t184 -58z" />
<glyph unicode="&#x51b;" horiz-adv-x="1239" d="M39 414q0 133 52 259t136 216.5t195.5 145.5t226.5 55t197.5 -58t118.5 -155l41 194h198l-262 -1231q-4 -20 -4 -28q0 -23 12.5 -33t40.5 -12l-41 -193q-49 -8 -114 -8t-106.5 35.5t-41.5 93.5q0 17 6 35l99 471q-172 -221 -406 -221q-107 0 -187.5 59t-120.5 156.5 t-40 218.5zM831 377l60 282q-3 97 -70 167.5t-159 70.5q-98 0 -188.5 -64.5t-145 -167.5t-54.5 -212q0 -121 63.5 -201t170.5 -80q172 0 323 205z" />
<glyph unicode="&#x51c;" horiz-adv-x="2052" d="M180 1454h248l170 -1188l313 535l-98 647h215l62 -494l272 494h215l-373 -647l84 -535l674 1188h252l-879 -1454h-194l-115 651l-393 -651h-195z" />
<glyph unicode="&#x51d;" horiz-adv-x="1593" d="M94 1071h225l150 -870q113 155 209 313l-131 557h213l67 -340q82 162 140 340h196q-88 -283 -256 -551l70 -297q168 230 274 429t172 419h209q-155 -507 -610 -1071h-201l-67 324q-147 -216 -226 -324h-221z" />
<glyph unicode="&#x524;" horiz-adv-x="1574" d="M1487 1454l-264 -1251h194l-102 -479h-199l60 276h-228l266 1251h-688l-264 -1251h-231l307 1454h1149z" />
<glyph unicode="&#x525;" horiz-adv-x="1300" d="M977 197h188l-96 -453h-205l56 256h-209l188 895h-465l-190 -895h-226l226 1071h919z" />
<glyph unicode="&#x1e08;" horiz-adv-x="1341" d="M1192 1880l-227 -262l-144 37l156 225h215zM662 195q111 0 221 60t184 179l168 -108q-96 -156 -260.5 -244t-333.5 -94q53 -69 53 -148q0 -103 -68.5 -169t-183.5 -66q-108 0 -196 59l84 121q56 -43 108 -43q58 0 93.5 32t35.5 89q0 69 -71 137q-130 29 -225.5 121 t-141 214.5t-45.5 260.5q0 154 60.5 307.5t166 278t263.5 202.5t337 78q193 0 314.5 -87t160.5 -230l-194 -117q-61 227 -318 227q-108 0 -200.5 -39t-156.5 -103t-109.5 -147.5t-67 -172t-21.5 -175.5q0 -117 39 -212t118 -153t186 -58z" />
<glyph unicode="&#x1e09;" horiz-adv-x="1097" d="M1024 1495l-227 -262l-144 37l156 225h215zM502 172q76 0 152.5 42.5t111.5 104.5l207 -65q-62 -99 -167.5 -170t-230.5 -94q54 -70 54 -150q0 -103 -68.5 -169t-183.5 -66q-109 0 -197 59l84 121q56 -43 109 -43q58 0 93.5 32t35.5 89q0 60 -51 117q-194 6 -303 134 t-109 318q0 101 31.5 198.5t90.5 180t138.5 145.5t181.5 98.5t213 35.5q160 0 260 -71.5t133 -195.5l-233 -69q-22 70 -73.5 106.5t-125.5 36.5q-98 0 -186 -58t-142.5 -159.5t-54.5 -220.5q0 -125 64 -206t166 -81z" />
<glyph unicode="&#x1e0c;" horiz-adv-x="1417" d="M340 1454h494q136 0 241 -43t170 -119.5t98 -177.5t33 -221q0 -190 -65 -356t-178 -284t-271 -185.5t-338 -67.5h-493zM567 203q127 0 235.5 53.5t181.5 144t114 209t41 248.5q0 177 -90.5 285t-257.5 108h-263l-223 -1048h262zM317 -387l52 237h202l-49 -237h-205z" />
<glyph unicode="&#x1e0d;" horiz-adv-x="1257" d="M39 422q0 128 49 251t129 214t189 147t223 56q113 0 193 -61.5t114 -160.5l133 627h227l-262 -1229q-4 -24 -4 -30q0 -22 11 -31.5t36 -11.5l-41 -193q-65 -10 -92 -10q-63 0 -99 27.5t-36 76.5q0 33 16 101q-76 -101 -186.5 -158t-218.5 -57q-175 0 -278 126t-103 316z M836 385l57 281q-12 97 -81 164t-155 67q-99 0 -188.5 -65t-141 -166t-51.5 -207q0 -124 66 -205.5t176 -81.5q84 0 179.5 62t138.5 151zM332 -387l51 237h203l-49 -237h-205z" />
<glyph unicode="&#x1e0e;" horiz-adv-x="1417" d="M340 1454h494q136 0 241 -43t170 -119.5t98 -177.5t33 -221q0 -190 -65 -356t-178 -284t-271 -185.5t-338 -67.5h-493zM567 203q127 0 235.5 53.5t181.5 144t114 209t41 248.5q0 177 -90.5 285t-257.5 108h-263l-223 -1048h262zM154 -311l32 141h551l-32 -141h-551z" />
<glyph unicode="&#x1e0f;" horiz-adv-x="1257" d="M39 422q0 128 49 251t129 214t189 147t223 56q113 0 193 -61.5t114 -160.5l133 627h227l-262 -1229q-4 -24 -4 -30q0 -22 11 -31.5t36 -11.5l-41 -193q-65 -10 -92 -10q-63 0 -99 27.5t-36 76.5q0 33 16 101q-76 -101 -186.5 -158t-218.5 -57q-175 0 -278 126t-103 316z M836 385l57 281q-12 97 -81 164t-155 67q-99 0 -188.5 -65t-141 -166t-51.5 -207q0 -124 66 -205.5t176 -81.5q84 0 179.5 62t138.5 151zM168 -311l33 141h551l-33 -141h-551z" />
<glyph unicode="&#x1e14;" horiz-adv-x="1185" d="M672 2265h211l63 -225l-158 -39zM551 1698l29 143h579l-31 -143h-577zM340 1454h932l-43 -203h-701l-88 -413h607l-39 -191h-609l-94 -444h719l-43 -203h-950z" />
<glyph unicode="&#x1e15;" horiz-adv-x="1116" d="M858 1655l-158 -39l-116 264h211zM1071 1456l-31 -143h-577l29 143h579zM700 1090q170 0 269.5 -76.5t99.5 -218.5q0 -336 -600 -336q-101 0 -197 8q-2 -14 -2 -39q0 -126 60 -204.5t178 -78.5q88 0 170 44.5t129 119.5l178 -55q-79 -122 -220.5 -198t-295.5 -76 q-198 0 -313 127t-115 325q0 129 51 249.5t137.5 210.5t210 144t260.5 54zM473 606q387 0 387 182q0 67 -48.5 101.5t-135.5 34.5q-140 0 -236 -88t-139 -224q92 -6 172 -6z" />
<glyph unicode="&#x1e16;" horiz-adv-x="1185" d="M969 2005l-144 37l156 225h215zM551 1698l29 143h579l-31 -143h-577zM340 1454h932l-43 -203h-701l-88 -413h607l-39 -191h-609l-94 -444h719l-43 -203h-950z" />
<glyph unicode="&#x1e17;" horiz-adv-x="1116" d="M1108 1882l-227 -262l-144 37l156 225h215zM463 1313l29 143h579l-31 -143h-577zM700 1090q170 0 269.5 -76.5t99.5 -218.5q0 -336 -600 -336q-101 0 -197 8q-2 -14 -2 -39q0 -126 60 -204.5t178 -78.5q88 0 170 44.5t129 119.5l178 -55q-79 -122 -220.5 -198t-295.5 -76 q-198 0 -313 127t-115 325q0 129 51 249.5t137.5 210.5t210 144t260.5 54zM473 606q387 0 387 182q0 67 -48.5 101.5t-135.5 34.5q-140 0 -236 -88t-139 -224q92 -6 172 -6z" />
<glyph unicode="&#x1e1c;" horiz-adv-x="1185" d="M823 1628q-87 0 -139.5 53t-52.5 138q0 19 8 59h125q-4 -24 -4 -37q0 -45 24 -76.5t62 -31.5q43 0 83.5 41t59.5 104h125q-23 -108 -106 -179t-185 -71zM1229 1251h-701l-88 -413h607l-39 -191h-609l-94 -444h719l-43 -203h-428q61 -74 61 -160q0 -103 -68.5 -169 t-183.5 -66q-108 0 -196 59l84 121q56 -43 108 -43q58 0 93.5 32t35.5 89q0 69 -71 137h-385l309 1454h932z" />
<glyph unicode="&#x1e1d;" horiz-adv-x="1116" d="M735 1243q-87 0 -139.5 53t-52.5 138q0 19 8 59h125q-4 -24 -4 -37q0 -45 24 -76.5t62 -31.5q43 0 83.5 41t59.5 104h125q-23 -108 -106 -179t-185 -71zM469 459q-101 0 -197 8q-2 -14 -2 -39q0 -126 60 -204.5t178 -78.5q88 0 170 44.5t129 119.5l178 -55 q-67 -104 -182.5 -176t-247.5 -92q51 -67 51 -146q0 -103 -68.5 -169t-183.5 -66q-108 0 -196 59l84 121q56 -43 108 -43q58 0 93.5 32t35.5 89q0 63 -53 119q-179 13 -282 138t-103 312q0 129 51 249.5t137.5 210.5t210 144t260.5 54q170 0 269.5 -76.5t99.5 -218.5 q0 -336 -600 -336zM676 924q-140 0 -236 -88t-139 -224q92 -6 172 -6q387 0 387 182q0 67 -48.5 101.5t-135.5 34.5z" />
<glyph unicode="&#x1e20;" horiz-adv-x="1415" d="M1292 1837l-30 -143h-578l29 143h579zM831 565l37 170h478l-156 -735h-193l39 180q-214 -190 -438 -190q-152 0 -271 82.5t-181 219.5t-62 302q0 167 70.5 327.5t185 279t268 191t312.5 72.5q191 0 310.5 -84.5t160.5 -232.5l-201 -127q-32 116 -116.5 176.5t-205.5 60.5 q-144 0 -272 -93.5t-202.5 -242.5t-74.5 -309q0 -178 93.5 -296.5t246.5 -118.5q214 0 426 215l33 153h-287z" />
<glyph unicode="&#x1e21;" horiz-adv-x="1239" d="M457 1313l28 143h580l-31 -143h-577zM-90 -227l151 118q39 -85 120.5 -130.5t187.5 -45.5q139 0 247 80.5t142 235.5l33 164q-71 -95 -177.5 -150t-212.5 -55q-111 0 -194.5 60t-125.5 157t-42 215q0 129 49.5 251.5t131 214t193.5 147t232 55.5q117 0 196.5 -59.5 t121.5 -162.5l43 203h198l-221 -1040q-32 -151 -128 -263t-230.5 -168.5t-290.5 -56.5q-163 0 -264.5 58.5t-159.5 171.5zM831 385l62 281q-15 101 -83.5 166t-156.5 65q-101 0 -190.5 -67t-140 -168t-50.5 -203q0 -122 67.5 -204.5t174.5 -82.5q92 0 183.5 63t133.5 150z " />
<glyph unicode="&#x1e24;" horiz-adv-x="1464" d="M340 1454h231l-129 -608h680l129 608h230l-310 -1454h-229l137 641h-680l-137 -641h-231zM436 -387l51 237h203l-49 -237h-205z" />
<glyph unicode="&#x1e25;" horiz-adv-x="1175" d="M317 1495h226l-135 -639q82 109 195 171.5t231 62.5q247 0 247 -261q0 -89 -20 -176l-137 -653h-226l127 600q15 84 15 121q0 84 -36.5 126t-105.5 42q-86 0 -184.5 -72t-151.5 -180l-137 -637h-225zM291 -387l51 237h203l-49 -237h-205z" />
<glyph unicode="&#x1e2a;" horiz-adv-x="1464" d="M340 1454h231l-129 -608h680l129 608h230l-310 -1454h-229l137 641h-680l-137 -641h-231zM535 -360q-95 0 -140.5 71t-17.5 178h119q-14 -59 4.5 -102t58.5 -43q38 0 76.5 41t58.5 104h119q-28 -108 -106.5 -178.5t-171.5 -70.5z" />
<glyph unicode="&#x1e2b;" horiz-adv-x="1175" d="M317 1495h226l-135 -639q82 109 195 171.5t231 62.5q247 0 247 -261q0 -89 -20 -176l-137 -653h-226l127 600q15 84 15 121q0 84 -36.5 126t-105.5 42q-86 0 -184.5 -72t-151.5 -180l-137 -637h-225zM389 -360q-95 0 -140.5 71t-17.5 178h119q-14 -59 5 -102t59 -43 q38 0 76.5 41t58.5 104h119q-28 -108 -107 -178.5t-172 -70.5z" />
<glyph unicode="&#x1e2e;" horiz-adv-x="555" d="M647 2032l-143 36l155 226h215zM231 1642l50 226h186l-47 -226h-189zM584 1642l47 226h186l-47 -226h-186zM340 1452h231l-309 -1452h-231z" />
<glyph unicode="&#x1e2f;" horiz-adv-x="489" d="M526 1649l-143 37l156 225h215zM111 1260l49 225h186l-47 -225h-188zM463 1260l47 225h186l-47 -225h-186zM229 1071h226l-230 -1071h-225z" />
<glyph unicode="&#x1e36;" horiz-adv-x="1146" d="M340 1454h231l-266 -1251h731l-43 -203h-962zM328 -387l51 237h203l-50 -237h-204z" />
<glyph unicode="&#x1e37;" horiz-adv-x="602" d="M43 158q0 36 8 69l268 1268h224l-250 -1186q-6 -21 -6 -41q0 -40 23.5 -63t64.5 -23t112 27l-8 -176q-52 -22 -120 -35.5t-121 -13.5q-94 0 -144.5 45.5t-50.5 128.5zM74 -387l51 237h203l-49 -237h-205z" />
<glyph unicode="&#x1e3a;" horiz-adv-x="1146" d="M340 1454h231l-266 -1251h731l-43 -203h-962zM164 -311l33 141h551l-33 -141h-551z" />
<glyph unicode="&#x1e3b;" horiz-adv-x="602" d="M43 158q0 36 8 69l268 1268h224l-250 -1186q-6 -21 -6 -41q0 -40 23.5 -63t64.5 -23t112 27l-8 -176q-52 -22 -120 -35.5t-121 -13.5q-94 0 -144.5 45.5t-50.5 128.5zM-90 -311l33 141h551l-33 -141h-551z" />
<glyph unicode="&#x1e42;" horiz-adv-x="1708" d="M340 1454h246l258 -889l637 889h243l-309 -1454h-231l223 1047l-565 -793h-127l-230 793l-223 -1047h-231zM557 -387l51 237h203l-49 -237h-205z" />
<glyph unicode="&#x1e43;" horiz-adv-x="1816" d="M229 1071h203l-45 -215q78 109 191.5 171.5t232.5 62.5q120 0 181.5 -63.5t66.5 -180.5q90 119 199 181.5t229 62.5q239 0 239 -256q0 -68 -22 -181l-139 -653h-226l127 600q17 83 17 129q0 160 -131 160q-87 0 -176.5 -71t-147.5 -183l-133 -635h-225l127 600 q16 68 16 131q0 158 -129 158q-88 0 -177.5 -70t-144.5 -182l-137 -637h-225zM612 -387l52 237h202l-49 -237h-205z" />
<glyph unicode="&#x1e44;" horiz-adv-x="1507" d="M891 1638l51 236h201l-49 -236h-203zM340 1454h180l551 -1048l221 1046h232l-310 -1452h-188l-547 1024l-217 -1024h-231z" />
<glyph unicode="&#x1e45;" horiz-adv-x="1175" d="M741 1257l52 236h200l-49 -236h-203zM229 1071h203l-45 -215q80 108 204 171t257 63q237 0 237 -250q0 -74 -24 -187l-137 -653h-226l127 600q17 87 17 131q0 158 -131 158q-91 0 -192.5 -72.5t-156.5 -179.5l-137 -637h-225z" />
<glyph unicode="&#x1e46;" horiz-adv-x="1507" d="M340 1454h180l551 -1048l221 1046h232l-310 -1452h-188l-547 1024l-217 -1024h-231zM457 -387l51 237h203l-49 -237h-205z" />
<glyph unicode="&#x1e47;" horiz-adv-x="1175" d="M229 1071h203l-45 -215q80 108 204 171t257 63q237 0 237 -250q0 -74 -24 -187l-137 -653h-226l127 600q17 87 17 131q0 158 -131 158q-91 0 -192.5 -72.5t-156.5 -179.5l-137 -637h-225zM295 -387l51 237h203l-49 -237h-205z" />
<glyph unicode="&#x1e48;" horiz-adv-x="1507" d="M340 1454h180l551 -1048l221 1046h232l-310 -1452h-188l-547 1024l-217 -1024h-231zM293 -311l33 141h551l-33 -141h-551z" />
<glyph unicode="&#x1e49;" horiz-adv-x="1175" d="M229 1071h203l-45 -215q80 108 204 171t257 63q237 0 237 -250q0 -74 -24 -187l-137 -653h-226l127 600q17 87 17 131q0 158 -131 158q-91 0 -192.5 -72.5t-156.5 -179.5l-137 -637h-225zM131 -311l33 141h551l-33 -141h-551z" />
<glyph unicode="&#x1e4c;" horiz-adv-x="1484" d="M1116 2038l-143 37l155 225h215zM858 1726q-25 0 -45.5 -9.5t-33 -22.5t-21 -28t-12 -25t-3.5 -13h-127q3 15 14.5 41t35 60.5t52.5 64t72.5 50t90.5 20.5q39 0 72 -14t52.5 -31t48.5 -31t60 -14q32 0 58.5 14t40.5 34t20 32.5t8 19.5h127q-2 -13 -13.5 -38t-35.5 -60 t-55 -65t-76.5 -51.5t-95.5 -21.5t-90.5 22t-75 44t-68.5 22zM84 592q0 162 71 322t186 280.5t270 195t315 74.5q99 0 183.5 -33t145.5 -90.5t104.5 -134.5t65 -165.5t21.5 -182.5q0 -161 -70.5 -320t-184.5 -279t-269 -194.5t-314 -74.5q-123 0 -224 49.5t-165.5 133.5 t-99.5 192t-35 227zM1210 842q0 113 -36.5 205t-113 150t-181.5 58q-115 0 -221 -58.5t-179 -150.5t-116.5 -207.5t-43.5 -228.5t36.5 -205t113.5 -150t184 -58q115 0 220.5 59t178 151.5t115.5 207.5t43 227z" />
<glyph unicode="&#x1e4d;" horiz-adv-x="1191" d="M883 1657l-144 37l156 225h215zM625 1346q-25 0 -45.5 -9.5t-33 -23t-21 -28.5t-12 -25t-3.5 -13h-127q3 15 14.5 41t34.5 60.5t52.5 64t72.5 50t90 20.5q49 0 87.5 -22.5t73 -45t73.5 -22.5q32 0 58.5 14t40.5 34t20 32.5t8 19.5h127q-3 -17 -22 -52t-52 -78 t-87.5 -74.5t-115.5 -31.5q-50 0 -90.5 22.5t-74.5 44.5t-68 22zM39 432q0 176 84 327t232 241t325 90q109 0 194 -35.5t137.5 -97.5t79.5 -143.5t27 -176.5q0 -131 -49.5 -251.5t-134.5 -210t-205.5 -142.5t-255.5 -53q-108 0 -192.5 35t-136.5 97.5t-78.5 143t-26.5 176.5 zM883 606q0 131 -62 211t-176 80q-95 0 -180.5 -56.5t-139 -158t-53.5 -221.5q0 -131 62.5 -210t175.5 -79q149 0 261 125.5t112 308.5z" />
<glyph unicode="&#x1e4e;" horiz-adv-x="1484" d="M791 2062l49 226h186l-47 -226h-188zM1143 2062l47 226h186l-47 -226h-186zM858 1726q-25 0 -45.5 -9.5t-33 -22.5t-21 -28t-12 -25t-3.5 -13h-127q3 15 14.5 41t35 60.5t52.5 64t72.5 50t90.5 20.5q39 0 72 -14t52.5 -31t48.5 -31t60 -14q32 0 58.5 14t40.5 34t20 32.5 t8 19.5h127q-2 -13 -13.5 -38t-35.5 -60t-55 -65t-76.5 -51.5t-95.5 -21.5t-90.5 22t-75 44t-68.5 22zM84 592q0 162 71 322t186 280.5t270 195t315 74.5q99 0 183.5 -33t145.5 -90.5t104.5 -134.5t65 -165.5t21.5 -182.5q0 -161 -70.5 -320t-184.5 -279t-269 -194.5 t-314 -74.5q-123 0 -224 49.5t-165.5 133.5t-99.5 192t-35 227zM1210 842q0 113 -36.5 205t-113 150t-181.5 58q-115 0 -221 -58.5t-179 -150.5t-116.5 -207.5t-43.5 -228.5t36.5 -205t113.5 -150t184 -58q115 0 220.5 59t178 151.5t115.5 207.5t43 227z" />
<glyph unicode="&#x1e4f;" horiz-adv-x="1191" d="M557 1681l49 226h187l-48 -226h-188zM909 1681l47 226h187l-47 -226h-187zM625 1346q-25 0 -45.5 -9.5t-33 -23t-21 -28.5t-12 -25t-3.5 -13h-127q3 15 14.5 41t34.5 60.5t52.5 64t72.5 50t90 20.5q49 0 87.5 -22.5t73 -45t73.5 -22.5q32 0 58.5 14t40.5 34t20 32.5 t8 19.5h127q-3 -17 -22 -52t-52 -78t-87.5 -74.5t-115.5 -31.5q-50 0 -90.5 22.5t-74.5 44.5t-68 22zM39 432q0 176 84 327t232 241t325 90q109 0 194 -35.5t137.5 -97.5t79.5 -143.5t27 -176.5q0 -131 -49.5 -251.5t-134.5 -210t-205.5 -142.5t-255.5 -53q-108 0 -192.5 35 t-136.5 97.5t-78.5 143t-26.5 176.5zM883 606q0 131 -62 211t-176 80q-95 0 -180.5 -56.5t-139 -158t-53.5 -221.5q0 -131 62.5 -210t175.5 -79q149 0 261 125.5t112 308.5z" />
<glyph unicode="&#x1e50;" horiz-adv-x="1484" d="M811 2261h211l63 -225l-157 -39zM690 1694l29 143h579l-30 -143h-578zM84 592q0 162 71 322t186 280.5t270 195t315 74.5q99 0 183.5 -33t145.5 -90.5t104.5 -134.5t65 -165.5t21.5 -182.5q0 -161 -70.5 -320t-184.5 -279t-269 -194.5t-314 -74.5q-123 0 -224 49.5 t-165.5 133.5t-99.5 192t-35 227zM1210 842q0 113 -36.5 205t-113 150t-181.5 58q-115 0 -221 -58.5t-179 -150.5t-116.5 -207.5t-43.5 -228.5t36.5 -205t113.5 -150t184 -58q115 0 220.5 59t178 151.5t115.5 207.5t43 227z" />
<glyph unicode="&#x1e51;" horiz-adv-x="1191" d="M578 1880h210l64 -225l-158 -39zM457 1313l28 143h580l-31 -143h-577zM39 432q0 176 84 327t232 241t325 90q109 0 194 -35.5t137.5 -97.5t79.5 -143.5t27 -176.5q0 -131 -49.5 -251.5t-134.5 -210t-205.5 -142.5t-255.5 -53q-108 0 -192.5 35t-136.5 97.5t-78.5 143 t-26.5 176.5zM883 606q0 131 -62 211t-176 80q-95 0 -180.5 -56.5t-139 -158t-53.5 -221.5q0 -131 62.5 -210t175.5 -79q149 0 261 125.5t112 308.5z" />
<glyph unicode="&#x1e52;" horiz-adv-x="1484" d="M1108 2001l-143 37l155 225h215zM690 1694l29 143h579l-30 -143h-578zM84 592q0 162 71 322t186 280.5t270 195t315 74.5q99 0 183.5 -33t145.5 -90.5t104.5 -134.5t65 -165.5t21.5 -182.5q0 -161 -70.5 -320t-184.5 -279t-269 -194.5t-314 -74.5q-123 0 -224 49.5 t-165.5 133.5t-99.5 192t-35 227zM1210 842q0 113 -36.5 205t-113 150t-181.5 58q-115 0 -221 -58.5t-179 -150.5t-116.5 -207.5t-43.5 -228.5t36.5 -205t113.5 -150t184 -58q115 0 220.5 59t178 151.5t115.5 207.5t43 227z" />
<glyph unicode="&#x1e53;" horiz-adv-x="1191" d="M874 1620l-143 37l156 225h215zM457 1313l28 143h580l-31 -143h-577zM39 432q0 176 84 327t232 241t325 90q109 0 194 -35.5t137.5 -97.5t79.5 -143.5t27 -176.5q0 -131 -49.5 -251.5t-134.5 -210t-205.5 -142.5t-255.5 -53q-108 0 -192.5 35t-136.5 97.5t-78.5 143 t-26.5 176.5zM883 606q0 131 -62 211t-176 80q-95 0 -180.5 -56.5t-139 -158t-53.5 -221.5q0 -131 62.5 -210t175.5 -79q149 0 261 125.5t112 308.5z" />
<glyph unicode="&#x1e5a;" horiz-adv-x="1304" d="M31 0l309 1454h604q154 0 247 -117t93 -276q0 -164 -105.5 -310.5t-260.5 -197.5l204 -553h-260l-188 506h-305l-107 -506h-231zM782 709q103 0 184 101.5t81 225.5q0 91 -45.5 153t-114.5 62h-359l-116 -542h370zM336 -387l51 237h203l-49 -237h-205z" />
<glyph unicode="&#x1e5b;" horiz-adv-x="749" d="M229 1071h209l-53 -240q80 112 178.5 179t192.5 67q29 0 53 -4l-43 -196q-123 -3 -230 -61.5t-171 -160.5l-140 -655h-225zM-68 -387l52 237h202l-49 -237h-205z" />
<glyph unicode="&#x1e5e;" horiz-adv-x="1304" d="M31 0l309 1454h604q154 0 247 -117t93 -276q0 -164 -105.5 -310.5t-260.5 -197.5l204 -553h-260l-188 506h-305l-107 -506h-231zM782 709q103 0 184 101.5t81 225.5q0 91 -45.5 153t-114.5 62h-359l-116 -542h370zM172 -311l33 141h551l-33 -141h-551z" />
<glyph unicode="&#x1e5f;" horiz-adv-x="749" d="M229 1071h209l-53 -240q80 112 178.5 179t192.5 67q29 0 53 -4l-43 -196q-123 -3 -230 -61.5t-171 -160.5l-140 -655h-225zM-231 -311l32 141h551l-33 -141h-550z" />
<glyph unicode="&#x1e60;" horiz-adv-x="1208" d="M745 1665l52 236h200l-49 -236h-203zM-35 182l150 197q40 -64 163 -125t267 -61q145 0 224 58.5t79 162.5q0 35 -16 63.5t-41 49t-70.5 40.5t-88 33.5t-110.5 32.5q-172 50 -253 120t-81 191q0 159 84.5 279t221 180.5t301.5 60.5q134 0 245.5 -45t190.5 -119l-144 -188 q-30 51 -129.5 99.5t-212.5 48.5q-150 0 -227.5 -64.5t-77.5 -173.5q0 -32 13 -57.5t34 -44t61 -36t79.5 -30t103.5 -29.5q92 -25 155.5 -51.5t116 -66t78 -95.5t25.5 -129q0 -125 -50 -222.5t-136 -156.5t-193 -88.5t-229 -29.5q-158 0 -296.5 50.5t-236.5 145.5z" />
<glyph unicode="&#x1e61;" horiz-adv-x="976" d="M537 1257l51 236h200l-49 -236h-202zM-51 141l121 144q150 -138 329 -138q104 0 168 45t64 119q0 21 -5 37t-19.5 29.5t-27.5 22.5t-43.5 20.5t-52 18t-67.5 20.5q-71 21 -113 36t-83 36t-61.5 44.5t-33 56t-12.5 75.5q0 166 135.5 274.5t335.5 108.5q231 0 366 -144 l-125 -135q-110 113 -260 113q-104 0 -167.5 -42.5t-63.5 -121.5q0 -54 36.5 -77.5t149.5 -55.5q181 -51 259.5 -110t78.5 -169q0 -159 -133.5 -263.5t-349.5 -104.5q-131 0 -243.5 42t-182.5 119z" />
<glyph unicode="&#x1e62;" horiz-adv-x="1208" d="M-35 182l150 197q40 -64 163 -125t267 -61q145 0 224 58.5t79 162.5q0 35 -16 63.5t-41 49t-70.5 40.5t-88 33.5t-110.5 32.5q-172 50 -253 120t-81 191q0 159 84.5 279t221 180.5t301.5 60.5q134 0 245.5 -45t190.5 -119l-144 -188q-30 51 -129.5 99.5t-212.5 48.5 q-150 0 -227.5 -64.5t-77.5 -173.5q0 -32 13 -57.5t34 -44t61 -36t79.5 -30t103.5 -29.5q92 -25 155.5 -51.5t116 -66t78 -95.5t25.5 -129q0 -125 -50 -222.5t-136 -156.5t-193 -88.5t-229 -29.5q-158 0 -296.5 50.5t-236.5 145.5zM307 -387l51 237h203l-49 -237h-205z" />
<glyph unicode="&#x1e63;" horiz-adv-x="976" d="M-51 141l121 144q150 -138 329 -138q104 0 168 45t64 119q0 21 -5 37t-19.5 29.5t-27.5 22.5t-43.5 20.5t-52 18t-67.5 20.5q-71 21 -113 36t-83 36t-61.5 44.5t-33 56t-12.5 75.5q0 166 135.5 274.5t335.5 108.5q231 0 366 -144l-125 -135q-110 113 -260 113 q-104 0 -167.5 -42.5t-63.5 -121.5q0 -54 36.5 -77.5t149.5 -55.5q181 -51 259.5 -110t78.5 -169q0 -159 -133.5 -263.5t-349.5 -104.5q-131 0 -243.5 42t-182.5 119zM195 -387l51 237h203l-50 -237h-204z" />
<glyph unicode="&#x1e64;" horiz-adv-x="1208" d="M891 2091l51 236h201l-49 -236h-203zM905 1640l-143 37l156 226h215zM-35 182l150 197q40 -64 163 -125t267 -61q145 0 224 58.5t79 162.5q0 35 -16 63.5t-41 49t-70.5 40.5t-88 33.5t-110.5 32.5q-172 50 -253 120t-81 191q0 159 84.5 279t221 180.5t301.5 60.5 q134 0 245.5 -45t190.5 -119l-144 -188q-30 51 -129.5 99.5t-212.5 48.5q-150 0 -227.5 -64.5t-77.5 -173.5q0 -32 13 -57.5t34 -44t61 -36t79.5 -30t103.5 -29.5q92 -25 155.5 -51.5t116 -66t78 -95.5t25.5 -129q0 -125 -50 -222.5t-136 -156.5t-193 -88.5t-229 -29.5 q-158 0 -296.5 50.5t-236.5 145.5z" />
<glyph unicode="&#x1e65;" horiz-adv-x="976" d="M682 1683l51 236h201l-49 -236h-203zM696 1233l-143 37l156 225h215zM-51 141l121 144q150 -138 329 -138q104 0 168 45t64 119q0 21 -5 37t-19.5 29.5t-27.5 22.5t-43.5 20.5t-52 18t-67.5 20.5q-71 21 -113 36t-83 36t-61.5 44.5t-33 56t-12.5 75.5q0 166 135.5 274.5 t335.5 108.5q231 0 366 -144l-125 -135q-110 113 -260 113q-104 0 -167.5 -42.5t-63.5 -121.5q0 -54 36.5 -77.5t149.5 -55.5q181 -51 259.5 -110t78.5 -169q0 -159 -133.5 -263.5t-349.5 -104.5q-131 0 -243.5 42t-182.5 119z" />
<glyph unicode="&#x1e66;" horiz-adv-x="1208" d="M838 2089l51 235h201l-50 -235h-202zM590 1843l131 58l137 -129l193 129l108 -58l-246 -194h-163zM-35 182l150 197q40 -64 163 -125t267 -61q145 0 224 58.5t79 162.5q0 35 -16 63.5t-41 49t-70.5 40.5t-88 33.5t-110.5 32.5q-172 50 -253 120t-81 191q0 159 84.5 279 t221 180.5t301.5 60.5q134 0 245.5 -45t190.5 -119l-144 -188q-30 51 -129.5 99.5t-212.5 48.5q-150 0 -227.5 -64.5t-77.5 -173.5q0 -32 13 -57.5t34 -44t61 -36t79.5 -30t103.5 -29.5q92 -25 155.5 -51.5t116 -66t78 -95.5t25.5 -129q0 -125 -50 -222.5t-136 -156.5 t-193 -88.5t-229 -29.5q-158 0 -296.5 50.5t-236.5 145.5z" />
<glyph unicode="&#x1e67;" horiz-adv-x="976" d="M629 1681l51 236h201l-50 -236h-202zM381 1436l131 57l137 -129l193 129l108 -57l-245 -195h-164zM-51 141l121 144q150 -138 329 -138q104 0 168 45t64 119q0 21 -5 37t-19.5 29.5t-27.5 22.5t-43.5 20.5t-52 18t-67.5 20.5q-71 21 -113 36t-83 36t-61.5 44.5t-33 56 t-12.5 75.5q0 166 135.5 274.5t335.5 108.5q231 0 366 -144l-125 -135q-110 113 -260 113q-104 0 -167.5 -42.5t-63.5 -121.5q0 -54 36.5 -77.5t149.5 -55.5q181 -51 259.5 -110t78.5 -169q0 -159 -133.5 -263.5t-349.5 -104.5q-131 0 -243.5 42t-182.5 119z" />
<glyph unicode="&#x1e68;" horiz-adv-x="1208" d="M745 1665l52 236h200l-49 -236h-203zM-35 182l150 197q40 -64 163 -125t267 -61q145 0 224 58.5t79 162.5q0 35 -16 63.5t-41 49t-70.5 40.5t-88 33.5t-110.5 32.5q-172 50 -253 120t-81 191q0 159 84.5 279t221 180.5t301.5 60.5q134 0 245.5 -45t190.5 -119l-144 -188 q-30 51 -129.5 99.5t-212.5 48.5q-150 0 -227.5 -64.5t-77.5 -173.5q0 -32 13 -57.5t34 -44t61 -36t79.5 -30t103.5 -29.5q92 -25 155.5 -51.5t116 -66t78 -95.5t25.5 -129q0 -125 -50 -222.5t-136 -156.5t-193 -88.5t-229 -29.5q-158 0 -296.5 50.5t-236.5 145.5zM307 -387 l51 237h203l-49 -237h-205z" />
<glyph unicode="&#x1e69;" horiz-adv-x="976" d="M537 1257l51 236h200l-49 -236h-202zM-51 141l121 144q150 -138 329 -138q104 0 168 45t64 119q0 21 -5 37t-19.5 29.5t-27.5 22.5t-43.5 20.5t-52 18t-67.5 20.5q-71 21 -113 36t-83 36t-61.5 44.5t-33 56t-12.5 75.5q0 166 135.5 274.5t335.5 108.5q231 0 366 -144 l-125 -135q-110 113 -260 113q-104 0 -167.5 -42.5t-63.5 -121.5q0 -54 36.5 -77.5t149.5 -55.5q181 -51 259.5 -110t78.5 -169q0 -159 -133.5 -263.5t-349.5 -104.5q-131 0 -243.5 42t-182.5 119zM195 -387l51 237h203l-50 -237h-204z" />
<glyph unicode="&#x1e6c;" horiz-adv-x="1206" d="M621 1251h-455l43 203h1141l-43 -203h-455l-266 -1251h-230zM289 -387l51 237h203l-49 -237h-205z" />
<glyph unicode="&#x1e6d;" horiz-adv-x="727" d="M96 160q0 34 8 67l144 670h-137l39 174h133l75 352h226l-76 -352h221l-37 -174h-219l-127 -598q-4 -20 -4 -31q0 -39 23 -58.5t61 -19.5q61 0 156 43l8 -178q-49 -30 -128 -50.5t-159 -20.5q-93 0 -150 44t-57 132zM66 -387l51 237h202l-49 -237h-204z" />
<glyph unicode="&#x1e6e;" horiz-adv-x="1206" d="M621 1251h-455l43 203h1141l-43 -203h-455l-266 -1251h-230zM125 -311l33 141h551l-33 -141h-551z" />
<glyph unicode="&#x1e6f;" horiz-adv-x="727" d="M96 160q0 34 8 67l144 670h-137l39 174h133l75 352h226l-76 -352h221l-37 -174h-219l-127 -598q-4 -20 -4 -31q0 -39 23 -58.5t61 -19.5q61 0 156 43l8 -178q-49 -30 -128 -50.5t-159 -20.5q-93 0 -150 44t-57 132zM-98 -311l32 141h551l-32 -141h-551z" />
</font>
</defs>
</svg>
