<?xml version="1.0" standalone="no"?>
<!DOCTYPE svg PUBLIC "-//W3C//DTD SVG 1.1//EN" "http://www.w3.org/Graphics/SVG/1.1/DTD/svg11.dtd" >
<svg xmlns="http://www.w3.org/2000/svg" xmlns:xlink="http://www.w3.org/1999/xlink" version="1.1">
<metadata></metadata>
<defs>
<font id="rawlinebold_italic" horiz-adv-x="0" >
<font-face units-per-em="2048" ascent="1638" descent="-410" />
<missing-glyph horiz-adv-x="483" />
<glyph unicode="fi" horiz-adv-x="1130" d="M221 807h-131l45 209h131l15 65q36 184 179 309.5t335 125.5q183 0 356 -134l-152 -204q-44 47 -106.5 75.5t-128.5 28.5q-81 0 -136 -55t-71 -135l-16 -76h553l-217 -1016h-275l170 807h-276l-170 -807h-275z" />
<glyph unicode="fl" horiz-adv-x="1296" d="M692 166q0 31 8 70l177 823q12 74 12 96q0 127 -123 127q-168 0 -217 -229l-8 -37h166l-43 -209h-168l-170 -807h-275l170 807h-131l45 209h131l21 90q42 196 179.5 303t340.5 107q185 0 277 -77.5t92 -215.5q0 -46 -13 -109l-162 -764q-4 -24 -4 -37q0 -36 17 -60 t53 -24q13 0 30 3t32.5 6.5t29 7.5t22.5 7l9 3l-14 -221q-5 -4 -42 -15t-102 -23.5t-119 -12.5q-105 0 -163 51t-58 131z" />
<glyph unicode="&#xd;" />
<glyph unicode=" "  horiz-adv-x="483" />
<glyph unicode="&#x09;" horiz-adv-x="483" />
<glyph unicode="&#xa0;" horiz-adv-x="483" />
<glyph unicode="!" horiz-adv-x="593" d="M145 547l195 921h274l-194 -921h-275zM29 0l65 309h275l-66 -309h-274z" />
<glyph unicode="&#x22;" horiz-adv-x="792" d="M205 1022l96 459h234l-97 -459h-233zM522 1022l99 459h233l-98 -459h-234z" />
<glyph unicode="#" horiz-adv-x="1417" d="M1397 868h-285l-121 -280h254l-43 -205h-303l-170 -383h-219l170 383h-217l-170 -383h-221l170 383h-217l43 205h268l119 280h-236l43 193h283l174 393h219l-174 -393h217l174 393h221l-176 -393h240zM772 588l121 280h-217l-119 -280h215z" />
<glyph unicode="$" horiz-adv-x="1251" d="M774 846q89 -27 149.5 -54.5t111.5 -67.5t75.5 -95.5t24.5 -128.5q0 -126 -48 -225t-130 -159.5t-182.5 -93.5t-215.5 -38l-49 -224h-121l47 228q-131 10 -252 58.5t-209 125.5l177 244q26 -42 131 -100.5t227 -73.5l74 350q-18 5 -72 22q-162 52 -238.5 123.5 t-76.5 190.5q0 115 45 212.5t122 164t176.5 107.5t211.5 50l43 207h120l-43 -207q118 -10 218.5 -53t173.5 -106l-172 -230q-17 34 -105 82t-188 59l-74 -354q4 -1 14.5 -4t19 -5.5t15.5 -4.5zM506 1022q0 -48 33.5 -78.5t107.5 -58.5l70 329q-103 -7 -157 -58t-54 -134z M592 238q112 3 169.5 50t57.5 126q0 52 -39.5 86t-117.5 63z" />
<glyph unicode="%" horiz-adv-x="1556" d="M182 1112q0 96 57 180.5t149 133.5t192 49q117 0 190.5 -74t73.5 -184q0 -146 -120 -254.5t-275 -108.5q-118 0 -192.5 74t-74.5 184zM80 96l690 674l653 700l101 -110l-674 -664l-670 -710zM651 1202q0 58 -28 96.5t-72 38.5q-64 0 -119 -65t-55 -146q0 -58 27.5 -96.5 t72.5 -38.5q64 0 119 65t55 146zM760 238q0 96 56 180t147.5 133t191.5 49q118 0 191 -73.5t73 -184.5q0 -146 -120 -254t-275 -108q-117 0 -190.5 74t-73.5 184zM1227 328q0 58 -28.5 96.5t-72.5 38.5q-64 0 -120 -65.5t-56 -145.5q0 -57 29.5 -96t73.5 -39 q65 0 119.5 64.5t54.5 146.5z" />
<glyph unicode="&#x26;" horiz-adv-x="1427" d="M1343 655h-165q-59 -169 -158 -307l242 -348h-351l-94 137q-202 -157 -416 -157q-172 0 -271 101.5t-99 254.5q0 64 18.5 121.5t48 101.5t77 88t92.5 76.5t108 71.5q-54 85 -77.5 148t-23.5 126q0 112 63.5 206t168 146t223.5 52q125 0 220.5 -67.5t131.5 -193.5 l-190 -106q-23 76 -74 120t-112 44q-69 0 -122 -45.5t-53 -110.5q0 -39 25.5 -86t101.5 -158l242 -346q78 150 107 328h368zM473 190q123 0 242 101l-226 332q-99 -62 -145.5 -122t-46.5 -134q0 -83 49.5 -130t126.5 -47z" />
<glyph unicode="'" horiz-adv-x="475" d="M205 1022l96 459h234l-97 -459h-233z" />
<glyph unicode="(" horiz-adv-x="622" d="M561 1550l191 -88q-422 -542 -422 -907q0 -259 104 -563l-223 -101q-62 148 -100.5 321t-38.5 327q0 104 26.5 211t65.5 197t109 201t131 194.5t157 207.5z" />
<glyph unicode=")" horiz-adv-x="622" d="M102 -109l-178 101q79 103 133.5 180t110.5 171t89.5 174t55 171t21.5 180q0 155 -34.5 328.5t-70.5 265.5l230 88q133 -376 133 -667q0 -130 -38 -260.5t-111.5 -258.5t-152 -235.5t-188.5 -237.5z" />
<glyph unicode="*" horiz-adv-x="690" d="M246 1065l121 145l-127 45l61 119l127 -63l25 157h145l-43 -157l154 63l10 -119l-146 -45l62 -145l-121 -70l-55 154l-123 -154z" />
<glyph unicode="+" horiz-adv-x="874" d="M791 838v-222h-211v-231h-246v231h-213v222h213v231h246v-231h211z" />
<glyph unicode="," horiz-adv-x="471" d="M-33 -236l109 244h-86l61 287h236l-62 -287l-133 -244h-125z" />
<glyph unicode="-" horiz-adv-x="823" d="M78 438l53 248h592l-53 -248h-592z" />
<glyph unicode="." horiz-adv-x="458" d="M-12 0l63 295h225l-63 -295h-225z" />
<glyph unicode="/" horiz-adv-x="1417" d="M1526 1454l-1278 -1454h-303l1278 1454h303z" />
<glyph unicode="0" horiz-adv-x="1384" d="M90 569q0 120 39.5 246.5t112.5 239.5t167.5 203t214.5 143t244 53q96 0 175 -35.5t132 -94t90 -136.5t53.5 -161t16.5 -169q0 -119 -39 -245t-112 -238t-167.5 -201t-215 -141.5t-244.5 -52.5q-95 0 -174 34.5t-132.5 92.5t-90.5 134.5t-53.5 159t-16.5 168.5zM1049 844 q0 95 -23.5 174t-77.5 132.5t-131 53.5q-98 0 -184 -66t-140 -165.5t-85 -209.5t-31 -204q0 -68 13 -125.5t40 -104.5t72.5 -73.5t105.5 -26.5q78 0 149 41t123 106.5t91 147t58.5 164.5t19.5 156z" />
<glyph unicode="1" horiz-adv-x="970" d="M53 248h271l200 946q-46 -52 -162.5 -114t-189.5 -62l53 254q39 0 89.5 19.5t95.5 47t84.5 57t62.5 49.5t25 23h280l-258 -1220h246l-51 -248h-799z" />
<glyph unicode="2" horiz-adv-x="1202" d="M455 682q23 11 62 28t62.5 27.5t58.5 27.5t57 30t50 32t45.5 36.5t36 41t29 47.5t17 54t6.5 63q0 72 -41.5 114t-116.5 42q-95 0 -192 -52t-173 -122l-133 180q40 37 94.5 74.5t130 77.5t171 65t190.5 25q187 0 287 -95.5t100 -255.5q0 -89 -22.5 -162t-57 -124.5 t-96 -101.5t-118 -83t-144.5 -78q-167 -78 -251.5 -151t-105.5 -174h619l-51 -248h-1012q60 285 167 432.5t331 249.5z" />
<glyph unicode="3" horiz-adv-x="1148" d="M4 266l184 180q2 -35 15.5 -69.5t40.5 -68t77.5 -54.5t116.5 -21q119 0 206 62t87 158q0 182 -352 182h-64l47 229h66q177 0 289 57.5t112 163.5q0 72 -46.5 109t-116.5 37q-100 0 -189 -51.5t-131 -114.5l-135 199q86 97 228.5 153t281.5 56q184 0 296.5 -96t112.5 -247 q0 -134 -90.5 -233t-242.5 -133q103 -20 161 -102.5t58 -200.5q0 -92 -37 -171t-98.5 -135t-141.5 -95.5t-167.5 -58.5t-174.5 -19q-169 0 -271 73.5t-122 210.5z" />
<glyph unicode="4" horiz-adv-x="1153" d="M498 0l69 330h-573l53 245l844 879h188l-186 -876h172l-51 -248h-172l-70 -330h-274zM649 578l101 462l-426 -462h325z" />
<glyph unicode="5" horiz-adv-x="1120" d="M-10 233l192 164q37 -80 106.5 -127t153.5 -47q120 0 204.5 85t84.5 210q0 84 -46 135.5t-122 51.5q-62 0 -121 -30.5t-102 -84.5h-238q35 84 174.5 440.5t167.5 423.5h684l-55 -250h-483l-121 -325q61 61 182 61q166 0 267.5 -104t101.5 -271q0 -123 -51 -232.5 t-136.5 -186.5t-201 -121.5t-240.5 -44.5q-150 0 -256.5 67t-144.5 186z" />
<glyph unicode="6" horiz-adv-x="1212" d="M1110 573q0 171 -108.5 284.5t-282.5 113.5q-92 0 -175 -42.5t-141 -117.5q45 195 144.5 305.5t224.5 110.5q83 0 147 -43.5t95 -120.5l192 172q-54 110 -152 169.5t-227 59.5q-161 0 -300 -80t-234.5 -216t-150 -320t-54.5 -389q0 -224 103.5 -351.5t291.5 -127.5 q120 0 235 48.5t201 128t138.5 189.5t52.5 227zM342 436q0 126 95 221t212 95q84 0 138.5 -62t54.5 -155q0 -126 -96.5 -225t-210.5 -99q-85 0 -139 65t-54 160z" />
<glyph unicode="7" horiz-adv-x="1118" d="M807 1204h-617l56 250h1046l-995 -1454h-309z" />
<glyph unicode="8" horiz-adv-x="1193" d="M459 -18q-182 0 -299 106.5t-117 273.5q0 76 27 144.5t72.5 119.5t93 88t100.5 64q-53 29 -85 90t-32 131q0 83 35 157t92.5 127.5t130 92.5t148.5 58.5t147 19.5q98 0 185 -37.5t145.5 -116t58.5 -182.5q0 -110 -70.5 -202.5t-168.5 -137.5q64 -39 105.5 -113.5 t41.5 -168.5q0 -145 -88 -264.5t-227 -184.5t-295 -65zM649 870q82 0 153.5 56.5t71.5 146.5q0 62 -43 99.5t-110 37.5q-88 0 -155.5 -56.5t-67.5 -141.5q0 -66 45 -104t106 -38zM604 664q-106 0 -190 -73.5t-84 -182.5q0 -78 53.5 -128.5t130.5 -50.5q104 0 190.5 76 t86.5 182q0 81 -54 129t-133 48z" />
<glyph unicode="9" horiz-adv-x="1212" d="M539 475q92 0 174.5 42.5t140.5 117.5q-45 -197 -143.5 -306.5t-225.5 -109.5q-83 0 -146.5 43.5t-92.5 120.5l-195 -172q56 -111 154 -171t227 -60q160 0 298.5 80t234 216.5t150 320.5t54.5 388q0 225 -103.5 352t-291.5 127q-120 0 -235 -48t-201 -128t-138.5 -189.5 t-52.5 -226.5q0 -171 108.5 -284t283.5 -113zM918 1010q0 -125 -96 -220.5t-212 -95.5q-85 0 -138.5 62t-53.5 155q0 126 95.5 225t211.5 99q83 0 138 -65.5t55 -159.5z" />
<glyph unicode=":" horiz-adv-x="499" d="M168 766l63 295h224l-62 -295h-225zM6 0l64 295h223l-64 -295h-223z" />
<glyph unicode=";" horiz-adv-x="505" d="M170 766l61 295h226l-64 -295h-223zM-14 -236l106 244h-86l62 287h237l-61 -287l-135 -244h-123z" />
<glyph unicode="&#x3c;" horiz-adv-x="1126" d="M59 590l865 522v-291l-465 -291l465 -278v-307l-865 512v133z" />
<glyph unicode="=" horiz-adv-x="993" d="M164 657v179h641v-179h-641zM164 295v178h641v-178h-641z" />
<glyph unicode="&#x3e;" horiz-adv-x="1126" d="M1028 457l-864 -512v307l465 278l-465 291v291l864 -522v-133z" />
<glyph unicode="?" horiz-adv-x="964" d="M207 477q22 110 72 187t153 133q13 7 38 20q49 26 73 39.5t63.5 37.5t59 43.5t42 46.5t31.5 58t9 66q0 65 -41 103t-103 38q-132 0 -254 -164l-153 123q77 124 202.5 194.5t262.5 70.5q139 0 235 -81.5t96 -238.5q0 -87 -20.5 -155t-62.5 -118t-87 -83.5t-112 -71.5 q-21 -12 -59 -32t-60.5 -32t-53 -33t-48.5 -40.5t-34.5 -48.5t-23.5 -62h-225zM111 0l59 283h225l-59 -283h-225z" />
<glyph unicode="@" horiz-adv-x="1665" d="M1436 608q0 144 -58.5 260t-176.5 186t-277 70q-148 0 -288.5 -62t-245.5 -166.5t-168.5 -251.5t-63.5 -308q0 -236 128.5 -380t350.5 -144q139 0 313 77l13 -106q-171 -82 -349 -82q-258 0 -415.5 171t-157.5 452q0 153 50 295t138 252.5t202.5 193t249 126.5t271.5 44 t250.5 -45.5t189.5 -125.5t118 -188.5t42 -234.5q0 -81 -16 -170.5t-51 -179.5t-83 -162t-118 -117t-151 -45q-69 0 -110.5 33.5t-41.5 101.5q0 25 2 35q-155 -143 -326 -143q-149 0 -238 106t-89 271q0 110 43 216.5t112.5 185t163 127t189.5 48.5q99 0 166.5 -49 t91.5 -129l28 152h140l-138 -686q-8 -31 -8 -68q0 -78 66 -78q69 0 128.5 86t91.5 204.5t32 227.5zM991 340l41 260q-20 91 -74.5 142t-128.5 51q-123 0 -228 -119t-105 -279q0 -115 60.5 -189.5t160.5 -74.5q88 0 162 58.5t112 150.5z" />
<glyph unicode="A" horiz-adv-x="1320" d="M721 1454h252l211 -1454h-291l-45 362h-469l-197 -362h-291zM842 561l-64 572l-311 -572h375z" />
<glyph unicode="B" horiz-adv-x="1343" d="M330 1454h745q115 0 180.5 -87.5t65.5 -209.5q0 -128 -77 -243.5t-204 -168.5q91 -31 141 -106t50 -182t-45 -195t-121 -144.5t-173 -87t-204 -30.5h-668zM827 846q78 0 139.5 64.5t61.5 162.5q0 63 -31 101t-82 38h-356l-78 -366h346zM739 240q81 0 147 69t66 162 q0 65 -32 108.5t-86 43.5h-402l-80 -383h387z" />
<glyph unicode="C" horiz-adv-x="1347" d="M76 600q0 122 39.5 246t115 234t176.5 196t234.5 136t278.5 50q194 0 318.5 -86.5t164.5 -230.5l-242 -146q-49 213 -293 213q-98 0 -182 -36t-142.5 -95.5t-100.5 -136.5t-61.5 -158t-19.5 -161q0 -166 82 -276.5t228 -110.5q103 0 206 55.5t169 165.5l202 -133 q-98 -159 -277 -248.5t-356 -89.5q-103 0 -191 33.5t-151.5 92t-108.5 136.5t-67 167t-22 183z" />
<glyph unicode="D" horiz-adv-x="1417" d="M330 1454h506q137 0 243 -43.5t172 -120.5t99.5 -178t33.5 -221q0 -189 -65.5 -354.5t-178.5 -283.5t-272.5 -185.5t-341.5 -67.5h-506zM578 248q152 0 271.5 84.5t182 221t62.5 296.5q0 163 -81 259.5t-231 96.5h-225l-203 -958h224z" />
<glyph unicode="E" horiz-adv-x="1183" d="M330 1454h942l-51 -248h-664l-74 -350h572l-49 -229h-572l-80 -379h680l-53 -248h-961z" />
<glyph unicode="F" horiz-adv-x="1138" d="M330 1454h930l-54 -248h-649l-78 -375h537l-49 -229h-537l-129 -602h-281z" />
<glyph unicode="G" horiz-adv-x="1427" d="M815 541l45 207h510l-160 -748h-233l35 164q-204 -174 -416 -174q-152 0 -271 78.5t-184 214.5t-65 305q0 172 72 334t189.5 280.5t273.5 190t317 71.5q190 0 314 -84.5t165 -232.5l-244 -156q-27 106 -107 164.5t-190 58.5q-99 0 -192 -50.5t-160.5 -133t-108 -191.5 t-40.5 -221q0 -165 83.5 -271.5t225.5 -106.5q197 0 395 198l23 103h-277z" />
<glyph unicode="H" horiz-adv-x="1470" d="M330 1454h280l-125 -588h607l125 588h280l-309 -1454h-281l131 621h-606l-131 -621h-281z" />
<glyph unicode="I" horiz-adv-x="583" d="M330 1452h280l-309 -1452h-281z" />
<glyph unicode="J" horiz-adv-x="980" d="M-88 68l111 229q25 -25 86.5 -47.5t136.5 -22.5q63 0 110 20.5t80.5 55.5t61 100t46.5 134t42 178l157 737h283l-158 -737q-22 -104 -43 -181t-51.5 -158t-65.5 -138t-85 -109t-111 -83.5t-141.5 -50t-177.5 -18.5q-173 0 -281 91z" />
<glyph unicode="K" horiz-adv-x="1316" d="M330 1452h280l-147 -690l706 692h316l-666 -645l389 -809h-319l-285 629l-211 -195l-92 -434h-281z" />
<glyph unicode="L" horiz-adv-x="1148" d="M330 1454h280l-256 -1206h695l-52 -248h-977z" />
<glyph unicode="M" horiz-adv-x="1699" d="M330 1454h303l219 -827l573 827h301l-309 -1454h-280l204 963l-493 -717h-154l-188 717l-205 -963h-281z" />
<glyph unicode="N" horiz-adv-x="1501" d="M330 1454h219l495 -954l203 952h281l-309 -1452h-228l-493 932l-197 -932h-281z" />
<glyph unicode="O" horiz-adv-x="1492" d="M76 594q0 163 71.5 322t187.5 279t274.5 194.5t322.5 74.5q100 0 186.5 -33t149 -91t107 -135t66 -165.5t21.5 -183.5q0 -161 -71 -319.5t-186.5 -278.5t-272.5 -194t-320 -74q-126 0 -229 50t-169 134t-102 192.5t-36 227.5zM1176 836q0 104 -33 187.5t-103 136 t-168 52.5q-109 0 -206 -54.5t-162.5 -140.5t-103.5 -191.5t-38 -209.5q0 -103 33 -186.5t103.5 -136.5t169.5 -53q109 0 206 55t161.5 141.5t102.5 192t38 207.5z" />
<glyph unicode="P" horiz-adv-x="1230" d="M330 1454h585q106 0 188 -58t122.5 -148.5t40.5 -194.5q0 -101 -44 -203t-116.5 -182t-174.5 -130.5t-210 -50.5h-318l-102 -487h-281zM754 735q88 0 155.5 86t67.5 209q0 81 -38 128.5t-95 47.5h-287l-100 -471h297z" />
<glyph unicode="Q" horiz-adv-x="1490" d="M1462 856q0 -175 -80.5 -343.5t-218.5 -295.5l142 -217h-269l-57 88q-176 -98 -369 -98q-125 0 -228 50t-169.5 134t-102.5 192.5t-36 227.5q0 162 71.5 321.5t188.5 279.5t275 194.5t321 74.5q125 0 227.5 -51t168 -136t101 -193.5t35.5 -227.5zM668 240q96 0 184 43 l-166 256h266l74 -113q70 86 110 195.5t40 214.5q0 161 -80 269.5t-224 108.5q-109 0 -206 -54.5t-162.5 -141t-103.5 -192.5t-38 -210q0 -103 33 -186.5t103.5 -136.5t169.5 -53z" />
<glyph unicode="R" horiz-adv-x="1314" d="M20 0l310 1454h614q105 0 186.5 -58t122.5 -148.5t41 -194.5q0 -158 -98 -301t-246 -205l197 -547h-320l-172 487h-252l-102 -487h-281zM782 735q84 0 153 88t69 201q0 78 -38 130t-94 52h-315l-100 -471h325z" />
<glyph unicode="S" horiz-adv-x="1212" d="M-43 172l176 244q30 -50 156 -114t268 -64q119 0 181.5 47t62.5 129q0 30 -14 54t-38.5 42.5t-61.5 35t-78.5 30.5t-93.5 31q-5 1 -8 2t-7 2.5t-8 2.5q-162 52 -238 123.5t-76 190.5q0 123 51 225.5t137 169.5t197 104t232 37q135 0 250 -45t200 -116l-174 -230 q-19 39 -123.5 91.5t-214.5 52.5q-120 0 -183 -52.5t-63 -142.5q0 -28 12.5 -50t31.5 -38t57 -32t73 -27.5t95 -28.5q89 -27 149 -54.5t111 -67.5t75.5 -95.5t24.5 -128.5q0 -107 -34.5 -194.5t-93 -146t-138.5 -99t-168 -58.5t-184 -18q-154 0 -297 49.5t-244 138.5z" />
<glyph unicode="T" horiz-adv-x="1212" d="M592 1206h-436l51 248h1153l-53 -248h-435l-256 -1206h-282z" />
<glyph unicode="U" horiz-adv-x="1474" d="M125 481q0 112 27 232l157 741h281l-158 -741q-20 -90 -20 -183q0 -133 57.5 -211.5t185.5 -78.5q72 0 134.5 26.5t108.5 71t83.5 106.5t61.5 128t40 141l158 741h281l-158 -741q-32 -153 -95 -281t-156 -228.5t-223.5 -157t-285.5 -56.5q-127 0 -221 37.5t-149.5 105 t-82 154.5t-26.5 194z" />
<glyph unicode="V" horiz-adv-x="1323" d="M176 1454h297l127 -1100l590 1100h297l-844 -1454h-237z" />
<glyph unicode="W" horiz-adv-x="2052" d="M168 1454h305l139 -1130l262 464l-90 662h260l50 -481l252 481h262l-375 -662l67 -464l619 1130h307l-868 -1454h-236l-104 610l-365 -610h-235z" />
<glyph unicode="X" horiz-adv-x="1267" d="M506 717l-332 737h307l217 -541l447 541h305l-645 -737l319 -717h-305l-205 520l-426 -520h-307z" />
<glyph unicode="Y" horiz-adv-x="1267" d="M461 512l-295 942h307l180 -700l484 700h305l-703 -946l-106 -508h-281z" />
<glyph unicode="Z" horiz-adv-x="1222" d="M-27 213l975 993h-739l51 248h1067l-45 -213l-948 -993h741l-51 -248h-1096z" />
<glyph unicode="[" horiz-adv-x="618" d="M2 -82l340 1598h377l-45 -220h-125l-246 -1159h125l-47 -219h-379z" />
<glyph unicode="\" horiz-adv-x="1236" d="M524 1454l537 -1454h-303l-539 1454h305z" />
<glyph unicode="]" horiz-adv-x="618" d="M-59 -82l47 219h125l245 1159h-125l48 220h378l-337 -1598h-381z" />
<glyph unicode="^" horiz-adv-x="1206" d="M98 621l406 833h229l404 -833h-226l-293 602l-299 -602h-221z" />
<glyph unicode="_" horiz-adv-x="933" d="M-72 -248l52 248h710l-53 -248h-709z" />
<glyph unicode="`" horiz-adv-x="563" d="M307 1495h252l53 -244l-190 -37z" />
<glyph unicode="a" horiz-adv-x="1277" d="M31 420q0 130 48.5 254t128 215.5t188 147t222.5 55.5q108 0 186.5 -57t108.5 -150l41 184h275l-160 -754q-6 -21 -6 -36q0 -43 49 -46l-49 -233q-86 -14 -113 -14q-73 0 -114 31.5t-41 91.5q0 25 12 77q-75 -99 -180.5 -152.5t-214.5 -53.5q-174 0 -277.5 124.5 t-103.5 315.5zM811 393l53 256q-12 89 -72 149t-137 60q-86 0 -164.5 -57.5t-125 -149t-46.5 -188.5q0 -108 59 -179t157 -71q72 0 152 51.5t124 128.5z" />
<glyph unicode="b" horiz-adv-x="1253" d="M270 186l-39 -186h-239l317 1495h275l-131 -610q73 96 175 151.5t210 55.5q164 0 257 -123.5t93 -311.5q0 -136 -51.5 -262t-136 -216.5t-195.5 -144.5t-227 -54q-118 0 -197.5 54.5t-110.5 151.5zM899 604q0 107 -53 180.5t-144 73.5q-81 0 -162 -59t-137 -150l-55 -256 q12 -79 69.5 -129.5t139.5 -50.5q133 0 237.5 118.5t104.5 272.5z" />
<glyph unicode="c" horiz-adv-x="1110" d="M31 432q0 126 50 245.5t136.5 211.5t213 147.5t269.5 55.5q165 0 270 -74t138 -201l-283 -82q-45 123 -174 123q-132 0 -234 -114.5t-102 -278.5q0 -113 55 -182.5t144 -69.5q65 0 129 36t100 91l250 -82q-82 -125 -221.5 -201.5t-302.5 -76.5q-208 0 -323 128.5 t-115 323.5z" />
<glyph unicode="d" horiz-adv-x="1277" d="M31 420q0 130 48.5 254t128 215.5t188 147t222.5 55.5q108 0 186.5 -57t108.5 -150l131 610h275l-250 -1180q-6 -21 -6 -36q0 -43 49 -46l-49 -233q-86 -14 -113 -14q-74 0 -114.5 29.5t-40.5 86.5q0 26 12 84q-75 -99 -180.5 -152.5t-214.5 -53.5q-174 0 -277.5 124.5 t-103.5 315.5zM811 393l53 256q-12 89 -72 149t-137 60q-86 0 -164.5 -57.5t-125 -149t-46.5 -188.5q0 -108 59 -179t157 -71q72 0 152 51.5t124 128.5z" />
<glyph unicode="e" horiz-adv-x="1128" d="M473 446q-15 0 -158 5v-27q0 -112 51.5 -178t153.5 -66q82 0 155 39.5t116 108.5l217 -68q-84 -125 -231 -202.5t-306 -77.5q-201 0 -319.5 126.5t-118.5 327.5q0 131 52.5 252t141.5 210t215.5 142.5t266.5 53.5q176 0 279.5 -78.5t103.5 -220.5q0 -347 -619 -347z M670 893q-114 0 -196.5 -74.5t-125.5 -193.5q86 -4 127 -4q191 0 273.5 39t82.5 114q0 57 -43.5 88t-117.5 31z" />
<glyph unicode="f" horiz-adv-x="739" d="M221 807h-131l45 209h131l15 65q40 198 159 316.5t277 118.5q122 0 241 -64l-96 -207q-59 39 -133 39q-64 0 -108 -49t-64 -143l-16 -76h245l-45 -209h-245l-265 -1241h-274z" />
<glyph unicode="g" horiz-adv-x="1251" d="M-102 -233l180 145q42 -76 120 -119t177 -43q129 0 229 76t131 225l29 135q-68 -91 -169 -141.5t-206 -50.5q-165 0 -260.5 121.5t-95.5 306.5q0 175 83 330t223 247.5t300 92.5q115 0 193 -55t116 -152l39 188h242l-219 -1022q-50 -234 -237.5 -371t-440.5 -137 q-307 0 -434 224zM809 393l53 256q-13 93 -72.5 151t-138.5 58q-86 0 -164.5 -59t-124 -150.5t-45.5 -185.5q0 -106 59 -178t154 -72q77 0 155 52t124 128z" />
<glyph unicode="h" horiz-adv-x="1191" d="M309 1495h275l-133 -621q80 103 187 160.5t222 57.5q252 0 252 -252q0 -75 -20 -170l-142 -670h-274l127 602q12 58 12 100q0 148 -125 148q-69 0 -156 -64t-135 -159l-133 -627h-274z" />
<glyph unicode="i" horiz-adv-x="518" d="M309 1495h275l-58 -272h-274zM219 1073h275l-228 -1073h-274z" />
<glyph unicode="j" horiz-adv-x="528" d="M319 1495h275l-59 -272h-275zM-412 -305l156 186q33 -45 102 -45q51 0 93.5 38t54.5 97l235 1102h275l-230 -1081q-24 -113 -91 -203.5t-159.5 -140t-193.5 -49.5q-159 0 -242 96z" />
<glyph unicode="k" horiz-adv-x="1146" d="M1096 854q0 -133 -80.5 -247t-229.5 -187l201 -420h-291l-209 485q169 34 266 111.5t97 167.5q0 46 -25.5 69t-68.5 23q-103 0 -215.5 -107.5t-171.5 -261.5l-105 -487h-272l317 1495h273l-148 -696q190 288 438 288q111 0 167.5 -61t56.5 -172z" />
<glyph unicode="l" horiz-adv-x="632" d="M33 170q0 20 8 78l266 1247h273l-244 -1151q-4 -28 -4 -41q0 -40 21.5 -62t62.5 -22q45 0 108 29l-8 -209q-57 -25 -131.5 -40t-136.5 -15q-104 0 -159.5 48.5t-55.5 137.5z" />
<glyph unicode="m" horiz-adv-x="1826" d="M219 1073h248l-43 -199q76 101 188.5 159.5t229.5 58.5q235 0 245 -228q85 110 194 169t226 59q240 0 240 -250q0 -75 -21 -172l-143 -670h-274l127 602q14 57 14 109q0 69 -29.5 104t-81.5 35q-75 0 -153.5 -63t-128.5 -162l-131 -625h-275l127 602q13 70 13 111 q0 137 -111 137q-73 0 -152 -63t-129 -160l-133 -627h-274z" />
<glyph unicode="n" horiz-adv-x="1191" d="M219 1073h248l-43 -199q78 102 197 160t251 58q240 0 240 -248q0 -76 -20 -174l-142 -670h-274l127 602q14 72 14 109q0 69 -31 104t-86 35q-76 0 -164 -64t-137 -159l-133 -627h-274z" />
<glyph unicode="o" horiz-adv-x="1200" d="M31 434q0 131 49 251t134 210t208.5 143.5t263.5 53.5q113 0 200.5 -35.5t141 -98t80.5 -143.5t27 -178q0 -130 -49 -250t-134.5 -210t-209 -143.5t-263.5 -53.5q-113 0 -200.5 35.5t-140.5 98t-80 143.5t-27 177zM850 604q0 116 -54 185t-151 69q-131 0 -230.5 -114 t-99.5 -279q0 -115 54 -183.5t151 -68.5q131 0 230.5 113t99.5 278z" />
<glyph unicode="p" horiz-adv-x="1253" d="M219 1073h240l-39 -184q78 96 179 149.5t214 53.5q169 0 271 -126t102 -315q0 -173 -80.5 -328.5t-215 -249t-284.5 -93.5q-115 0 -193 55.5t-108 152.5l-133 -624h-274zM899 606q0 109 -58.5 180.5t-154.5 71.5q-73 0 -152.5 -51.5t-123.5 -128.5l-56 -252 q15 -92 74 -152.5t137 -60.5q86 0 164 57.5t124 148.5t46 187z" />
<glyph unicode="q" horiz-adv-x="1251" d="M764 188q-76 -102 -176 -155t-213 -53q-159 0 -251.5 123t-92.5 311q0 136 51.5 262t135.5 216.5t195.5 145t227.5 54.5q114 0 192.5 -55t114.5 -150l39 186h240l-320 -1509h-274zM807 389l55 254q-6 90 -65.5 152.5t-139.5 62.5q-86 0 -165 -57t-127 -149t-48 -191 q0 -108 56.5 -178t152.5 -70q149 0 281 176z" />
<glyph unicode="r" horiz-adv-x="774" d="M219 1073h252l-49 -229q79 111 175.5 175t190.5 64q30 0 50 -4l-52 -243q-120 -2 -222 -50t-161 -137l-137 -649h-274z" />
<glyph unicode="s" horiz-adv-x="983" d="M-51 145l137 172q154 -139 326 -139q85 0 134.5 36t49.5 97q0 49 -38.5 72.5t-147.5 56.5q-174 55 -242 106t-68 148q0 112 64.5 204t175.5 144t244 52q236 0 372 -148l-145 -166q-66 62 -127 89.5t-131 27.5q-82 0 -134 -35.5t-52 -99.5q0 -45 34.5 -67t135.5 -52 q91 -26 149 -50.5t102.5 -57t64 -73.5t19.5 -97q0 -168 -136 -276.5t-355 -108.5q-134 0 -249 43t-183 122z" />
<glyph unicode="t" horiz-adv-x="763" d="M96 170q0 40 8 76l132 616h-134l45 211h132l73 348h275l-74 -348h215l-45 -211h-213l-113 -524q-4 -24 -4 -33q0 -72 78 -72q47 0 150 39l8 -217q-64 -31 -148 -52t-162 -21q-102 0 -162.5 46.5t-60.5 141.5z" />
<glyph unicode="u" horiz-adv-x="1218" d="M45 242q0 56 21 159l143 672h272l-129 -612q-14 -57 -14 -103q0 -145 123 -145q75 0 153 50t142 145l141 665h274l-161 -758q-4 -28 -4 -36q0 -23 11.5 -33.5t37.5 -12.5l-49 -233q-86 -14 -115 -14q-72 0 -112 29.5t-40 86.5q0 33 15 99q-91 -109 -208.5 -165 t-248.5 -56q-124 0 -188 66.5t-64 195.5z" />
<glyph unicode="v" horiz-adv-x="1077" d="M102 1073h285l66 -850q152 233 247.5 430.5t159.5 419.5h252q-139 -504 -580 -1073h-286z" />
<glyph unicode="w" horiz-adv-x="1617" d="M86 1073h268l129 -827q113 176 179 291l-115 536h239l54 -332q76 151 143 332h223q-97 -282 -260 -534l53 -246q167 224 258.5 391.5t167.5 388.5h252q-176 -519 -645 -1073h-207l-59 350q-124 -201 -223 -350h-250z" />
<glyph unicode="x" horiz-adv-x="1046" d="M358 535l-245 538h280l137 -336l11 -37l24 37l285 336h280l-475 -538l252 -535h-282l-144 334l-10 35l-25 -35l-286 -334h-283z" />
<glyph unicode="y" horiz-adv-x="1064" d="M-90 -258q124 11 183.5 40.5t121.5 115.5l59 79l-178 1096h281l92 -835l70 114q126 209 195 371.5t112 349.5h266q-56 -199 -138.5 -368t-283.5 -494l-164 -264q-142 -229 -272 -321t-311 -95z" />
<glyph unicode="z" horiz-adv-x="964" d="M-43 168l700 713h-524l41 192h819l-37 -168l-698 -712h557l-41 -193h-852z" />
<glyph unicode="{" horiz-adv-x="630" d="M575 1296l-88 -417q-16 -76 -100 -142q43 -50 43 -108q0 -13 -4 -33l-92 -440h106l-47 -219h-309q-33 0 -33 38q0 15 2 23l107 508q4 20 4 33q0 40 -21 69t-53 35l41 193q39 0 79 44t50 89l102 485q7 34 24.5 48t33.5 14h309l-47 -220h-107z" />
<glyph unicode="|" horiz-adv-x="669" d="M229 -266v1853h234v-1853h-234z" />
<glyph unicode="}" horiz-adv-x="632" d="M242 1296l47 220h307q12 0 23.5 -10t11.5 -33q0 -13 -2 -19l-105 -485q-2 -8 -2 -27q0 -42 21 -74t55 -32l-43 -193q-42 -8 -79.5 -46.5t-49.5 -90.5l-107 -508q-7 -33 -25 -47t-34 -14h-307l45 219h108l93 440q17 74 98 141q-41 52 -41 107q0 15 4 35l90 417h-108z" />
<glyph unicode="~" horiz-adv-x="1118" d="M391 737q61 0 121 -27.5t115 -55t104 -27.5q31 0 58 10t43 24.5t28 30t16.5 26.5t4.5 15h149q-1 -11 -12 -39t-36.5 -67.5t-60 -74.5t-89.5 -60t-117 -25q-60 0 -120.5 26.5t-115.5 53t-102 26.5q-31 0 -57 -10.5t-41 -25.5t-25 -31t-14 -26t-4 -13h-152q2 17 13.5 46.5 t37 69t59 73.5t85.5 57.5t112 23.5z" />
<glyph unicode="&#xa1;" horiz-adv-x="593" d="M612 1458l-65 -309h-275l66 309h274zM498 911l-197 -921h-274l196 921h275z" />
<glyph unicode="&#xa2;" horiz-adv-x="1169" d="M362 -246l50 228q-109 9 -191.5 75.5t-124 165.5t-41.5 211q0 151 70.5 290t208 239.5t313.5 126.5l49 231h123l-49 -231q136 -5 232.5 -75.5t132.5 -197.5l-285 -82q-13 51 -49 80.5t-82 34.5l-133 -631q53 10 106 43t78 78l250 -82q-42 -66 -106 -121t-131.5 -88 t-132 -51t-115.5 -18l-50 -226h-123zM465 231l129 607q-69 -16 -129 -76.5t-93.5 -142t-33.5 -162.5q0 -79 34 -142t93 -84z" />
<glyph unicode="&#xa3;" horiz-adv-x="1075" d="M688 1241q-83 0 -142 -60.5t-59 -150.5q0 -44 22 -135.5t26 -114.5h360l-45 -207h-309q-15 -86 -70.5 -169t-173.5 -191q82 25 152 25q48 0 130.5 -17.5t125.5 -17.5q63 0 151 33l23 -205q-117 -62 -238 -62q-59 0 -173 30t-179 30q-113 0 -260 -45l-19 194 q258 196 291 395h-195l44 207h137q-4 21 -16.5 78.5t-18.5 97t-6 76.5q0 117 70 217.5t183 157.5t238 57q119 0 215.5 -57.5t147.5 -157.5l-178 -168q-32 70 -98.5 115t-135.5 45z" />
<glyph unicode="&#xa4;" horiz-adv-x="1179" d="M389 1014q92 61 217 61q121 0 215 -59l142 145l112 -112l-139 -138q65 -100 65 -221t-67 -219l141 -139l-102 -103l-148 140q-96 -60 -219 -60q-126 0 -223 62l-150 -142l-100 103l141 141q-63 97 -63 217q0 126 61 217l-139 142l111 112zM606 481q82 0 136.5 59.5 t54.5 151.5t-54.5 150.5t-136.5 58.5t-136 -59.5t-54 -151.5t54 -150.5t136 -58.5z" />
<glyph unicode="&#xa5;" horiz-adv-x="1404" d="M1038 823h142l-37 -178h-236l-100 -137l-12 -62h305l-35 -178h-309l-56 -268h-280l55 268h-303l39 178h303l14 66l-41 133h-233l37 178h143l-201 631h306l180 -700l483 700h307z" />
<glyph unicode="&#xa6;" horiz-adv-x="655" d="M455 1587v-807h-234v807h234zM455 541v-807h-234v807h234z" />
<glyph unicode="&#xa7;" horiz-adv-x="1054" d="M895 311q0 -101 -36 -185.5t-93 -139.5t-129 -94t-142 -55.5t-135 -16.5q-73 0 -138.5 21.5t-111.5 56.5t-77 68t-51 67l211 168q83 -121 210 -121q76 0 136.5 46t60.5 120q0 26 -10.5 44t-30.5 26.5t-38.5 12t-45.5 5.5q-162 12 -249 90.5t-87 206.5q0 53 16 102.5 t27.5 68.5t32.5 48q-37 54 -37 160q0 118 72 223.5t188.5 168t243.5 62.5q257 0 365 -252l-232 -100q-15 52 -59 80.5t-109 28.5q-77 0 -132.5 -47.5t-55.5 -122.5q0 -53 34.5 -75t96.5 -24q68 -2 128.5 -18t113.5 -47t84.5 -86.5t31.5 -128.5q0 -70 -28 -134t-58 -98 q33 -41 33 -129zM623 508q25 19 41 52t16 67q0 53 -38.5 78.5t-88.5 25.5q-60 0 -98 19q-22 -19 -38 -50.5t-16 -66.5q0 -44 27 -68.5t59.5 -30t75 -11.5t60.5 -15z" />
<glyph unicode="&#xa8;" horiz-adv-x="817" d="M250 1237l53 244h227l-53 -244h-227zM635 1237l53 244h225l-51 -244h-227z" />
<glyph unicode="&#xa9;" horiz-adv-x="1751" d="M125 727q0 156 58.5 293t160 234.5t244 153.5t305.5 56q166 0 311 -56t248 -153.5t162 -234.5t59 -293q0 -157 -59 -294.5t-162 -235.5t-248 -154.5t-311 -56.5q-163 0 -305.5 56.5t-244 154.5t-160 235.5t-58.5 294.5zM1563 725q0 132 -51 250t-139 203t-213 134.5 t-267 49.5q-184 0 -335 -84t-236.5 -230t-85.5 -323t85 -323t236 -230t336 -84q187 0 340 80t241.5 226t88.5 331zM393 727q0 95 33 181t95.5 155t162 110t221.5 41q160 0 279.5 -70t175.5 -192l-266 -82q-30 58 -81.5 84.5t-107.5 26.5q-105 0 -167 -73.5t-62 -180.5 q0 -117 70 -186.5t161 -69.5q58 0 112 31t81 84l266 -80q-51 -113 -172 -190.5t-283 -77.5q-228 0 -373 140t-145 349z" />
<glyph unicode="&#xaa;" horiz-adv-x="870" d="M139 885q0 122 100 204t246 82q92 0 154 -32l8 39q4 32 4 43q0 100 -114 100q-98 0 -234 -82l-33 125q151 96 312 96q130 0 199 -56t69 -163q0 -36 -10 -88l-47 -213q-2 -8 -2 -22q0 -20 9 -27.5t31 -9.5l-36 -174q-50 -9 -86 -9q-111 0 -111 82q0 5 0.5 11t1.5 16l2 20 q-124 -133 -274 -133q-84 0 -136.5 53.5t-52.5 137.5zM598 950l16 80q-52 25 -116 25q-70 0 -118 -36t-48 -91q0 -37 24 -61.5t62 -24.5q54 0 112.5 34t67.5 74z" />
<glyph unicode="&#xab;" horiz-adv-x="1288" d="M68 590l598 387l-48 -223l-346 -224l254 -211l-47 -225l-440 363zM647 590l600 387l-47 -223l-346 -224l254 -211l-47 -225l-440 363z" />
<glyph unicode="&#xac;" horiz-adv-x="1210" d="M1120 819l-129 -602h-231l76 356h-727l51 246h960z" />
<glyph unicode="&#xad;" horiz-adv-x="1191" d="M78 438l53 248h959l-52 -248h-960z" />
<glyph unicode="&#xae;" horiz-adv-x="1751" d="M125 727q0 156 58.5 293t160 234.5t244.5 153.5t307 56q219 0 397 -95.5t279.5 -264.5t101.5 -377q0 -157 -59.5 -294.5t-162.5 -235.5t-247.5 -154.5t-308.5 -56.5q-219 0 -395.5 96.5t-275.5 266t-99 378.5zM1556 723q0 178 -84.5 324t-236 230.5t-338.5 84.5 q-141 0 -263.5 -49.5t-208 -134.5t-134.5 -202t-49 -249q0 -134 49 -252t134.5 -203.5t208 -135.5t263.5 -50q138 0 260 47.5t209.5 130.5t138.5 202.5t51 256.5zM563 1180h402q120 0 203 -93.5t83 -207.5q0 -85 -46.5 -158.5t-119.5 -102.5l211 -339h-217l-190 303h-129 v-303h-197v901zM948 750q51 0 81 34t30 95q0 62 -33.5 95.5t-83.5 33.5h-182v-258h188z" />
<glyph unicode="&#xaf;" horiz-adv-x="792" d="M262 1294l37 170h588l-37 -170h-588z" />
<glyph unicode="&#xb0;" horiz-adv-x="569" d="M211 1225q0 101 74.5 179.5t179.5 78.5q74 0 119 -47t45 -119q0 -107 -74.5 -180.5t-179.5 -73.5q-75 0 -119.5 44.5t-44.5 117.5zM492 1288q0 28 -16 45t-40 17q-34 0 -62 -27.5t-28 -62.5q0 -29 15 -46.5t42 -17.5q32 0 60.5 28t28.5 64z" />
<glyph unicode="&#xb1;" horiz-adv-x="1046" d="M862 881v-219h-239v-261h-246v261h-240v219h240v260h246v-260h239zM137 57v222h723v-222h-723z" />
<glyph unicode="&#xb2;" horiz-adv-x="825" d="M98 797q35 162 107 247t227 150q20 8 68.5 27t72 29t60 29.5t54.5 37t32 44t14 56.5q0 47 -32 75t-95 28q-77 0 -146.5 -33.5t-119.5 -79.5l-76 123q50 52 156 96.5t229 44.5q131 0 200 -58t69 -157q0 -70 -24.5 -126t-70.5 -96t-99 -67.5t-122 -50.5q-183 -58 -205 -160 h418l-37 -159h-680z" />
<glyph unicode="&#xb3;" horiz-adv-x="802" d="M127 948l109 101q20 -47 70 -80t132 -33q85 0 145 37t60 98q0 100 -217 100h-47l31 146h45q241 0 241 117q0 44 -38.5 67t-88.5 23q-138 0 -237 -99l-72 123q55 57 153.5 90t196.5 33q125 0 199 -57t74 -148q0 -82 -55 -138t-152 -77q66 -12 102.5 -61.5t36.5 -118.5 q0 -94 -59.5 -161t-148 -96.5t-193.5 -29.5q-118 0 -196.5 43t-90.5 121z" />
<glyph unicode="&#xb4;" horiz-adv-x="561" d="M432 1217l-178 34l156 244h254z" />
<glyph unicode="&#xb5;" horiz-adv-x="1298" d="M240 1073h274l-131 -612q-12 -59 -12 -105q0 -143 127 -143q72 0 149 50t141 145l142 665h274l-162 -758q-4 -24 -4 -34q0 -24 14.5 -35t47.5 -13l-51 -233q-93 -14 -125 -14q-74 0 -113 29.5t-39 86.5q0 35 14 99q-52 -81 -156.5 -151t-197.5 -70q-65 0 -101.5 33 t-39.5 87l-98 -534h-275z" />
<glyph unicode="&#xb6;" horiz-adv-x="1300" d="M803 1454h586l-46 -205h-135l-301 -1413h-233l127 590h-94l-125 -590h-234l125 590q-161 1 -253.5 105.5t-92.5 279.5q0 293 183 468t493 175zM516 631l133 618q-124 -7 -206.5 -127t-82.5 -282q0 -93 43 -148t113 -61zM977 1249h-96l-131 -618h94z" />
<glyph unicode="&#xb7;" horiz-adv-x="458" d="M90 496l66 309h225l-66 -309h-225z" />
<glyph unicode="&#xb8;" horiz-adv-x="632" d="M115 -412q-106 0 -201 62l100 145q46 -43 97 -43q49 0 80.5 31t31.5 84q0 70 -57 133l100 59q109 -105 109 -223q0 -106 -70 -177t-190 -71z" />
<glyph unicode="&#xb9;" horiz-adv-x="589" d="M621 961l-35 -162h-451l35 162h152l112 534q-30 -32 -96.5 -68t-108.5 -36l35 161q36 0 87 29t84.5 57t35.5 33h166l-154 -710h138z" />
<glyph unicode="&#xba;" horiz-adv-x="876" d="M160 999q0 118 57 223.5t162.5 171.5t234.5 66q140 0 216.5 -86t76.5 -219q0 -117 -56.5 -222t-162.5 -172t-235 -67q-140 0 -216.5 87t-76.5 218zM702 1128q0 70 -34 114t-90 44q-83 0 -148 -77t-65 -183q0 -71 34 -115.5t90 -44.5q83 0 148 78t65 184z" />
<glyph unicode="&#xbb;" horiz-adv-x="1288" d="M598 457l-592 -363l47 225l344 211l-252 224l48 223l434 -387zM1180 457l-592 -363l45 225l346 211l-254 224l49 223l434 -387z" />
<glyph unicode="&#xbc;" horiz-adv-x="1773" d="M586 786l-35 -159h-453l35 159h154l112 535q-32 -32 -98 -68t-108 -36l34 163q37 0 88.5 28.5t85 56t35.5 32.5h164l-151 -711h137zM100 96l691 674l653 700l100 -110l-674 -664l-671 -710zM1317 113l-221 86l-148 59l340 375l299 231l17 -284l6 -240l28 -61l-79 -80 l-66 -113l-82 -86zM1298 340l119 203l-198 -101z" />
<glyph unicode="&#xbd;" horiz-adv-x="1804" d="M586 786l-35 -159h-453l35 159h154l112 535q-32 -32 -98 -68t-108 -36l34 163q37 0 88.5 28.5t85 56t35.5 32.5h164l-151 -711h137zM100 96l691 674l653 700l100 -110l-674 -664l-671 -710zM942 0q34 161 104 246.5t220 150.5q18 7 56.5 22.5t59 24.5t52 24t49 29 t36.5 32.5t27 40.5t8 48q0 49 -30.5 76t-91.5 27q-72 0 -140 -33.5t-116 -77.5l-72 121q45 51 149 96t220 45q126 0 193 -58t67 -157q0 -69 -23.5 -124.5t-68 -95.5t-96 -68t-118.5 -50q-175 -61 -196 -161h401l-35 -158h-655z" />
<glyph unicode="&#xbe;" horiz-adv-x="1984" d="M94 772l109 102q20 -47 70.5 -79.5t132.5 -32.5q85 0 144.5 37t59.5 98q0 100 -217 100h-47l31 146h45q124 0 183 28.5t59 88.5q0 44 -39 67t-90 23q-141 0 -236 -99l-72 123q55 56 154 88.5t197 32.5q124 0 198 -56.5t74 -146.5q0 -82 -55 -138t-152 -77 q66 -12 102.5 -61.5t36.5 -118.5q0 -94 -60 -161t-149 -96.5t-194 -29.5q-117 0 -195 43t-90 119zM311 96l690 674l654 700l100 -110l-674 -664l-671 -710zM1528 113l-221 86l-148 59l340 375l299 231l17 -284l6 -240l28 -61l-80 -80l-65 -113l-82 -86zM1509 340l119 203 l-198 -101z" />
<glyph unicode="&#xbf;" horiz-adv-x="954" d="M807 1036l-59 -282h-226l60 282h225zM711 559q-22 -109 -72 -186t-154 -133q-143 -76 -181 -101q-116 -79 -131 -176q-3 -17 -3 -35q0 -66 40.5 -103.5t102.5 -37.5q132 0 254 164l154 -123q-77 -124 -202.5 -194t-262.5 -70q-66 0 -124 19t-105.5 56.5t-75 100 t-27.5 143.5q0 87 20.5 155t63 118t87 83.5t112.5 71.5q21 12 59 32t60.5 32t52.5 33t48.5 40.5t34.5 48t23 62.5h226z" />
<glyph unicode="&#xc0;" horiz-adv-x="1320" d="M637 1876h252l53 -244l-190 -37zM721 1454h252l211 -1454h-291l-45 362h-469l-197 -362h-291zM842 561l-64 572l-311 -572h375z" />
<glyph unicode="&#xc1;" horiz-adv-x="1320" d="M963 1602l-179 34l156 244h254zM721 1454h252l211 -1454h-291l-45 362h-469l-197 -362h-291zM842 561l-64 572l-311 -572h375z" />
<glyph unicode="&#xc2;" horiz-adv-x="1320" d="M588 1669l254 207h196l166 -207l-157 -65l-138 129l-192 -129zM721 1454h252l211 -1454h-291l-45 362h-469l-197 -362h-291zM842 561l-64 572l-311 -572h375z" />
<glyph unicode="&#xc3;" horiz-adv-x="1320" d="M776 1706q-25 0 -45.5 -9.5t-32 -23t-20 -28.5t-11.5 -24.5t-3 -12.5h-152q3 17 16.5 46.5t39.5 67.5t58.5 70.5t79 55t95.5 22.5q40 0 74 -15t54.5 -33t48.5 -33t58 -15q32 0 58 14t40 34.5t20.5 33.5t8.5 20h150q-3 -14 -16.5 -42.5t-40.5 -66.5t-60.5 -72t-82 -57.5 t-99.5 -23.5q-40 0 -75 14.5t-56.5 31.5t-50 31.5t-56.5 14.5zM721 1454h252l211 -1454h-291l-45 362h-469l-197 -362h-291zM842 561l-64 572l-311 -572h375z" />
<glyph unicode="&#xc4;" horiz-adv-x="1320" d="M580 1618l53 244h227l-53 -244h-227zM965 1618l53 244h225l-51 -244h-227zM721 1454h252l211 -1454h-291l-45 362h-469l-197 -362h-291zM842 561l-64 572l-311 -572h375z" />
<glyph unicode="&#xc5;" horiz-adv-x="1320" d="M942 1876q77 0 120.5 -33.5t43.5 -93.5q0 -86 -65 -137t-167 -51q-77 0 -121 33.5t-44 93.5q0 87 65.5 137.5t167.5 50.5zM827 1706q0 -27 17.5 -44t46.5 -17q37 0 66.5 25t29.5 61q0 28 -18 44.5t-47 16.5q-38 0 -66.5 -25t-28.5 -61zM721 1454h252l211 -1454h-291 l-45 362h-469l-197 -362h-291zM842 561l-64 572l-311 -572h375z" />
<glyph unicode="&#xc6;" horiz-adv-x="1902" d="M1004 1454h991l-53 -248h-637l-72 -342h530l-53 -248h-530l-78 -368h651l-51 -248h-934l78 362h-436l-273 -362h-301zM877 608l112 529l-405 -529h293z" />
<glyph unicode="&#xc7;" horiz-adv-x="1347" d="M672 238q103 0 206 55.5t169 165.5l202 -133q-62 -101 -164 -177.5t-212.5 -115.5t-221.5 -45q49 -68 49 -152q0 -106 -70 -177t-190 -71q-105 0 -200 62l100 145q46 -43 96 -43q49 0 81 31t32 84q0 70 -57 133h2q-131 29 -228 121.5t-143.5 216t-46.5 262.5 q0 122 39.5 246t115 234t176.5 196t234.5 136t278.5 50q194 0 318.5 -86.5t164.5 -230.5l-242 -146q-49 213 -293 213q-98 0 -182 -36t-142.5 -95.5t-100.5 -136.5t-61.5 -158t-19.5 -161q0 -166 82 -276.5t228 -110.5z" />
<glyph unicode="&#xc8;" horiz-adv-x="1183" d="M573 1876h252l54 -244l-191 -37zM330 1454h942l-51 -248h-664l-74 -350h572l-49 -229h-572l-80 -379h680l-53 -248h-961z" />
<glyph unicode="&#xc9;" horiz-adv-x="1183" d="M899 1602l-178 34l156 244h253zM330 1454h942l-51 -248h-664l-74 -350h572l-49 -229h-572l-80 -379h680l-53 -248h-961z" />
<glyph unicode="&#xca;" horiz-adv-x="1183" d="M524 1669l254 207h197l166 -207l-158 -65l-137 129l-193 -129zM330 1454h942l-51 -248h-664l-74 -350h572l-49 -229h-572l-80 -379h680l-53 -248h-961z" />
<glyph unicode="&#xcb;" horiz-adv-x="1183" d="M516 1618l53 244h228l-54 -244h-227zM901 1618l53 244h226l-52 -244h-227zM330 1454h942l-51 -248h-664l-74 -350h572l-49 -229h-572l-80 -379h680l-53 -248h-961z" />
<glyph unicode="&#xcc;" horiz-adv-x="583" d="M264 1876h252l53 -244l-190 -37zM330 1452h280l-309 -1452h-281z" />
<glyph unicode="&#xcd;" horiz-adv-x="583" d="M590 1602l-178 34l155 244h254zM330 1452h280l-309 -1452h-281z" />
<glyph unicode="&#xce;" horiz-adv-x="583" d="M215 1669l254 207h197l165 -207l-157 -65l-137 129l-193 -129zM330 1452h280l-309 -1452h-281z" />
<glyph unicode="&#xcf;" horiz-adv-x="583" d="M207 1618l53 244h227l-53 -244h-227zM592 1618l53 244h225l-51 -244h-227zM330 1452h280l-309 -1452h-281z" />
<glyph unicode="&#xd0;" horiz-adv-x="1429" d="M846 1454q137 0 243.5 -43.5t172.5 -120.5t99.5 -178t33.5 -221q0 -189 -65.5 -354.5t-178.5 -283.5t-272.5 -185.5t-341.5 -67.5h-506l133 629h-90l43 205h92l131 620h506zM590 248q114 0 211.5 49.5t163.5 132t103.5 192t37.5 228.5q0 162 -81.5 259t-231.5 97h-224 l-80 -372h267l-45 -205h-265l-81 -381h225z" />
<glyph unicode="&#xd1;" horiz-adv-x="1501" d="M862 1702q-25 0 -45.5 -9.5t-32 -23t-20 -28.5t-11.5 -24.5t-3 -12.5h-152q3 17 16.5 46.5t39.5 67.5t58.5 70.5t79 55t95.5 22.5q40 0 74 -15t54.5 -33.5t48.5 -33.5t58 -15q32 0 58 14.5t40 35t20.5 33.5t8.5 20h150q-3 -14 -16.5 -42.5t-40.5 -66.5t-60.5 -72 t-82 -57.5t-99.5 -23.5q-40 0 -75 14.5t-56.5 31.5t-50 31.5t-56.5 14.5zM330 1454h219l495 -954l203 952h281l-309 -1452h-228l-493 932l-197 -932h-281z" />
<glyph unicode="&#xd2;" horiz-adv-x="1492" d="M717 1872h252l53 -244l-191 -37zM76 594q0 163 71.5 322t187.5 279t274.5 194.5t322.5 74.5q100 0 186.5 -33t149 -91t107 -135t66 -165.5t21.5 -183.5q0 -161 -71 -319.5t-186.5 -278.5t-272.5 -194t-320 -74q-126 0 -229 50t-169 134t-102 192.5t-36 227.5zM1176 836 q0 104 -33 187.5t-103 136t-168 52.5q-109 0 -206 -54.5t-162.5 -140.5t-103.5 -191.5t-38 -209.5q0 -103 33 -186.5t103.5 -136.5t169.5 -53q109 0 206 55t161.5 141.5t102.5 192t38 207.5z" />
<glyph unicode="&#xd3;" horiz-adv-x="1492" d="M1042 1597l-178 35l156 244h254zM76 594q0 163 71.5 322t187.5 279t274.5 194.5t322.5 74.5q100 0 186.5 -33t149 -91t107 -135t66 -165.5t21.5 -183.5q0 -161 -71 -319.5t-186.5 -278.5t-272.5 -194t-320 -74q-126 0 -229 50t-169 134t-102 192.5t-36 227.5zM1176 836 q0 104 -33 187.5t-103 136t-168 52.5q-109 0 -206 -54.5t-162.5 -140.5t-103.5 -191.5t-38 -209.5q0 -103 33 -186.5t103.5 -136.5t169.5 -53q109 0 206 55t161.5 141.5t102.5 192t38 207.5z" />
<glyph unicode="&#xd4;" horiz-adv-x="1492" d="M668 1665l254 207h196l166 -207l-158 -66l-137 130l-192 -130zM76 594q0 163 71.5 322t187.5 279t274.5 194.5t322.5 74.5q100 0 186.5 -33t149 -91t107 -135t66 -165.5t21.5 -183.5q0 -161 -71 -319.5t-186.5 -278.5t-272.5 -194t-320 -74q-126 0 -229 50t-169 134 t-102 192.5t-36 227.5zM1176 836q0 104 -33 187.5t-103 136t-168 52.5q-109 0 -206 -54.5t-162.5 -140.5t-103.5 -191.5t-38 -209.5q0 -103 33 -186.5t103.5 -136.5t169.5 -53q109 0 206 55t161.5 141.5t102.5 192t38 207.5z" />
<glyph unicode="&#xd5;" horiz-adv-x="1492" d="M856 1702q-25 0 -45.5 -9.5t-32.5 -23t-20.5 -28.5t-11.5 -24.5t-3 -12.5h-151q3 17 16.5 46.5t39.5 67.5t58.5 70.5t79 55t95.5 22.5q40 0 74 -15t54.5 -33.5t48.5 -33.5t58 -15q32 0 58 14.5t40 35t20.5 33.5t8.5 20h150q-3 -14 -16.5 -42.5t-40.5 -66.5t-60.5 -72 t-82 -57.5t-99.5 -23.5q-40 0 -75 14.5t-56.5 31.5t-50 31.5t-56.5 14.5zM76 594q0 163 71.5 322t187.5 279t274.5 194.5t322.5 74.5q100 0 186.5 -33t149 -91t107 -135t66 -165.5t21.5 -183.5q0 -161 -71 -319.5t-186.5 -278.5t-272.5 -194t-320 -74q-126 0 -229 50 t-169 134t-102 192.5t-36 227.5zM1176 836q0 104 -33 187.5t-103 136t-168 52.5q-109 0 -206 -54.5t-162.5 -140.5t-103.5 -191.5t-38 -209.5q0 -103 33 -186.5t103.5 -136.5t169.5 -53q109 0 206 55t161.5 141.5t102.5 192t38 207.5z" />
<glyph unicode="&#xd6;" horiz-adv-x="1492" d="M659 1614l54 244h227l-53 -244h-228zM1044 1614l54 244h225l-51 -244h-228zM76 594q0 163 71.5 322t187.5 279t274.5 194.5t322.5 74.5q100 0 186.5 -33t149 -91t107 -135t66 -165.5t21.5 -183.5q0 -161 -71 -319.5t-186.5 -278.5t-272.5 -194t-320 -74q-126 0 -229 50 t-169 134t-102 192.5t-36 227.5zM1176 836q0 104 -33 187.5t-103 136t-168 52.5q-109 0 -206 -54.5t-162.5 -140.5t-103.5 -191.5t-38 -209.5q0 -103 33 -186.5t103.5 -136.5t169.5 -53q109 0 206 55t161.5 141.5t102.5 192t38 207.5z" />
<glyph unicode="&#xd7;" horiz-adv-x="997" d="M866 352l-174 -170l-211 211l-211 -211l-170 172l209 209l-200 203l174 170l200 -201l201 203l170 -172l-201 -203z" />
<glyph unicode="&#xd8;" horiz-adv-x="1492" d="M1563 1454l-201 -227q100 -161 100 -371q0 -161 -71 -319.5t-186.5 -278.5t-272.5 -194t-320 -74q-154 0 -272 73l-55 -63h-303l196 223q-102 156 -102 371q0 163 71.5 322t187.5 279t274.5 194.5t322.5 74.5q157 0 270 -75l58 65h303zM362 616q0 -76 23 -157l631 717 q-59 36 -144 36q-109 0 -206 -54.5t-162.5 -140.5t-103.5 -191.5t-38 -209.5zM1176 836q0 85 -23 153l-627 -715q58 -34 142 -34q109 0 206 55t161.5 141.5t102.5 192t38 207.5z" />
<glyph unicode="&#xd9;" horiz-adv-x="1474" d="M694 1872h252l53 -244l-190 -37zM125 481q0 112 27 232l157 741h281l-158 -741q-20 -90 -20 -183q0 -133 57.5 -211.5t185.5 -78.5q72 0 134.5 26.5t108.5 71t83.5 106.5t61.5 128t40 141l158 741h281l-158 -741q-32 -153 -95 -281t-156 -228.5t-223.5 -157t-285.5 -56.5 q-127 0 -221 37.5t-149.5 105t-82 154.5t-26.5 194z" />
<glyph unicode="&#xda;" horiz-adv-x="1474" d="M1020 1597l-178 35l155 244h254zM125 481q0 112 27 232l157 741h281l-158 -741q-20 -90 -20 -183q0 -133 57.5 -211.5t185.5 -78.5q72 0 134.5 26.5t108.5 71t83.5 106.5t61.5 128t40 141l158 741h281l-158 -741q-32 -153 -95 -281t-156 -228.5t-223.5 -157t-285.5 -56.5 q-127 0 -221 37.5t-149.5 105t-82 154.5t-26.5 194z" />
<glyph unicode="&#xdb;" horiz-adv-x="1474" d="M645 1665l254 207h197l166 -207l-158 -66l-137 130l-193 -130zM125 481q0 112 27 232l157 741h281l-158 -741q-20 -90 -20 -183q0 -133 57.5 -211.5t185.5 -78.5q72 0 134.5 26.5t108.5 71t83.5 106.5t61.5 128t40 141l158 741h281l-158 -741q-32 -153 -95 -281 t-156 -228.5t-223.5 -157t-285.5 -56.5q-127 0 -221 37.5t-149.5 105t-82 154.5t-26.5 194z" />
<glyph unicode="&#xdc;" horiz-adv-x="1474" d="M637 1614l53 244h228l-54 -244h-227zM1022 1614l53 244h225l-51 -244h-227zM125 481q0 112 27 232l157 741h281l-158 -741q-20 -90 -20 -183q0 -133 57.5 -211.5t185.5 -78.5q72 0 134.5 26.5t108.5 71t83.5 106.5t61.5 128t40 141l158 741h281l-158 -741 q-32 -153 -95 -281t-156 -228.5t-223.5 -157t-285.5 -56.5q-127 0 -221 37.5t-149.5 105t-82 154.5t-26.5 194z" />
<glyph unicode="&#xdd;" horiz-adv-x="1267" d="M889 1597l-178 35l155 244h254zM461 512l-295 942h307l180 -700l484 700h305l-703 -946l-106 -508h-281z" />
<glyph unicode="&#xde;" horiz-adv-x="1193" d="M330 1454h280l-55 -262h270q107 0 189.5 -58t123 -148.5t40.5 -194.5q0 -101 -44 -203.5t-116.5 -182.5t-174.5 -130t-210 -50h-285l-47 -225h-281zM672 473q85 0 153 89.5t68 199.5q0 79 -38 130.5t-95 51.5h-258l-101 -471h271z" />
<glyph unicode="&#xdf;" horiz-adv-x="1101" d="M410 240q139 2 228 70t89 196q0 82 -49 129t-121 47h-41l51 246h39q80 0 129 55t49 129q0 56 -33 86.5t-85 30.5q-78 0 -127.5 -56.5t-69.5 -150.5l-217 -1022h-260l225 1069q38 171 185.5 282t334.5 111q144 0 233 -74.5t89 -199.5q0 -118 -74.5 -224.5t-165.5 -140.5 q92 -29 143.5 -111t51.5 -194q0 -109 -37 -198t-99.5 -149t-148 -101.5t-178.5 -60.5t-195 -21z" />
<glyph unicode="&#xe0;" horiz-adv-x="1277" d="M539 1495h252l53 -244l-191 -37zM31 420q0 130 48.5 254t128 215.5t188 147t222.5 55.5q108 0 186.5 -57t108.5 -150l41 184h275l-160 -754q-6 -21 -6 -36q0 -43 49 -46l-49 -233q-86 -14 -113 -14q-73 0 -114 31.5t-41 91.5q0 25 12 77q-75 -99 -180.5 -152.5 t-214.5 -53.5q-174 0 -277.5 124.5t-103.5 315.5zM811 393l53 256q-12 89 -72 149t-137 60q-86 0 -164.5 -57.5t-125 -149t-46.5 -188.5q0 -108 59 -179t157 -71q72 0 152 51.5t124 128.5z" />
<glyph unicode="&#xe1;" horiz-adv-x="1277" d="M864 1221l-178 34l156 244h254zM31 420q0 130 48.5 254t128 215.5t188 147t222.5 55.5q108 0 186.5 -57t108.5 -150l41 184h275l-160 -754q-6 -21 -6 -36q0 -43 49 -46l-49 -233q-86 -14 -113 -14q-73 0 -114 31.5t-41 91.5q0 25 12 77q-75 -99 -180.5 -152.5 t-214.5 -53.5q-174 0 -277.5 124.5t-103.5 315.5zM811 393l53 256q-12 89 -72 149t-137 60q-86 0 -164.5 -57.5t-125 -149t-46.5 -188.5q0 -108 59 -179t157 -71q72 0 152 51.5t124 128.5z" />
<glyph unicode="&#xe2;" horiz-adv-x="1277" d="M489 1288l254 207h197l166 -207l-158 -65l-137 129l-193 -129zM31 420q0 130 48.5 254t128 215.5t188 147t222.5 55.5q108 0 186.5 -57t108.5 -150l41 184h275l-160 -754q-6 -21 -6 -36q0 -43 49 -46l-49 -233q-86 -14 -113 -14q-73 0 -114 31.5t-41 91.5q0 25 12 77 q-75 -99 -180.5 -152.5t-214.5 -53.5q-174 0 -277.5 124.5t-103.5 315.5zM811 393l53 256q-12 89 -72 149t-137 60q-86 0 -164.5 -57.5t-125 -149t-46.5 -188.5q0 -108 59 -179t157 -71q72 0 152 51.5t124 128.5z" />
<glyph unicode="&#xe3;" horiz-adv-x="1277" d="M678 1325q-25 0 -45.5 -9.5t-32.5 -23t-20.5 -28.5t-11.5 -24.5t-3 -12.5h-151q3 18 16.5 47t39.5 67t58 70.5t78.5 55t95.5 22.5q40 0 74.5 -15t54.5 -33t48.5 -33t58.5 -15q32 0 58 14t40 34.5t20.5 33.5t8.5 20h149q-3 -14 -16.5 -42.5t-40.5 -66.5t-60.5 -72 t-82 -57.5t-99.5 -23.5q-40 0 -75 14.5t-56 31.5t-49.5 31.5t-56.5 14.5zM31 420q0 130 48.5 254t128 215.5t188 147t222.5 55.5q108 0 186.5 -57t108.5 -150l41 184h275l-160 -754q-6 -21 -6 -36q0 -43 49 -46l-49 -233q-86 -14 -113 -14q-73 0 -114 31.5t-41 91.5 q0 25 12 77q-75 -99 -180.5 -152.5t-214.5 -53.5q-174 0 -277.5 124.5t-103.5 315.5zM811 393l53 256q-12 89 -72 149t-137 60q-86 0 -164.5 -57.5t-125 -149t-46.5 -188.5q0 -108 59 -179t157 -71q72 0 152 51.5t124 128.5z" />
<glyph unicode="&#xe4;" horiz-adv-x="1277" d="M481 1237l54 244h227l-53 -244h-228zM866 1237l54 244h225l-51 -244h-228zM31 420q0 130 48.5 254t128 215.5t188 147t222.5 55.5q108 0 186.5 -57t108.5 -150l41 184h275l-160 -754q-6 -21 -6 -36q0 -43 49 -46l-49 -233q-86 -14 -113 -14q-73 0 -114 31.5t-41 91.5 q0 25 12 77q-75 -99 -180.5 -152.5t-214.5 -53.5q-174 0 -277.5 124.5t-103.5 315.5zM811 393l53 256q-12 89 -72 149t-137 60q-86 0 -164.5 -57.5t-125 -149t-46.5 -188.5q0 -108 59 -179t157 -71q72 0 152 51.5t124 128.5z" />
<glyph unicode="&#xe5;" horiz-adv-x="1277" d="M844 1495q77 0 120.5 -33.5t43.5 -93.5q0 -86 -65 -137t-167 -51q-77 0 -121.5 33.5t-44.5 93.5q0 87 65.5 137.5t168.5 50.5zM729 1325q0 -27 17.5 -44t46.5 -17q37 0 66.5 25t29.5 61q0 28 -18.5 44.5t-47.5 16.5q-38 0 -66 -25t-28 -61zM31 420q0 130 48.5 254 t128 215.5t188 147t222.5 55.5q108 0 186.5 -57t108.5 -150l41 184h275l-160 -754q-6 -21 -6 -36q0 -43 49 -46l-49 -233q-86 -14 -113 -14q-73 0 -114 31.5t-41 91.5q0 25 12 77q-75 -99 -180.5 -152.5t-214.5 -53.5q-174 0 -277.5 124.5t-103.5 315.5zM811 393l53 256 q-12 89 -72 149t-137 60q-86 0 -164.5 -57.5t-125 -149t-46.5 -188.5q0 -108 59 -179t157 -71q72 0 152 51.5t124 128.5z" />
<glyph unicode="&#xe6;" horiz-adv-x="1830" d="M-20 260q0 114 69.5 207.5t187.5 146t259 52.5q135 0 219 -41q5 18 15 45t16 48t6 42q0 65 -47.5 103t-137.5 38q-152 0 -344 -121l-45 174q231 138 459 138q234 0 321 -152q175 152 396 152q104 0 187 -35t136 -96.5t81 -142.5t28 -175q0 -25 -2.5 -49t-5 -39.5 t-8 -35.5t-8 -27.5t-9 -24.5t-6.5 -18h-786q-5 -40 -5 -52q0 -99 60 -158t153 -59q77 0 153.5 40.5t113.5 105.5l219 -66q-84 -126 -227.5 -203t-309.5 -77q-142 0 -243 59t-150 162q-60 -75 -145.5 -127t-163 -73t-146.5 -21q-132 0 -211 78.5t-79 201.5zM1505 618 q2 18 2 52q0 102 -54 162.5t-148 60.5q-106 0 -193 -76t-121 -199h514zM678 322q-4 28 -4 51q0 46 10 104q-89 35 -176 35q-109 0 -184.5 -57t-75.5 -142q0 -59 37.5 -96t107.5 -37q76 0 164 43t121 99z" />
<glyph unicode="&#xe7;" horiz-adv-x="1110" d="M514 213q65 0 129 36t100 91l250 -82q-68 -102 -175 -173.5t-236 -94.5q49 -71 49 -154q0 -106 -70 -177t-190 -71q-106 0 -201 62l100 145q46 -43 97 -43q49 0 80.5 31t31.5 84q0 60 -41 113q-130 7 -223.5 70t-138.5 161.5t-45 220.5q0 126 50 245.5t136.5 211.5 t213 147.5t269.5 55.5q165 0 270 -74t138 -201l-283 -82q-45 123 -174 123q-132 0 -234 -114.5t-102 -278.5q0 -113 55 -182.5t144 -69.5z" />
<glyph unicode="&#xe8;" horiz-adv-x="1128" d="M795 1247l-191 -37l-115 281h252zM473 446q-15 0 -158 5v-27q0 -112 51.5 -178t153.5 -66q82 0 155 39.5t116 108.5l217 -68q-84 -125 -231 -202.5t-306 -77.5q-201 0 -319.5 126.5t-118.5 327.5q0 131 52.5 252t141.5 210t215.5 142.5t266.5 53.5q176 0 279.5 -78.5 t103.5 -220.5q0 -347 -619 -347zM670 893q-114 0 -196.5 -74.5t-125.5 -193.5q86 -4 127 -4q191 0 273.5 39t82.5 114q0 57 -43.5 88t-117.5 31z" />
<glyph unicode="&#xe9;" horiz-adv-x="1128" d="M1047 1495l-232 -278l-178 34l156 244h254zM473 446q-15 0 -158 5v-27q0 -112 51.5 -178t153.5 -66q82 0 155 39.5t116 108.5l217 -68q-84 -125 -231 -202.5t-306 -77.5q-201 0 -319.5 126.5t-118.5 327.5q0 131 52.5 252t141.5 210t215.5 142.5t266.5 53.5 q176 0 279.5 -78.5t103.5 -220.5q0 -347 -619 -347zM670 893q-114 0 -196.5 -74.5t-125.5 -193.5q86 -4 127 -4q191 0 273.5 39t82.5 114q0 57 -43.5 88t-117.5 31z" />
<glyph unicode="&#xea;" horiz-adv-x="1128" d="M762 1348l-193 -129l-129 65l254 207h197l166 -207l-158 -65zM473 446q-15 0 -158 5v-27q0 -112 51.5 -178t153.5 -66q82 0 155 39.5t116 108.5l217 -68q-84 -125 -231 -202.5t-306 -77.5q-201 0 -319.5 126.5t-118.5 327.5q0 131 52.5 252t141.5 210t215.5 142.5 t266.5 53.5q176 0 279.5 -78.5t103.5 -220.5q0 -347 -619 -347zM670 893q-114 0 -196.5 -74.5t-125.5 -193.5q86 -4 127 -4q191 0 273.5 39t82.5 114q0 57 -43.5 88t-117.5 31z" />
<glyph unicode="&#xeb;" horiz-adv-x="1128" d="M713 1477l-54 -244h-227l53 244h228zM1096 1477l-52 -244h-227l53 244h226zM709 1092q176 0 279.5 -78.5t103.5 -220.5q0 -347 -619 -347q-15 0 -158 5v-27q0 -112 51.5 -178t153.5 -66q82 0 155 39.5t116 108.5l217 -68q-84 -125 -231 -202.5t-306 -77.5 q-201 0 -319.5 126.5t-118.5 327.5q0 131 52.5 252t141.5 210t215.5 142.5t266.5 53.5zM475 621q191 0 273.5 39t82.5 114q0 57 -43.5 88t-117.5 31q-114 0 -196.5 -74.5t-125.5 -193.5q86 -4 127 -4z" />
<glyph unicode="&#xec;" horiz-adv-x="518" d="M258 1479h252l53 -244l-190 -37zM219 1073h275l-228 -1073h-274z" />
<glyph unicode="&#xed;" horiz-adv-x="518" d="M467 1221l-178 34l155 244h254zM219 1073h275l-228 -1073h-274z" />
<glyph unicode="&#xee;" horiz-adv-x="518" d="M92 1288l254 207h197l166 -207l-158 -65l-137 129l-193 -129zM219 1073h275l-228 -1073h-274z" />
<glyph unicode="&#xef;" horiz-adv-x="518" d="M84 1237l53 244h228l-54 -244h-227zM469 1237l53 244h226l-52 -244h-227zM219 1073h275l-228 -1073h-274z" />
<glyph unicode="&#xf0;" horiz-adv-x="1212" d="M1192 1352l-164 -84q129 -220 129 -500q0 -175 -55.5 -324.5t-150 -250t-221.5 -157t-269 -56.5q-196 0 -316 116t-120 295q0 113 49.5 220t130 184.5t187.5 124.5t216 47q97 0 174.5 -43.5t116.5 -116.5q-3 66 -12 131q-22 126 -86 231l-191 -100l-55 107l176 94 q-93 115 -264 225h348q81 -52 146 -129l176 94zM514 213q129 0 226.5 97.5t97.5 226.5q0 92 -56.5 150t-150.5 58q-129 0 -225.5 -94t-96.5 -225q0 -92 56.5 -152.5t148.5 -60.5z" />
<glyph unicode="&#xf1;" horiz-adv-x="1191" d="M705 1321q-25 0 -45.5 -9.5t-32.5 -23t-20.5 -28.5t-11.5 -24.5t-3 -12.5h-152q3 17 16.5 46.5t39.5 67.5t58.5 70.5t79 55t95.5 22.5q40 0 74.5 -15t54.5 -33t48.5 -33t58.5 -15q32 0 58 14t40 34.5t20.5 33.5t8.5 20h149q-3 -14 -16.5 -42.5t-40.5 -66.5t-60.5 -72 t-82 -57.5t-99.5 -23.5q-40 0 -75 14.5t-56 31.5t-49.5 31.5t-56.5 14.5zM219 1073h248l-43 -199q78 102 197 160t251 58q240 0 240 -248q0 -76 -20 -174l-142 -670h-274l127 602q14 72 14 109q0 69 -31 104t-86 35q-76 0 -164 -64t-137 -159l-133 -627h-274z" />
<glyph unicode="&#xf2;" horiz-adv-x="1200" d="M485 1491h252l54 -244l-191 -37zM31 434q0 131 49 251t134 210t208.5 143.5t263.5 53.5q113 0 200.5 -35.5t141 -98t80.5 -143.5t27 -178q0 -130 -49 -250t-134.5 -210t-209 -143.5t-263.5 -53.5q-113 0 -200.5 35.5t-140.5 98t-80 143.5t-27 177zM850 604q0 116 -54 185 t-151 69q-131 0 -230.5 -114t-99.5 -279q0 -115 54 -183.5t151 -68.5q131 0 230.5 113t99.5 278z" />
<glyph unicode="&#xf3;" horiz-adv-x="1200" d="M811 1217l-178 34l155 244h254zM31 434q0 131 49 251t134 210t208.5 143.5t263.5 53.5q113 0 200.5 -35.5t141 -98t80.5 -143.5t27 -178q0 -130 -49 -250t-134.5 -210t-209 -143.5t-263.5 -53.5q-113 0 -200.5 35.5t-140.5 98t-80 143.5t-27 177zM850 604q0 116 -54 185 t-151 69q-131 0 -230.5 -114t-99.5 -279q0 -115 54 -183.5t151 -68.5q131 0 230.5 113t99.5 278z" />
<glyph unicode="&#xf4;" horiz-adv-x="1200" d="M436 1284l254 207h197l166 -207l-158 -65l-137 129l-193 -129zM31 434q0 131 49 251t134 210t208.5 143.5t263.5 53.5q113 0 200.5 -35.5t141 -98t80.5 -143.5t27 -178q0 -130 -49 -250t-134.5 -210t-209 -143.5t-263.5 -53.5q-113 0 -200.5 35.5t-140.5 98t-80 143.5 t-27 177zM850 604q0 116 -54 185t-151 69q-131 0 -230.5 -114t-99.5 -279q0 -115 54 -183.5t151 -68.5q131 0 230.5 113t99.5 278z" />
<glyph unicode="&#xf5;" horiz-adv-x="1200" d="M625 1321q-25 0 -45.5 -9.5t-32.5 -23t-20.5 -28.5t-11.5 -24.5t-3 -12.5h-152q3 17 16.5 46.5t39.5 67.5t58.5 70.5t79 55t95.5 22.5q40 0 74.5 -15t54.5 -33t48.5 -33t58.5 -15q32 0 58 14t40 34.5t20.5 33.5t8.5 20h149q-3 -14 -16.5 -42.5t-40.5 -66.5t-60.5 -72 t-82 -57.5t-99.5 -23.5q-40 0 -75 14.5t-56 31.5t-49.5 31.5t-56.5 14.5zM31 434q0 131 49 251t134 210t208.5 143.5t263.5 53.5q113 0 200.5 -35.5t141 -98t80.5 -143.5t27 -178q0 -130 -49 -250t-134.5 -210t-209 -143.5t-263.5 -53.5q-113 0 -200.5 35.5t-140.5 98 t-80 143.5t-27 177zM850 604q0 116 -54 185t-151 69q-131 0 -230.5 -114t-99.5 -279q0 -115 54 -183.5t151 -68.5q131 0 230.5 113t99.5 278z" />
<glyph unicode="&#xf6;" horiz-adv-x="1200" d="M428 1233l53 244h228l-54 -244h-227zM813 1233l53 244h226l-52 -244h-227zM31 434q0 131 49 251t134 210t208.5 143.5t263.5 53.5q113 0 200.5 -35.5t141 -98t80.5 -143.5t27 -178q0 -130 -49 -250t-134.5 -210t-209 -143.5t-263.5 -53.5q-113 0 -200.5 35.5t-140.5 98 t-80 143.5t-27 177zM850 604q0 116 -54 185t-151 69q-131 0 -230.5 -114t-99.5 -279q0 -115 54 -183.5t151 -68.5q131 0 230.5 113t99.5 278z" />
<glyph unicode="&#xf7;" horiz-adv-x="1064" d="M416 858v262h231v-262h-231zM117 500v219h827v-219h-827zM416 98v264h231v-264h-231z" />
<glyph unicode="&#xf8;" horiz-adv-x="1200" d="M1190 1081l-148 -141q93 -122 93 -297q0 -125 -50.5 -245t-137.5 -212.5t-213.5 -149t-268.5 -56.5q-164 0 -270 83l-76 -71h-152l154 145q-90 122 -90 289q0 127 51 247.5t138 213t213.5 149t268.5 56.5q155 0 263 -78l69 67h156zM651 858q-130 0 -233 -118.5 t-103 -278.5q0 -67 21 -117l436 469q-51 45 -121 45zM514 213q130 0 233 118t103 279q0 65 -23 123l-440 -471q52 -49 127 -49z" />
<glyph unicode="&#xf9;" horiz-adv-x="1218" d="M510 1495h252l53 -244l-190 -37zM45 242q0 56 21 159l143 672h272l-129 -612q-14 -57 -14 -103q0 -145 123 -145q75 0 153 50t142 145l141 665h274l-161 -758q-4 -28 -4 -36q0 -23 11.5 -33.5t37.5 -12.5l-49 -233q-86 -14 -115 -14q-72 0 -112 29.5t-40 86.5q0 33 15 99 q-91 -109 -208.5 -165t-248.5 -56q-124 0 -188 66.5t-64 195.5z" />
<glyph unicode="&#xfa;" horiz-adv-x="1218" d="M836 1221l-179 34l156 244h254zM45 242q0 56 21 159l143 672h272l-129 -612q-14 -57 -14 -103q0 -145 123 -145q75 0 153 50t142 145l141 665h274l-161 -758q-4 -28 -4 -36q0 -23 11.5 -33.5t37.5 -12.5l-49 -233q-86 -14 -115 -14q-72 0 -112 29.5t-40 86.5q0 33 15 99 q-91 -109 -208.5 -165t-248.5 -56q-124 0 -188 66.5t-64 195.5z" />
<glyph unicode="&#xfb;" horiz-adv-x="1218" d="M461 1288l254 207h196l166 -207l-157 -65l-138 129l-192 -129zM45 242q0 56 21 159l143 672h272l-129 -612q-14 -57 -14 -103q0 -145 123 -145q75 0 153 50t142 145l141 665h274l-161 -758q-4 -28 -4 -36q0 -23 11.5 -33.5t37.5 -12.5l-49 -233q-86 -14 -115 -14 q-72 0 -112 29.5t-40 86.5q0 33 15 99q-91 -109 -208.5 -165t-248.5 -56q-124 0 -188 66.5t-64 195.5z" />
<glyph unicode="&#xfc;" horiz-adv-x="1218" d="M453 1237l53 244h227l-53 -244h-227zM838 1237l53 244h225l-51 -244h-227zM45 242q0 56 21 159l143 672h272l-129 -612q-14 -57 -14 -103q0 -145 123 -145q75 0 153 50t142 145l141 665h274l-161 -758q-4 -28 -4 -36q0 -23 11.5 -33.5t37.5 -12.5l-49 -233 q-86 -14 -115 -14q-72 0 -112 29.5t-40 86.5q0 33 15 99q-91 -109 -208.5 -165t-248.5 -56q-124 0 -188 66.5t-64 195.5z" />
<glyph unicode="&#xfd;" horiz-adv-x="1064" d="M713 1217l-178 34l155 244h254zM-90 -258q124 11 183.5 40.5t121.5 115.5l59 79l-178 1096h281l92 -835l70 114q126 209 195 371.5t112 349.5h266q-56 -199 -138.5 -368t-283.5 -494l-164 -264q-142 -229 -272 -321t-311 -95z" />
<glyph unicode="&#xfe;" horiz-adv-x="1228" d="M-102 -436l401 1890h281l-111 -514q146 152 344 152q169 0 271 -126t102 -315q0 -173 -80.5 -328.5t-215 -249t-284.5 -93.5q-115 0 -193 55.5t-108 152.5l-133 -624h-274zM565 213q86 0 164 57.5t124 148.5t46 187q0 109 -58.5 180.5t-154.5 71.5q-73 0 -152.5 -51.5 t-123.5 -128.5l-56 -252q15 -92 74 -152.5t137 -60.5z" />
<glyph unicode="&#xff;" horiz-adv-x="1064" d="M330 1233l53 244h227l-53 -244h-227zM715 1233l53 244h225l-51 -244h-227zM-90 -258q124 11 183.5 40.5t121.5 115.5l59 79l-178 1096h281l92 -835l70 114q126 209 195 371.5t112 349.5h266q-56 -199 -138.5 -368t-283.5 -494l-164 -264q-142 -229 -272 -321t-311 -95z " />
<glyph unicode="&#x100;" horiz-adv-x="1320" d="M602 1675l37 170h588l-37 -170h-588zM721 1454h252l211 -1454h-291l-45 362h-469l-197 -362h-291zM842 561l-64 572l-311 -572h375z" />
<glyph unicode="&#x101;" horiz-adv-x="1277" d="M504 1294l37 170h587l-36 -170h-588zM31 420q0 130 48.5 254t128 215.5t188 147t222.5 55.5q108 0 186.5 -57t108.5 -150l41 184h275l-160 -754q-6 -21 -6 -36q0 -43 49 -46l-49 -233q-86 -14 -113 -14q-73 0 -114 31.5t-41 91.5q0 25 12 77q-75 -99 -180.5 -152.5 t-214.5 -53.5q-174 0 -277.5 124.5t-103.5 315.5zM811 393l53 256q-12 89 -72 149t-137 60q-86 0 -164.5 -57.5t-125 -149t-46.5 -188.5q0 -108 59 -179t157 -71q72 0 152 51.5t124 128.5z" />
<glyph unicode="&#x102;" horiz-adv-x="1320" d="M1053 1876h147q-26 -119 -116.5 -196.5t-202.5 -77.5q-99 0 -156 56.5t-57 149.5q0 37 8 68h147q-6 -21 -6 -41q0 -46 25 -78.5t63 -32.5q43 0 85.5 43t62.5 109zM721 1454h252l211 -1454h-291l-45 362h-469l-197 -362h-291zM842 561l-64 572l-311 -572h375z" />
<glyph unicode="&#x103;" horiz-adv-x="1277" d="M954 1495h148q-26 -119 -117 -196.5t-203 -77.5q-99 0 -156 56.5t-57 149.5q0 33 9 68h147q-6 -21 -6 -41q0 -46 25 -78.5t63 -32.5q43 0 85 43t62 109zM31 420q0 130 48.5 254t128 215.5t188 147t222.5 55.5q108 0 186.5 -57t108.5 -150l41 184h275l-160 -754 q-6 -21 -6 -36q0 -43 49 -46l-49 -233q-86 -14 -113 -14q-73 0 -114 31.5t-41 91.5q0 25 12 77q-75 -99 -180.5 -152.5t-214.5 -53.5q-174 0 -277.5 124.5t-103.5 315.5zM811 393l53 256q-12 89 -72 149t-137 60q-86 0 -164.5 -57.5t-125 -149t-46.5 -188.5q0 -108 59 -179 t157 -71q72 0 152 51.5t124 128.5z" />
<glyph unicode="&#x104;" horiz-adv-x="1320" d="M1024 -193q0 -58 92 -61l-88 -156q-89 11 -135.5 54.5t-46.5 101.5q0 132 174 254h-127l-45 362h-469l-197 -362h-291l830 1454h252l211 -1454q-81 -63 -120.5 -109t-39.5 -84zM467 561h375l-64 572z" />
<glyph unicode="&#x105;" horiz-adv-x="1277" d="M1063 279q0 -43 49 -46l-49 -233q-81 -63 -120.5 -109t-39.5 -84q0 -58 92 -61l-88 -156q-89 11 -135.5 54.5t-46.5 101.5q0 126 164 246q-94 25 -94 117q0 25 12 77q-75 -99 -180.5 -152.5t-214.5 -53.5q-174 0 -277.5 124.5t-103.5 315.5q0 130 48.5 254t128 215.5 t188 147t222.5 55.5q108 0 186.5 -57t108.5 -150l41 184h275l-160 -754q-6 -21 -6 -36zM811 393l53 256q-12 89 -72 149t-137 60q-86 0 -164.5 -57.5t-125 -149t-46.5 -188.5q0 -108 59 -179t157 -71q72 0 152 51.5t124 128.5z" />
<glyph unicode="&#x106;" horiz-adv-x="1347" d="M981 1602l-178 34l155 244h254zM76 600q0 122 39.5 246t115 234t176.5 196t234.5 136t278.5 50q194 0 318.5 -86.5t164.5 -230.5l-242 -146q-49 213 -293 213q-98 0 -182 -36t-142.5 -95.5t-100.5 -136.5t-61.5 -158t-19.5 -161q0 -166 82 -276.5t228 -110.5 q103 0 206 55.5t169 165.5l202 -133q-98 -159 -277 -248.5t-356 -89.5q-103 0 -191 33.5t-151.5 92t-108.5 136.5t-67 167t-22 183z" />
<glyph unicode="&#x107;" horiz-adv-x="1110" d="M815 1217l-178 34l156 244h254zM31 432q0 126 50 245.5t136.5 211.5t213 147.5t269.5 55.5q165 0 270 -74t138 -201l-283 -82q-45 123 -174 123q-132 0 -234 -114.5t-102 -278.5q0 -113 55 -182.5t144 -69.5q65 0 129 36t100 91l250 -82q-82 -125 -221.5 -201.5 t-302.5 -76.5q-208 0 -323 128.5t-115 323.5z" />
<glyph unicode="&#x108;" horiz-adv-x="1347" d="M606 1669l254 207h197l166 -207l-158 -65l-137 129l-193 -129zM76 600q0 122 39.5 246t115 234t176.5 196t234.5 136t278.5 50q194 0 318.5 -86.5t164.5 -230.5l-242 -146q-49 213 -293 213q-98 0 -182 -36t-142.5 -95.5t-100.5 -136.5t-61.5 -158t-19.5 -161 q0 -166 82 -276.5t228 -110.5q103 0 206 55.5t169 165.5l202 -133q-98 -159 -277 -248.5t-356 -89.5q-103 0 -191 33.5t-151.5 92t-108.5 136.5t-67 167t-22 183z" />
<glyph unicode="&#x109;" horiz-adv-x="1110" d="M440 1284l254 207h197l166 -207l-158 -65l-137 129l-193 -129zM31 432q0 126 50 245.5t136.5 211.5t213 147.5t269.5 55.5q165 0 270 -74t138 -201l-283 -82q-45 123 -174 123q-132 0 -234 -114.5t-102 -278.5q0 -113 55 -182.5t144 -69.5q65 0 129 36t100 91l250 -82 q-82 -125 -221.5 -201.5t-302.5 -76.5q-208 0 -323 128.5t-115 323.5z" />
<glyph unicode="&#x10a;" horiz-adv-x="1347" d="M778 1618l58 258h245l-55 -258h-248zM76 600q0 122 39.5 246t115 234t176.5 196t234.5 136t278.5 50q194 0 318.5 -86.5t164.5 -230.5l-242 -146q-49 213 -293 213q-98 0 -182 -36t-142.5 -95.5t-100.5 -136.5t-61.5 -158t-19.5 -161q0 -166 82 -276.5t228 -110.5 q103 0 206 55.5t169 165.5l202 -133q-98 -159 -277 -248.5t-356 -89.5q-103 0 -191 33.5t-151.5 92t-108.5 136.5t-67 167t-22 183z" />
<glyph unicode="&#x10b;" horiz-adv-x="1110" d="M612 1233l58 258h245l-55 -258h-248zM31 432q0 126 50 245.5t136.5 211.5t213 147.5t269.5 55.5q165 0 270 -74t138 -201l-283 -82q-45 123 -174 123q-132 0 -234 -114.5t-102 -278.5q0 -113 55 -182.5t144 -69.5q65 0 129 36t100 91l250 -82q-82 -125 -221.5 -201.5 t-302.5 -76.5q-208 0 -323 128.5t-115 323.5z" />
<glyph unicode="&#x10c;" horiz-adv-x="1347" d="M627 1810l155 66l138 -129l192 129l129 -66l-254 -206h-196zM76 600q0 122 39.5 246t115 234t176.5 196t234.5 136t278.5 50q194 0 318.5 -86.5t164.5 -230.5l-242 -146q-49 213 -293 213q-98 0 -182 -36t-142.5 -95.5t-100.5 -136.5t-61.5 -158t-19.5 -161 q0 -166 82 -276.5t228 -110.5q103 0 206 55.5t169 165.5l202 -133q-98 -159 -277 -248.5t-356 -89.5q-103 0 -191 33.5t-151.5 92t-108.5 136.5t-67 167t-22 183z" />
<glyph unicode="&#x10d;" horiz-adv-x="1110" d="M461 1425l155 66l138 -129l192 129l129 -66l-254 -206h-196zM31 432q0 126 50 245.5t136.5 211.5t213 147.5t269.5 55.5q165 0 270 -74t138 -201l-283 -82q-45 123 -174 123q-132 0 -234 -114.5t-102 -278.5q0 -113 55 -182.5t144 -69.5q65 0 129 36t100 91l250 -82 q-82 -125 -221.5 -201.5t-302.5 -76.5q-208 0 -323 128.5t-115 323.5z" />
<glyph unicode="&#x10e;" horiz-adv-x="1417" d="M578 1808l155 66l137 -129l193 129l129 -66l-254 -206h-197zM330 1454h506q137 0 243 -43.5t172 -120.5t99.5 -178t33.5 -221q0 -189 -65.5 -354.5t-178.5 -283.5t-272.5 -185.5t-341.5 -67.5h-506zM578 248q152 0 271.5 84.5t182 221t62.5 296.5q0 163 -81 259.5 t-231 96.5h-225l-203 -958h224z" />
<glyph unicode="&#x10f;" horiz-adv-x="1277" d="M31 420q0 130 48.5 254t128 215.5t188 147t222.5 55.5q108 0 186.5 -57t108.5 -150l131 610h275l-250 -1180q-6 -21 -6 -36q0 -43 49 -46l-49 -233q-86 -14 -113 -14q-74 0 -114.5 29.5t-40.5 86.5q0 26 12 84q-75 -99 -180.5 -152.5t-214.5 -53.5q-174 0 -277.5 124.5 t-103.5 315.5zM1305 1251l155 244h254l-246 -297zM811 393l53 256q-12 89 -72 149t-137 60q-86 0 -164.5 -57.5t-125 -149t-46.5 -188.5q0 -108 59 -179t157 -71q72 0 152 51.5t124 128.5z" />
<glyph unicode="&#x110;" horiz-adv-x="1429" d="M846 1454q137 0 243.5 -43.5t172.5 -120.5t99.5 -178t33.5 -221q0 -189 -65.5 -354.5t-178.5 -283.5t-272.5 -185.5t-341.5 -67.5h-506l133 629h-90l43 205h92l131 620h506zM590 248q114 0 211.5 49.5t163.5 132t103.5 192t37.5 228.5q0 162 -81.5 259t-231.5 97h-224 l-80 -372h267l-45 -205h-265l-81 -381h225z" />
<glyph unicode="&#x111;" horiz-adv-x="1277" d="M1260 1210l-191 -895q-6 -21 -6 -36q0 -43 49 -46l-49 -233q-86 -14 -113 -14q-74 0 -114.5 29.5t-40.5 86.5q0 26 12 84q-75 -99 -180.5 -152.5t-214.5 -53.5q-174 0 -277.5 124.5t-103.5 315.5q0 130 48.5 254t128 215.5t188 147t222.5 55.5q108 0 186.5 -57 t108.5 -150l70 325h-168l35 164h168l26 121h275l-25 -121h144l-35 -164h-143zM811 393l53 256q-12 89 -72 149t-137 60q-86 0 -164.5 -57.5t-125 -149t-46.5 -188.5q0 -108 59 -179t157 -71q72 0 152 51.5t124 128.5z" />
<glyph unicode="&#x112;" horiz-adv-x="1183" d="M539 1675l36 170h588l-37 -170h-587zM330 1454h942l-51 -248h-664l-74 -350h572l-49 -229h-572l-80 -379h680l-53 -248h-961z" />
<glyph unicode="&#x113;" horiz-adv-x="1128" d="M1079 1460l-37 -170h-587l37 170h587zM473 446q-15 0 -158 5v-27q0 -112 51.5 -178t153.5 -66q82 0 155 39.5t116 108.5l217 -68q-84 -125 -231 -202.5t-306 -77.5q-201 0 -319.5 126.5t-118.5 327.5q0 131 52.5 252t141.5 210t215.5 142.5t266.5 53.5q176 0 279.5 -78.5 t103.5 -220.5q0 -347 -619 -347zM670 893q-114 0 -196.5 -74.5t-125.5 -193.5q86 -4 127 -4q191 0 273.5 39t82.5 114q0 57 -43.5 88t-117.5 31z" />
<glyph unicode="&#x114;" horiz-adv-x="1183" d="M989 1876h148q-26 -119 -117 -196.5t-203 -77.5q-99 0 -156 56.5t-57 149.5q0 37 8 68h148q-6 -21 -6 -41q0 -46 25 -78.5t63 -32.5q43 0 85 43t62 109zM330 1454h942l-51 -248h-664l-74 -350h572l-49 -229h-572l-80 -379h680l-53 -248h-961z" />
<glyph unicode="&#x115;" horiz-adv-x="1128" d="M733 1217q-99 0 -156 56.5t-57 149.5q0 37 8 68h148q-6 -21 -6 -41q0 -46 25 -78.5t63 -32.5q43 0 85 43t62 109h148q-26 -119 -117 -196.5t-203 -77.5zM473 446q-15 0 -158 5v-27q0 -112 51.5 -178t153.5 -66q82 0 155 39.5t116 108.5l217 -68q-84 -125 -231 -202.5 t-306 -77.5q-201 0 -319.5 126.5t-118.5 327.5q0 131 52.5 252t141.5 210t215.5 142.5t266.5 53.5q176 0 279.5 -78.5t103.5 -220.5q0 -347 -619 -347zM670 893q-114 0 -196.5 -74.5t-125.5 -193.5q86 -4 127 -4q191 0 273.5 39t82.5 114q0 57 -43.5 88t-117.5 31z" />
<glyph unicode="&#x116;" horiz-adv-x="1183" d="M696 1618l58 258h245l-55 -258h-248zM330 1454h942l-51 -248h-664l-74 -350h572l-49 -229h-572l-80 -379h680l-53 -248h-961z" />
<glyph unicode="&#x117;" horiz-adv-x="1128" d="M915 1491l-55 -258h-248l58 258h245zM473 446q-15 0 -158 5v-27q0 -112 51.5 -178t153.5 -66q82 0 155 39.5t116 108.5l217 -68q-84 -125 -231 -202.5t-306 -77.5q-201 0 -319.5 126.5t-118.5 327.5q0 131 52.5 252t141.5 210t215.5 142.5t266.5 53.5q176 0 279.5 -78.5 t103.5 -220.5q0 -347 -619 -347zM670 893q-114 0 -196.5 -74.5t-125.5 -193.5q86 -4 127 -4q191 0 273.5 39t82.5 114q0 57 -43.5 88t-117.5 31z" />
<glyph unicode="&#x118;" horiz-adv-x="1183" d="M1221 1206h-664l-74 -350h572l-49 -229h-572l-80 -379h680l-53 -248q-81 -63 -120.5 -109t-39.5 -84q0 -58 92 -61l-88 -156q-89 11 -135.5 54.5t-46.5 101.5q0 132 174 254h-797l310 1454h942z" />
<glyph unicode="&#x119;" horiz-adv-x="1128" d="M473 446q-15 0 -158 5v-27q0 -112 51.5 -178t153.5 -66q82 0 155 39.5t116 108.5l217 -68q-63 -94 -162.5 -162.5t-216.5 -97.5q-81 -63 -120.5 -109t-39.5 -84q0 -58 92 -61l-88 -156q-89 11 -135.5 54.5t-46.5 101.5q0 120 147 234q-188 12 -296.5 136.5t-108.5 317.5 q0 131 52.5 252t141.5 210t215.5 142.5t266.5 53.5q176 0 279.5 -78.5t103.5 -220.5q0 -347 -619 -347zM670 893q-114 0 -196.5 -74.5t-125.5 -193.5q86 -4 127 -4q191 0 273.5 39t82.5 114q0 57 -43.5 88t-117.5 31z" />
<glyph unicode="&#x11a;" horiz-adv-x="1183" d="M545 1810l155 66l138 -129l192 129l129 -66l-254 -206h-196zM330 1454h942l-51 -248h-664l-74 -350h572l-49 -229h-572l-80 -379h680l-53 -248h-961z" />
<glyph unicode="&#x11b;" horiz-adv-x="1128" d="M821 1219h-196l-164 206l155 66l138 -129l192 129l129 -66zM473 446q-15 0 -158 5v-27q0 -112 51.5 -178t153.5 -66q82 0 155 39.5t116 108.5l217 -68q-84 -125 -231 -202.5t-306 -77.5q-201 0 -319.5 126.5t-118.5 327.5q0 131 52.5 252t141.5 210t215.5 142.5 t266.5 53.5q176 0 279.5 -78.5t103.5 -220.5q0 -347 -619 -347zM670 893q-114 0 -196.5 -74.5t-125.5 -193.5q86 -4 127 -4q191 0 273.5 39t82.5 114q0 57 -43.5 88t-117.5 31z" />
<glyph unicode="&#x11c;" horiz-adv-x="1427" d="M985 1729l-192 -130l-129 66l254 207h196l166 -207l-158 -66zM815 541l45 207h510l-160 -748h-233l35 164q-204 -174 -416 -174q-152 0 -271 78.5t-184 214.5t-65 305q0 172 72 334t189.5 280.5t273.5 190t317 71.5q190 0 314 -84.5t165 -232.5l-244 -156 q-27 106 -107 164.5t-190 58.5q-99 0 -192 -50.5t-160.5 -133t-108 -191.5t-40.5 -221q0 -165 83.5 -271.5t225.5 -106.5q197 0 395 198l23 103h-277z" />
<glyph unicode="&#x11d;" horiz-adv-x="1251" d="M446 1284l254 207h197l166 -207l-158 -65l-137 129l-193 -129zM-102 -233l180 145q42 -76 120 -119t177 -43q129 0 229 76t131 225l29 135q-68 -91 -169 -141.5t-206 -50.5q-165 0 -260.5 121.5t-95.5 306.5q0 175 83 330t223 247.5t300 92.5q115 0 193 -55t116 -152 l39 188h242l-219 -1022q-50 -234 -237.5 -371t-440.5 -137q-307 0 -434 224zM809 393l53 256q-13 93 -72.5 151t-138.5 58q-86 0 -164.5 -59t-124 -150.5t-45.5 -185.5q0 -106 59 -178t154 -72q77 0 155 52t124 128z" />
<glyph unicode="&#x11e;" horiz-adv-x="1427" d="M956 1597q-99 0 -156 57t-57 150q0 34 9 68h147q-6 -21 -6 -41q0 -46 25 -78.5t63 -32.5q43 0 85 43t62 109h148q-26 -119 -117 -197t-203 -78zM815 541l45 207h510l-160 -748h-233l35 164q-204 -174 -416 -174q-152 0 -271 78.5t-184 214.5t-65 305q0 172 72 334 t189.5 280.5t273.5 190t317 71.5q190 0 314 -84.5t165 -232.5l-244 -156q-27 106 -107 164.5t-190 58.5q-99 0 -192 -50.5t-160.5 -133t-108 -191.5t-40.5 -221q0 -165 83.5 -271.5t225.5 -106.5q197 0 395 198l23 103h-277z" />
<glyph unicode="&#x11f;" horiz-adv-x="1251" d="M911 1491h148q-26 -119 -117 -196.5t-203 -77.5q-99 0 -156 56.5t-57 149.5q0 33 9 68h147q-6 -21 -6 -41q0 -46 25 -78.5t63 -32.5q43 0 85 43t62 109zM-102 -233l180 145q42 -76 120 -119t177 -43q129 0 229 76t131 225l29 135q-68 -91 -169 -141.5t-206 -50.5 q-165 0 -260.5 121.5t-95.5 306.5q0 175 83 330t223 247.5t300 92.5q115 0 193 -55t116 -152l39 188h242l-219 -1022q-50 -234 -237.5 -371t-440.5 -137q-307 0 -434 224zM809 393l53 256q-13 93 -72.5 151t-138.5 58q-86 0 -164.5 -59t-124 -150.5t-45.5 -185.5 q0 -106 59 -178t154 -72q77 0 155 52t124 128z" />
<glyph unicode="&#x120;" horiz-adv-x="1427" d="M1139 1872l-56 -258h-247l57 258h246zM815 541l45 207h510l-160 -748h-233l35 164q-204 -174 -416 -174q-152 0 -271 78.5t-184 214.5t-65 305q0 172 72 334t189.5 280.5t273.5 190t317 71.5q190 0 314 -84.5t165 -232.5l-244 -156q-27 106 -107 164.5t-190 58.5 q-99 0 -192 -50.5t-160.5 -133t-108 -191.5t-40.5 -221q0 -165 83.5 -271.5t225.5 -106.5q197 0 395 198l23 103h-277z" />
<glyph unicode="&#x121;" horiz-adv-x="1251" d="M618 1233l58 258h246l-56 -258h-248zM-102 -233l180 145q42 -76 120 -119t177 -43q129 0 229 76t131 225l29 135q-68 -91 -169 -141.5t-206 -50.5q-165 0 -260.5 121.5t-95.5 306.5q0 175 83 330t223 247.5t300 92.5q115 0 193 -55t116 -152l39 188h242l-219 -1022 q-50 -234 -237.5 -371t-440.5 -137q-307 0 -434 224zM809 393l53 256q-13 93 -72.5 151t-138.5 58q-86 0 -164.5 -59t-124 -150.5t-45.5 -185.5q0 -106 59 -178t154 -72q77 0 155 52t124 128z" />
<glyph unicode="&#x122;" horiz-adv-x="1427" d="M815 541l45 207h510l-160 -748h-233l35 164q-204 -174 -416 -174q-152 0 -271 78.5t-184 214.5t-65 305q0 172 72 334t189.5 280.5t273.5 190t317 71.5q190 0 314 -84.5t165 -232.5l-244 -156q-27 106 -107 164.5t-190 58.5q-99 0 -192 -50.5t-160.5 -133t-108 -191.5 t-40.5 -221q0 -165 83.5 -271.5t225.5 -106.5q197 0 395 198l23 103h-277zM451 -289l41 193h231l-41 -193l-113 -147h-125l88 147h-81z" />
<glyph unicode="&#x123;" horiz-adv-x="1251" d="M897 1491l-84 -129h80l-47 -172h-215l47 172l106 129h113zM-102 -233l180 145q42 -76 120 -119t177 -43q129 0 229 76t131 225l29 135q-68 -91 -169 -141.5t-206 -50.5q-165 0 -260.5 121.5t-95.5 306.5q0 175 83 330t223 247.5t300 92.5q115 0 193 -55t116 -152l39 188 h242l-219 -1022q-50 -234 -237.5 -371t-440.5 -137q-307 0 -434 224zM809 393l53 256q-13 93 -72.5 151t-138.5 58q-86 0 -164.5 -59t-124 -150.5t-45.5 -185.5q0 -106 59 -178t154 -72q77 0 155 52t124 128z" />
<glyph unicode="&#x124;" horiz-adv-x="1470" d="M668 1669l254 207h196l166 -207l-158 -65l-137 129l-192 -129zM330 1454h280l-125 -588h607l125 588h280l-309 -1454h-281l131 621h-606l-131 -621h-281z" />
<glyph unicode="&#x125;" horiz-adv-x="1191" d="M553 1667l235 205h183l153 -205l-147 -65l-127 129l-178 -129zM309 1495h275l-133 -621q80 103 187 160.5t222 57.5q252 0 252 -252q0 -75 -20 -170l-142 -670h-274l127 602q12 58 12 100q0 148 -125 148q-69 0 -156 -64t-135 -159l-133 -627h-274z" />
<glyph unicode="&#x126;" horiz-adv-x="1486" d="M1561 1247l-29 -135h-98l-236 -1112h-280l131 621h-607l-131 -621h-282l235 1112h-96l29 135h98l43 207h283l-43 -207h606l43 207h280l-43 -207h97zM1102 866l53 246h-606l-53 -246h606z" />
<glyph unicode="&#x127;" horiz-adv-x="1191" d="M860 1092q252 0 252 -252q0 -75 -20 -170l-142 -670h-274l127 602q12 58 12 100q0 148 -125 148q-69 0 -156 -64t-135 -159l-133 -627h-274l256 1210h-121l35 164h121l26 121h275l-27 -121h193l-35 -164h-193l-71 -336q80 103 187 160.5t222 57.5z" />
<glyph unicode="&#x128;" horiz-adv-x="583" d="M403 1706q-25 0 -45.5 -9.5t-32 -23t-20 -28.5t-11.5 -24.5t-3 -12.5h-152q3 17 16.5 46.5t39.5 67.5t58.5 70.5t79 55t95.5 22.5q40 0 74.5 -15t54.5 -33t48.5 -33t58.5 -15q32 0 58 14t40 34.5t20.5 33.5t8.5 20h149q-3 -14 -16.5 -42.5t-40.5 -66.5t-60.5 -72 t-82 -57.5t-99.5 -23.5q-40 0 -75 14.5t-56.5 31.5t-50 31.5t-56.5 14.5zM330 1452h280l-309 -1452h-281z" />
<glyph unicode="&#x129;" horiz-adv-x="518" d="M377 1309q-25 0 -45.5 -10t-32.5 -23.5t-20.5 -28.5t-11.5 -24.5t-3 -12.5h-151q3 18 16.5 47.5t39.5 67.5t58 70.5t78.5 55t95.5 22.5q40 0 74.5 -15t54.5 -33.5t48.5 -33.5t58.5 -15q32 0 58 14.5t40 35t20.5 33.5t8.5 20h149q-3 -14 -16.5 -42.5t-40.5 -66.5 t-60.5 -72t-82 -57.5t-99.5 -23.5q-40 0 -75 14.5t-56 31.5t-49.5 31.5t-56.5 14.5zM219 1073h275l-228 -1073h-274z" />
<glyph unicode="&#x12a;" horiz-adv-x="583" d="M229 1675l37 170h588l-37 -170h-588zM330 1452h280l-309 -1452h-281z" />
<glyph unicode="&#x12b;" horiz-adv-x="518" d="M106 1294l37 170h588l-37 -170h-588zM219 1073h275l-228 -1073h-274z" />
<glyph unicode="&#x12c;" horiz-adv-x="583" d="M680 1876h147q-26 -119 -116.5 -196.5t-202.5 -77.5q-99 0 -156 56.5t-57 149.5q0 37 8 68h148q-7 -24 -7 -41q0 -46 25 -78.5t63 -32.5q43 0 85.5 43t62.5 109zM330 1452h280l-309 -1452h-281z" />
<glyph unicode="&#x12d;" horiz-adv-x="518" d="M557 1495h148q-26 -119 -117 -196.5t-203 -77.5q-99 0 -156 56.5t-57 149.5q0 37 8 68h148q-6 -21 -6 -41q0 -46 25 -78.5t63 -32.5q43 0 85 43t62 109zM219 1073h275l-228 -1073h-274z" />
<glyph unicode="&#x12e;" horiz-adv-x="583" d="M301 0q-81 -63 -120.5 -109t-39.5 -84q0 -58 92 -61l-88 -156q-89 11 -135.5 54.5t-46.5 101.5q0 132 174 254h-117l310 1452h280z" />
<glyph unicode="&#x12f;" horiz-adv-x="518" d="M309 1495h275l-58 -272h-274zM-8 0l227 1073h275l-228 -1073q-81 -63 -120.5 -109t-39.5 -84q0 -58 93 -61l-88 -156q-89 11 -136 54.5t-47 101.5q0 132 174 254h-110z" />
<glyph unicode="&#x130;" horiz-adv-x="583" d="M387 1618l57 258h246l-55 -258h-248zM330 1452h280l-309 -1452h-281z" />
<glyph unicode="&#x131;" horiz-adv-x="518" d="M219 1073h275l-228 -1073h-274z" />
<glyph unicode="&#x134;" horiz-adv-x="980" d="M623 1665l254 207h196l166 -207l-158 -66l-137 130l-192 -130zM-88 68l111 229q25 -25 86.5 -47.5t136.5 -22.5q63 0 110 20.5t80.5 55.5t61 100t46.5 134t42 178l157 737h283l-158 -737q-22 -104 -43 -181t-51.5 -158t-65.5 -138t-85 -109t-111 -83.5t-141.5 -50 t-177.5 -18.5q-173 0 -281 91z" />
<glyph unicode="&#x135;" horiz-adv-x="518" d="M111 1288l254 207h196l166 -207l-158 -65l-137 129l-192 -129zM-422 -305l156 186q33 -45 102 -45q51 0 93.5 38t54.5 97l235 1102h275l-230 -1081q-24 -113 -91 -203.5t-159.5 -140t-193.5 -49.5q-159 0 -242 96z" />
<glyph unicode="&#x136;" horiz-adv-x="1316" d="M330 1452h280l-147 -690l706 692h316l-666 -645l389 -809h-319l-285 629l-211 -195l-92 -434h-281zM385 -436l88 147h-82l41 193h232l-41 -193l-113 -147h-125z" />
<glyph unicode="&#x137;" horiz-adv-x="1146" d="M1096 854q0 -133 -80.5 -247t-229.5 -187l201 -420h-291l-209 485q169 34 266 111.5t97 167.5q0 46 -25.5 69t-68.5 23q-103 0 -215.5 -107.5t-171.5 -261.5l-105 -487h-272l317 1495h273l-148 -696q190 288 438 288q111 0 167.5 -61t56.5 -172zM287 -289l41 193h231 l-41 -193l-112 -147h-125l88 147h-82z" />
<glyph unicode="&#x138;" horiz-adv-x="1103" d="M219 1073h275l-105 -485l496 483h293l-473 -455l274 -616h-293l-190 465l-162 -146l-68 -319h-274z" />
<glyph unicode="&#x139;" horiz-adv-x="1148" d="M565 1602l-178 34l156 244h254zM330 1454h280l-256 -1206h695l-52 -248h-977z" />
<glyph unicode="&#x13a;" horiz-adv-x="632" d="M549 1642l-178 35l155 244h254zM33 170q0 20 8 78l266 1247h273l-244 -1151q-4 -28 -4 -41q0 -40 21.5 -62t62.5 -22q45 0 108 29l-8 -209q-57 -25 -131.5 -40t-136.5 -15q-104 0 -159.5 48.5t-55.5 137.5z" />
<glyph unicode="&#x13b;" horiz-adv-x="1148" d="M330 1454h280l-256 -1206h695l-52 -248h-977zM324 -436l88 147h-82l41 193h231l-41 -193l-112 -147h-125z" />
<glyph unicode="&#x13c;" horiz-adv-x="632" d="M33 170q0 20 8 78l266 1247h273l-244 -1151q-4 -28 -4 -41q0 -40 21.5 -62t62.5 -22q45 0 108 29l-8 -209q-57 -25 -131.5 -40t-136.5 -15q-104 0 -159.5 48.5t-55.5 137.5zM80 -436l88 147h-82l41 193h231l-41 -193l-112 -147h-125z" />
<glyph unicode="&#x13d;" horiz-adv-x="1148" d="M866 1251l156 244h254l-246 -297zM330 1454h280l-256 -1206h695l-52 -248h-977z" />
<glyph unicode="&#x13e;" horiz-adv-x="632" d="M33 170q0 20 8 78l266 1247h273l-244 -1151q-4 -28 -4 -41q0 -40 21.5 -62t62.5 -22q45 0 108 29l-8 -209q-57 -25 -131.5 -40t-136.5 -15q-104 0 -159.5 48.5t-55.5 137.5zM573 1251l156 244h254l-246 -297z" />
<glyph unicode="&#x13f;" horiz-adv-x="1150" d="M330 1454h280l-256 -1206h695l-52 -248h-977zM688 696l66 310h225l-66 -310h-225z" />
<glyph unicode="&#x140;" horiz-adv-x="804" d="M33 170q0 20 8 78l266 1247h273l-244 -1151q-4 -28 -4 -41q0 -40 21.5 -62t62.5 -22q45 0 108 29l-8 -209q-57 -25 -131.5 -40t-136.5 -15q-104 0 -159.5 48.5t-55.5 137.5zM537 545l65 309h225l-65 -309h-225z" />
<glyph unicode="&#x141;" horiz-adv-x="1165" d="M354 248h695l-52 -248h-977l117 551l-94 -55l-37 149l172 100l152 709h280l-110 -524l252 145l34 -149l-327 -191z" />
<glyph unicode="&#x142;" horiz-adv-x="702" d="M397 303q0 -40 21.5 -62t62.5 -22q44 0 111 29l-10 -209q-126 -55 -269 -55q-104 0 -159.5 48.5t-55.5 137.5q0 25 11 78l79 375l-131 -72l-37 147l207 115l146 682h274l-108 -512l166 90l36 -147l-243 -133l-90 -426q-11 -50 -11 -64z" />
<glyph unicode="&#x143;" horiz-adv-x="1501" d="M1049 1597l-179 35l156 244h254zM330 1454h219l495 -954l203 952h281l-309 -1452h-228l-493 932l-197 -932h-281z" />
<glyph unicode="&#x144;" horiz-adv-x="1191" d="M891 1217l-178 34l155 244h254zM219 1073h248l-43 -199q78 102 197 160t251 58q240 0 240 -248q0 -76 -20 -174l-142 -670h-274l127 602q14 72 14 109q0 69 -31 104t-86 35q-76 0 -164 -64t-137 -159l-133 -627h-274z" />
<glyph unicode="&#x145;" horiz-adv-x="1501" d="M330 1454h219l495 -954l203 952h281l-309 -1452h-228l-493 932l-197 -932h-281zM451 -436l88 147h-82l41 193h231l-41 -193l-113 -147h-124z" />
<glyph unicode="&#x146;" horiz-adv-x="1191" d="M219 1073h248l-43 -199q78 102 197 160t251 58q240 0 240 -248q0 -76 -20 -174l-142 -670h-274l127 602q14 72 14 109q0 69 -31 104t-86 35q-76 0 -164 -64t-137 -159l-133 -627h-274zM299 -436l88 147h-82l41 193h232l-41 -193l-113 -147h-125z" />
<glyph unicode="&#x147;" horiz-adv-x="1501" d="M694 1806l156 66l137 -129l193 129l129 -66l-254 -207h-197zM330 1454h219l495 -954l203 952h281l-309 -1452h-228l-493 932l-197 -932h-281z" />
<glyph unicode="&#x148;" horiz-adv-x="1191" d="M537 1425l155 66l137 -129l193 129l129 -66l-254 -206h-197zM219 1073h248l-43 -199q78 102 197 160t251 58q240 0 240 -248q0 -76 -20 -174l-142 -670h-274l127 602q14 72 14 109q0 69 -31 104t-86 35q-76 0 -164 -64t-137 -159l-133 -627h-274z" />
<glyph unicode="&#x14a;" horiz-adv-x="1474" d="M504 -305l158 186q29 -45 100 -45q52 0 94.5 38t54.5 97l19 86l-432 867l-197 -924h-281l310 1454h215l475 -942l199 940h282l-313 -1470q-36 -168 -164 -275.5t-279 -107.5q-158 0 -241 96z" />
<glyph unicode="&#x14b;" horiz-adv-x="1191" d="M262 -305l156 186q33 -45 102 -45q49 0 93 38.5t57 96.5l133 631q14 72 14 109q0 69 -31 104t-86 35q-76 0 -164 -64t-137 -159l-133 -627h-274l227 1073h248l-43 -199q78 102 197 160t251 58q240 0 240 -246q0 -78 -20 -176l-146 -678q-36 -171 -163.5 -282t-280.5 -111 q-157 0 -240 96z" />
<glyph unicode="&#x14c;" horiz-adv-x="1492" d="M682 1671l37 170h588l-37 -170h-588zM76 594q0 163 71.5 322t187.5 279t274.5 194.5t322.5 74.5q100 0 186.5 -33t149 -91t107 -135t66 -165.5t21.5 -183.5q0 -161 -71 -319.5t-186.5 -278.5t-272.5 -194t-320 -74q-126 0 -229 50t-169 134t-102 192.5t-36 227.5z M1176 836q0 104 -33 187.5t-103 136t-168 52.5q-109 0 -206 -54.5t-162.5 -140.5t-103.5 -191.5t-38 -209.5q0 -103 33 -186.5t103.5 -136.5t169.5 -53q109 0 206 55t161.5 141.5t102.5 192t38 207.5z" />
<glyph unicode="&#x14d;" horiz-adv-x="1200" d="M451 1290l36 170h588l-37 -170h-587zM31 434q0 131 49 251t134 210t208.5 143.5t263.5 53.5q113 0 200.5 -35.5t141 -98t80.5 -143.5t27 -178q0 -130 -49 -250t-134.5 -210t-209 -143.5t-263.5 -53.5q-113 0 -200.5 35.5t-140.5 98t-80 143.5t-27 177zM850 604 q0 116 -54 185t-151 69q-131 0 -230.5 -114t-99.5 -279q0 -115 54 -183.5t151 -68.5q131 0 230.5 113t99.5 278z" />
<glyph unicode="&#x14e;" horiz-adv-x="1492" d="M1133 1872h147q-26 -119 -116.5 -197t-202.5 -78q-99 0 -156 57t-57 150q0 37 8 68h147q-6 -21 -6 -41q0 -46 25 -78.5t63 -32.5q43 0 85.5 43t62.5 109zM76 594q0 163 71.5 322t187.5 279t274.5 194.5t322.5 74.5q100 0 186.5 -33t149 -91t107 -135t66 -165.5 t21.5 -183.5q0 -161 -71 -319.5t-186.5 -278.5t-272.5 -194t-320 -74q-126 0 -229 50t-169 134t-102 192.5t-36 227.5zM1176 836q0 104 -33 187.5t-103 136t-168 52.5q-109 0 -206 -54.5t-162.5 -140.5t-103.5 -191.5t-38 -209.5q0 -103 33 -186.5t103.5 -136.5t169.5 -53 q109 0 206 55t161.5 141.5t102.5 192t38 207.5z" />
<glyph unicode="&#x14f;" horiz-adv-x="1200" d="M901 1491h148q-26 -119 -117 -196.5t-203 -77.5q-99 0 -156 56.5t-57 149.5q0 37 8 68h148q-6 -21 -6 -41q0 -46 25 -78.5t63 -32.5q43 0 85 43t62 109zM31 434q0 131 49 251t134 210t208.5 143.5t263.5 53.5q113 0 200.5 -35.5t141 -98t80.5 -143.5t27 -178 q0 -130 -49 -250t-134.5 -210t-209 -143.5t-263.5 -53.5q-113 0 -200.5 35.5t-140.5 98t-80 143.5t-27 177zM850 604q0 116 -54 185t-151 69q-131 0 -230.5 -114t-99.5 -279q0 -115 54 -183.5t151 -68.5q131 0 230.5 113t99.5 278z" />
<glyph unicode="&#x150;" horiz-adv-x="1492" d="M838 1595l-138 33l144 244h211zM1157 1595l-137 33l143 244h211zM76 594q0 163 71.5 322t187.5 279t274.5 194.5t322.5 74.5q100 0 186.5 -33t149 -91t107 -135t66 -165.5t21.5 -183.5q0 -161 -71 -319.5t-186.5 -278.5t-272.5 -194t-320 -74q-126 0 -229 50t-169 134 t-102 192.5t-36 227.5zM1176 836q0 104 -33 187.5t-103 136t-168 52.5q-109 0 -206 -54.5t-162.5 -140.5t-103.5 -191.5t-38 -209.5q0 -103 33 -186.5t103.5 -136.5t169.5 -53q109 0 206 55t161.5 141.5t102.5 192t38 207.5z" />
<glyph unicode="&#x151;" horiz-adv-x="1200" d="M606 1214l-137 33l143 244h211zM926 1214l-138 33l144 244h211zM31 434q0 131 49 251t134 210t208.5 143.5t263.5 53.5q113 0 200.5 -35.5t141 -98t80.5 -143.5t27 -178q0 -130 -49 -250t-134.5 -210t-209 -143.5t-263.5 -53.5q-113 0 -200.5 35.5t-140.5 98t-80 143.5 t-27 177zM850 604q0 116 -54 185t-151 69q-131 0 -230.5 -114t-99.5 -279q0 -115 54 -183.5t151 -68.5q131 0 230.5 113t99.5 278z" />
<glyph unicode="&#x152;" horiz-adv-x="2113" d="M76 590q0 163 70 323t183.5 281t267.5 195.5t314 74.5q115 0 200 -61t132 -162l45 213h918l-54 -248h-636l-72 -342h530l-51 -248h-532l-78 -368h653l-53 -248h-934l45 215q-91 -102 -204 -163.5t-228 -61.5q-121 0 -220 49.5t-163 133.5t-98.5 191t-34.5 226zM1137 844 q0 156 -75 263t-208 107q-83 0 -161 -36t-137 -97t-103.5 -138.5t-67.5 -163.5t-23 -169q0 -158 74.5 -264t210.5 -106q104 0 197.5 56t156.5 143.5t99.5 194.5t36.5 210z" />
<glyph unicode="&#x153;" horiz-adv-x="1976" d="M31 426q0 136 55 260t145.5 212.5t213 141t253.5 52.5q128 0 215.5 -64.5t130.5 -185.5q206 250 457 250q196 0 311 -123.5t115 -325.5q0 -107 -37 -194h-776q-4 -16 -4 -48q0 -100 58 -163.5t153 -63.5q80 0 156.5 43t113.5 109l215 -66q-89 -129 -233 -204.5 t-301 -75.5q-119 0 -206 60t-153 181q-117 -124 -225 -182.5t-225 -58.5q-197 0 -314.5 124.5t-117.5 321.5zM1651 618q4 32 4 48q0 104 -55.5 165.5t-149.5 61.5q-103 0 -189 -77t-120 -198h510zM850 610q0 109 -54 178.5t-145 69.5q-132 0 -234 -119.5t-102 -281.5 q0 -107 54.5 -175.5t144.5 -68.5q133 0 234.5 118t101.5 279z" />
<glyph unicode="&#x154;" horiz-adv-x="1314" d="M928 1602l-178 34l155 244h254zM20 0l310 1454h614q105 0 186.5 -58t122.5 -148.5t41 -194.5q0 -158 -98 -301t-246 -205l197 -547h-320l-172 487h-252l-102 -487h-281zM782 735q84 0 153 88t69 201q0 78 -38 130t-94 52h-315l-100 -471h325z" />
<glyph unicode="&#x155;" horiz-adv-x="774" d="M602 1217l-178 34l156 244h254zM219 1073h252l-49 -229q79 111 175.5 175t190.5 64q30 0 50 -4l-52 -243q-120 -2 -222 -50t-161 -137l-137 -649h-274z" />
<glyph unicode="&#x156;" horiz-adv-x="1314" d="M20 0l310 1454h614q105 0 186.5 -58t122.5 -148.5t41 -194.5q0 -158 -98 -301t-246 -205l197 -547h-320l-172 487h-252l-102 -487h-281zM782 735q84 0 153 88t69 201q0 78 -38 130t-94 52h-315l-100 -471h325zM342 -436l88 147h-82l41 193h232l-41 -193l-113 -147h-125z " />
<glyph unicode="&#x157;" horiz-adv-x="774" d="M219 1073h252l-49 -229q79 111 175.5 175t190.5 64q30 0 50 -4l-52 -243q-120 -2 -222 -50t-161 -137l-137 -649h-274zM-53 -436l88 147h-82l41 193h231l-41 -193l-112 -147h-125z" />
<glyph unicode="&#x158;" horiz-adv-x="1314" d="M573 1810l156 66l137 -129l193 129l129 -66l-254 -206h-197zM20 0l310 1454h614q105 0 186.5 -58t122.5 -148.5t41 -194.5q0 -158 -98 -301t-246 -205l197 -547h-320l-172 487h-252l-102 -487h-281zM782 735q84 0 153 88t69 201q0 78 -38 130t-94 52h-315l-100 -471h325z " />
<glyph unicode="&#x159;" horiz-adv-x="774" d="M248 1425l155 66l138 -129l192 129l129 -66l-254 -206h-196zM219 1073h252l-49 -229q79 111 175.5 175t190.5 64q30 0 50 -4l-52 -243q-120 -2 -222 -50t-161 -137l-137 -649h-274z" />
<glyph unicode="&#x15a;" horiz-adv-x="1212" d="M922 1624l-179 35l156 244h254zM-43 172l176 244q30 -50 156 -114t268 -64q119 0 181.5 47t62.5 129q0 30 -14 54t-38.5 42.5t-61.5 35t-78.5 30.5t-93.5 31q-5 1 -8 2t-7 2.5t-8 2.5q-162 52 -238 123.5t-76 190.5q0 123 51 225.5t137 169.5t197 104t232 37 q135 0 250 -45t200 -116l-174 -230q-19 39 -123.5 91.5t-214.5 52.5q-120 0 -183 -52.5t-63 -142.5q0 -28 12.5 -50t31.5 -38t57 -32t73 -27.5t95 -28.5q89 -27 149 -54.5t111 -67.5t75.5 -95.5t24.5 -128.5q0 -107 -34.5 -194.5t-93 -146t-138.5 -99t-168 -58.5t-184 -18 q-154 0 -297 49.5t-244 138.5z" />
<glyph unicode="&#x15b;" horiz-adv-x="983" d="M711 1217l-179 34l156 244h254zM-51 145l137 172q154 -139 326 -139q85 0 134.5 36t49.5 97q0 49 -38.5 72.5t-147.5 56.5q-174 55 -242 106t-68 148q0 112 64.5 204t175.5 144t244 52q236 0 372 -148l-145 -166q-66 62 -127 89.5t-131 27.5q-82 0 -134 -35.5t-52 -99.5 q0 -45 34.5 -67t135.5 -52q91 -26 149 -50.5t102.5 -57t64 -73.5t19.5 -97q0 -168 -136 -276.5t-355 -108.5q-134 0 -249 43t-183 122z" />
<glyph unicode="&#x15c;" horiz-adv-x="1212" d="M547 1692l254 206h196l166 -206l-157 -66l-138 129l-192 -129zM-43 172l176 244q30 -50 156 -114t268 -64q119 0 181.5 47t62.5 129q0 30 -14 54t-38.5 42.5t-61.5 35t-78.5 30.5t-93.5 31q-5 1 -8 2t-7 2.5t-8 2.5q-162 52 -238 123.5t-76 190.5q0 123 51 225.5 t137 169.5t197 104t232 37q135 0 250 -45t200 -116l-174 -230q-19 39 -123.5 91.5t-214.5 52.5q-120 0 -183 -52.5t-63 -142.5q0 -28 12.5 -50t31.5 -38t57 -32t73 -27.5t95 -28.5q89 -27 149 -54.5t111 -67.5t75.5 -95.5t24.5 -128.5q0 -107 -34.5 -194.5t-93 -146 t-138.5 -99t-168 -58.5t-184 -18q-154 0 -297 49.5t-244 138.5z" />
<glyph unicode="&#x15d;" horiz-adv-x="983" d="M336 1284l254 207h196l166 -207l-157 -65l-138 129l-192 -129zM-51 145l137 172q154 -139 326 -139q85 0 134.5 36t49.5 97q0 49 -38.5 72.5t-147.5 56.5q-174 55 -242 106t-68 148q0 112 64.5 204t175.5 144t244 52q236 0 372 -148l-145 -166q-66 62 -127 89.5 t-131 27.5q-82 0 -134 -35.5t-52 -99.5q0 -45 34.5 -67t135.5 -52q91 -26 149 -50.5t102.5 -57t64 -73.5t19.5 -97q0 -168 -136 -276.5t-355 -108.5q-134 0 -249 43t-183 122z" />
<glyph unicode="&#x15e;" horiz-adv-x="1212" d="M756 846q89 -27 149 -54.5t111 -67.5t75.5 -95.5t24.5 -128.5q0 -97 -28.5 -178t-77.5 -138t-117 -99t-144.5 -65.5t-162.5 -31.5q47 -70 47 -152q0 -106 -70 -177t-190 -71q-106 0 -201 62l100 145q46 -43 97 -43q49 0 80.5 31t31.5 84q0 62 -45 119q-137 9 -262.5 58 t-216.5 128l176 244q30 -50 156 -114t268 -64q119 0 181.5 47t62.5 129q0 30 -14 54t-38.5 42.5t-61.5 35t-78.5 30.5t-93.5 31q-5 1 -8 2t-7 2.5t-8 2.5q-162 52 -238 123.5t-76 190.5q0 123 51 225.5t137 169.5t197 104t232 37q135 0 250 -45t200 -116l-174 -230 q-19 39 -123.5 91.5t-214.5 52.5q-120 0 -183 -52.5t-63 -142.5q0 -28 12.5 -50t31.5 -38t57 -32t73 -27.5t95 -28.5z" />
<glyph unicode="&#x15f;" horiz-adv-x="983" d="M537 643q91 -26 149 -50.5t102.5 -57t64 -73.5t19.5 -97q0 -150 -109.5 -254t-293.5 -127q45 -72 45 -148q0 -106 -70 -177t-190 -71q-106 0 -201 62l101 145q46 -43 96 -43q49 0 80.5 31t31.5 84q0 63 -43 115q-115 9 -212 51t-158 112l137 172q154 -139 326 -139 q85 0 134.5 36t49.5 97q0 49 -38.5 72.5t-147.5 56.5q-174 55 -242 106t-68 148q0 112 64.5 204t175.5 144t244 52q236 0 372 -148l-145 -166q-66 62 -127 89.5t-131 27.5q-82 0 -134 -35.5t-52 -99.5q0 -45 34.5 -67t135.5 -52z" />
<glyph unicode="&#x160;" horiz-adv-x="1212" d="M567 1833l156 65l137 -129l193 129l129 -65l-254 -207h-197zM-43 172l176 244q30 -50 156 -114t268 -64q119 0 181.5 47t62.5 129q0 30 -14 54t-38.5 42.5t-61.5 35t-78.5 30.5t-93.5 31q-5 1 -8 2t-7 2.5t-8 2.5q-162 52 -238 123.5t-76 190.5q0 123 51 225.5t137 169.5 t197 104t232 37q135 0 250 -45t200 -116l-174 -230q-19 39 -123.5 91.5t-214.5 52.5q-120 0 -183 -52.5t-63 -142.5q0 -28 12.5 -50t31.5 -38t57 -32t73 -27.5t95 -28.5q89 -27 149 -54.5t111 -67.5t75.5 -95.5t24.5 -128.5q0 -107 -34.5 -194.5t-93 -146t-138.5 -99 t-168 -58.5t-184 -18q-154 0 -297 49.5t-244 138.5z" />
<glyph unicode="&#x161;" horiz-adv-x="983" d="M356 1425l156 66l137 -129l193 129l129 -66l-254 -206h-197zM-51 145l137 172q154 -139 326 -139q85 0 134.5 36t49.5 97q0 49 -38.5 72.5t-147.5 56.5q-174 55 -242 106t-68 148q0 112 64.5 204t175.5 144t244 52q236 0 372 -148l-145 -166q-66 62 -127 89.5t-131 27.5 q-82 0 -134 -35.5t-52 -99.5q0 -45 34.5 -67t135.5 -52q91 -26 149 -50.5t102.5 -57t64 -73.5t19.5 -97q0 -168 -136 -276.5t-355 -108.5q-134 0 -249 43t-183 122z" />
<glyph unicode="&#x162;" horiz-adv-x="1212" d="M207 1454h1153l-53 -248h-435l-256 -1206h-55q55 -78 55 -164q0 -106 -70 -177t-190 -71q-105 0 -200 62l100 145q46 -43 96 -43q49 0 81 31t32 84q0 70 -57 133h-74l258 1206h-436z" />
<glyph unicode="&#x163;" horiz-adv-x="763" d="M510 862l-113 -524q-4 -24 -4 -33q0 -72 78 -72q47 0 150 39l8 -217q-124 -62 -267 -71q46 -68 46 -148q0 -105 -70.5 -176.5t-190.5 -71.5q-105 0 -200 62l100 145q46 -43 96 -43q49 0 81 31t32 84q0 70 -57 133l4 2q-107 44 -107 168q0 40 8 76l132 616h-134l45 211 h132l73 348h275l-74 -348h215l-45 -211h-213z" />
<glyph unicode="&#x164;" horiz-adv-x="1212" d="M541 1806l155 66l138 -129l192 129l129 -66l-254 -207h-196zM592 1206h-436l51 248h1153l-53 -248h-435l-256 -1206h-282z" />
<glyph unicode="&#x165;" horiz-adv-x="763" d="M657 1251l156 244h254l-246 -297zM96 170q0 40 8 76l132 616h-134l45 211h132l73 348h275l-74 -348h215l-45 -211h-213l-113 -524q-4 -24 -4 -33q0 -72 78 -72q47 0 150 39l8 -217q-64 -31 -148 -52t-162 -21q-102 0 -162.5 46.5t-60.5 141.5z" />
<glyph unicode="&#x166;" horiz-adv-x="1265" d="M1333 1206h-436l-92 -430h364l-28 -135h-365l-135 -641h-281l136 641h-363l29 135h362l92 430h-436l51 248h1153z" />
<glyph unicode="&#x167;" horiz-adv-x="765" d="M723 862h-213l-35 -160h195l-35 -163h-195l-43 -201q-4 -24 -4 -33q0 -72 78 -72q47 0 150 39l8 -217q-64 -31 -148 -52t-162 -21q-102 0 -162.5 46.5t-60.5 141.5q0 40 8 76l62 293h-133l35 163h133l35 160h-134l45 211h132l73 348h275l-74 -348h215z" />
<glyph unicode="&#x168;" horiz-adv-x="1474" d="M834 1702q-25 0 -45.5 -9.5t-32.5 -23t-20.5 -28.5t-11.5 -24.5t-3 -12.5h-152q3 17 16.5 46.5t39.5 67.5t58.5 70.5t79 55t95.5 22.5q40 0 74.5 -15t54.5 -33.5t48.5 -33.5t58.5 -15q32 0 58 14.5t40 35t20.5 33.5t8.5 20h149q-3 -14 -16.5 -42.5t-40.5 -66.5t-60.5 -72 t-82 -57.5t-99.5 -23.5q-40 0 -75 14.5t-56 31.5t-49.5 31.5t-56.5 14.5zM125 481q0 112 27 232l157 741h281l-158 -741q-20 -90 -20 -183q0 -133 57.5 -211.5t185.5 -78.5q72 0 134.5 26.5t108.5 71t83.5 106.5t61.5 128t40 141l158 741h281l-158 -741q-32 -153 -95 -281 t-156 -228.5t-223.5 -157t-285.5 -56.5q-127 0 -221 37.5t-149.5 105t-82 154.5t-26.5 194z" />
<glyph unicode="&#x169;" horiz-adv-x="1218" d="M649 1325q-25 0 -45.5 -9.5t-32 -23t-20 -28.5t-11.5 -24.5t-3 -12.5h-152q3 17 16.5 46.5t39.5 67.5t58.5 70.5t79 55t95.5 22.5q40 0 74 -15t54.5 -33t48.5 -33t58 -15q32 0 58 14t40 34.5t20.5 33.5t8.5 20h150q-3 -14 -16.5 -42.5t-40.5 -66.5t-60.5 -72t-82 -57.5 t-99.5 -23.5q-40 0 -75 14.5t-56.5 31.5t-50 31.5t-56.5 14.5zM45 242q0 56 21 159l143 672h272l-129 -612q-14 -57 -14 -103q0 -145 123 -145q75 0 153 50t142 145l141 665h274l-161 -758q-4 -28 -4 -36q0 -23 11.5 -33.5t37.5 -12.5l-49 -233q-86 -14 -115 -14 q-72 0 -112 29.5t-40 86.5q0 33 15 99q-91 -109 -208.5 -165t-248.5 -56q-124 0 -188 66.5t-64 195.5z" />
<glyph unicode="&#x16a;" horiz-adv-x="1474" d="M659 1671l37 170h588l-37 -170h-588zM125 481q0 112 27 232l157 741h281l-158 -741q-20 -90 -20 -183q0 -133 57.5 -211.5t185.5 -78.5q72 0 134.5 26.5t108.5 71t83.5 106.5t61.5 128t40 141l158 741h281l-158 -741q-32 -153 -95 -281t-156 -228.5t-223.5 -157 t-285.5 -56.5q-127 0 -221 37.5t-149.5 105t-82 154.5t-26.5 194z" />
<glyph unicode="&#x16b;" horiz-adv-x="1218" d="M475 1294l37 170h588l-37 -170h-588zM45 242q0 56 21 159l143 672h272l-129 -612q-14 -57 -14 -103q0 -145 123 -145q75 0 153 50t142 145l141 665h274l-161 -758q-4 -28 -4 -36q0 -23 11.5 -33.5t37.5 -12.5l-49 -233q-86 -14 -115 -14q-72 0 -112 29.5t-40 86.5 q0 33 15 99q-91 -109 -208.5 -165t-248.5 -56q-124 0 -188 66.5t-64 195.5z" />
<glyph unicode="&#x16c;" horiz-adv-x="1474" d="M1110 1872h147q-26 -119 -116.5 -197t-202.5 -78q-99 0 -156 57t-57 150q0 37 8 68h148q-7 -25 -7 -41q0 -46 25.5 -78.5t63.5 -32.5q43 0 85 43t62 109zM125 481q0 112 27 232l157 741h281l-158 -741q-20 -90 -20 -183q0 -133 57.5 -211.5t185.5 -78.5q72 0 134.5 26.5 t108.5 71t83.5 106.5t61.5 128t40 141l158 741h281l-158 -741q-32 -153 -95 -281t-156 -228.5t-223.5 -157t-285.5 -56.5q-127 0 -221 37.5t-149.5 105t-82 154.5t-26.5 194z" />
<glyph unicode="&#x16d;" horiz-adv-x="1218" d="M926 1495h147q-26 -119 -116.5 -196.5t-202.5 -77.5q-99 0 -156 56.5t-57 149.5q0 37 8 68h147q-6 -21 -6 -41q0 -46 25 -78.5t63 -32.5q43 0 85.5 43t62.5 109zM45 242q0 56 21 159l143 672h272l-129 -612q-14 -57 -14 -103q0 -145 123 -145q75 0 153 50t142 145 l141 665h274l-161 -758q-4 -28 -4 -36q0 -23 11.5 -33.5t37.5 -12.5l-49 -233q-86 -14 -115 -14q-72 0 -112 29.5t-40 86.5q0 33 15 99q-91 -109 -208.5 -165t-248.5 -56q-124 0 -188 66.5t-64 195.5z" />
<glyph unicode="&#x16e;" horiz-adv-x="1474" d="M999 1872q77 0 120.5 -33.5t43.5 -93.5q0 -86 -64.5 -137.5t-166.5 -51.5q-77 0 -121.5 33.5t-44.5 93.5q0 87 65.5 138t167.5 51zM885 1702q0 -27 17 -44.5t46 -17.5q37 0 66.5 25t29.5 61q0 28 -18 45t-47 17q-38 0 -66 -25t-28 -61zM125 481q0 112 27 232l157 741h281 l-158 -741q-20 -90 -20 -183q0 -133 57.5 -211.5t185.5 -78.5q72 0 134.5 26.5t108.5 71t83.5 106.5t61.5 128t40 141l158 741h281l-158 -741q-32 -153 -95 -281t-156 -228.5t-223.5 -157t-285.5 -56.5q-127 0 -221 37.5t-149.5 105t-82 154.5t-26.5 194z" />
<glyph unicode="&#x16f;" horiz-adv-x="1218" d="M815 1495q77 0 120.5 -33.5t43.5 -93.5q0 -86 -64.5 -137t-166.5 -51q-77 0 -121.5 33.5t-44.5 93.5q0 87 65.5 137.5t167.5 50.5zM700 1325q0 -27 17.5 -44t46.5 -17q37 0 66.5 25t29.5 61q0 28 -18 44.5t-47 16.5q-38 0 -66.5 -25t-28.5 -61zM45 242q0 56 21 159 l143 672h272l-129 -612q-14 -57 -14 -103q0 -145 123 -145q75 0 153 50t142 145l141 665h274l-161 -758q-4 -28 -4 -36q0 -23 11.5 -33.5t37.5 -12.5l-49 -233q-86 -14 -115 -14q-72 0 -112 29.5t-40 86.5q0 33 15 99q-91 -109 -208.5 -165t-248.5 -56q-124 0 -188 66.5 t-64 195.5z" />
<glyph unicode="&#x170;" horiz-adv-x="1474" d="M815 1595l-137 33l143 244h211zM1135 1595l-138 33l144 244h211zM125 481q0 112 27 232l157 741h281l-158 -741q-20 -90 -20 -183q0 -133 57.5 -211.5t185.5 -78.5q72 0 134.5 26.5t108.5 71t83.5 106.5t61.5 128t40 141l158 741h281l-158 -741q-32 -153 -95 -281 t-156 -228.5t-223.5 -157t-285.5 -56.5q-127 0 -221 37.5t-149.5 105t-82 154.5t-26.5 194z" />
<glyph unicode="&#x171;" horiz-adv-x="1218" d="M631 1219l-137 32l143 244h211zM950 1219l-137 32l143 244h211zM45 242q0 56 21 159l143 672h272l-129 -612q-14 -57 -14 -103q0 -145 123 -145q75 0 153 50t142 145l141 665h274l-161 -758q-4 -28 -4 -36q0 -23 11.5 -33.5t37.5 -12.5l-49 -233q-86 -14 -115 -14 q-72 0 -112 29.5t-40 86.5q0 33 15 99q-91 -109 -208.5 -165t-248.5 -56q-124 0 -188 66.5t-64 195.5z" />
<glyph unicode="&#x172;" horiz-adv-x="1474" d="M1241 1454h281l-158 -741q-29 -138 -83.5 -256.5t-133.5 -215.5t-188.5 -160.5t-239.5 -82.5q-80 -61 -119 -107t-39 -84q0 -58 92 -61l-88 -156q-89 11 -135.5 54.5t-46.5 101.5q0 127 162 246q-111 8 -193 49t-131 107.5t-72.5 149.5t-23.5 183q0 112 27 232l157 741 h281l-158 -741q-20 -90 -20 -183q0 -133 57.5 -211.5t185.5 -78.5q72 0 134.5 26.5t108.5 71t83.5 106.5t61.5 128t40 141z" />
<glyph unicode="&#x173;" horiz-adv-x="1218" d="M1006 279q0 -23 11.5 -33.5t37.5 -12.5l-49 -233q-81 -63 -120.5 -109t-39.5 -84q0 -58 92 -61l-88 -156q-89 11 -135.5 54.5t-46.5 101.5q0 128 161 246q-90 22 -90 110q0 33 15 99q-91 -109 -208.5 -165t-248.5 -56q-124 0 -188 66.5t-64 195.5q0 56 21 159l143 672 h272l-129 -612q-14 -57 -14 -103q0 -145 123 -145q75 0 153 50t142 145l141 665h274l-161 -758q-4 -28 -4 -36z" />
<glyph unicode="&#x174;" horiz-adv-x="2052" d="M930 1665l254 207h196l166 -207l-157 -66l-138 130l-192 -130zM168 1454h305l139 -1130l262 464l-90 662h260l50 -481l252 481h262l-375 -662l67 -464l619 1130h307l-868 -1454h-236l-104 610l-365 -610h-235z" />
<glyph unicode="&#x175;" horiz-adv-x="1617" d="M635 1284l254 207h196l166 -207l-157 -65l-138 129l-192 -129zM86 1073h268l129 -827q113 176 179 291l-115 536h239l54 -332q76 151 143 332h223q-97 -282 -260 -534l53 -246q167 224 258.5 391.5t167.5 388.5h252q-176 -519 -645 -1073h-207l-59 350 q-124 -201 -223 -350h-250z" />
<glyph unicode="&#x176;" horiz-adv-x="1267" d="M514 1665l254 207h197l165 -207l-157 -66l-137 130l-193 -130zM461 512l-295 942h307l180 -700l484 700h305l-703 -946l-106 -508h-281z" />
<glyph unicode="&#x177;" horiz-adv-x="1064" d="M338 1284l254 207h196l166 -207l-157 -65l-138 129l-192 -129zM-90 -258q124 11 183.5 40.5t121.5 115.5l59 79l-178 1096h281l92 -835l70 114q126 209 195 371.5t112 349.5h266q-56 -199 -138.5 -368t-283.5 -494l-164 -264q-142 -229 -272 -321t-311 -95z" />
<glyph unicode="&#x178;" horiz-adv-x="1267" d="M506 1614l53 244h227l-53 -244h-227zM891 1614l53 244h225l-51 -244h-227zM461 512l-295 942h307l180 -700l484 700h305l-703 -946l-106 -508h-281z" />
<glyph unicode="&#x179;" horiz-adv-x="1222" d="M920 1602l-179 34l156 244h254zM-27 213l975 993h-739l51 248h1067l-45 -213l-948 -993h741l-51 -248h-1096z" />
<glyph unicode="&#x17a;" horiz-adv-x="964" d="M709 1221l-179 34l156 244h254zM-43 168l700 713h-524l41 192h819l-37 -168l-698 -712h557l-41 -193h-852z" />
<glyph unicode="&#x17b;" horiz-adv-x="1222" d="M717 1618l57 258h246l-55 -258h-248zM-27 213l975 993h-739l51 248h1067l-45 -213l-948 -993h741l-51 -248h-1096z" />
<glyph unicode="&#x17c;" horiz-adv-x="964" d="M506 1237l57 258h246l-55 -258h-248zM-43 168l700 713h-524l41 192h819l-37 -168l-698 -712h557l-41 -193h-852z" />
<glyph unicode="&#x17d;" horiz-adv-x="1222" d="M565 1810l156 66l137 -129l193 129l129 -66l-254 -206h-197zM-27 213l975 993h-739l51 248h1067l-45 -213l-948 -993h741l-51 -248h-1096z" />
<glyph unicode="&#x17e;" horiz-adv-x="964" d="M354 1430l156 65l137 -129l193 129l129 -65l-254 -207h-197zM-43 168l700 713h-524l41 192h819l-37 -168l-698 -712h557l-41 -193h-852z" />
<glyph unicode="&#x18f;" horiz-adv-x="1470" d="M45 580q0 131 49 241h1041q4 40 4 64q0 150 -81.5 238.5t-209.5 88.5q-109 0 -212.5 -62.5t-152.5 -160.5l-266 96q116 172 300.5 275.5t389.5 103.5q125 0 228 -49t169 -131.5t102 -189t36 -224.5q0 -108 -30.5 -216.5t-84.5 -205.5t-133 -181.5t-171.5 -145.5 t-204.5 -96t-228 -35q-128 0 -233.5 49.5t-172.5 132.5t-103 188t-36 220zM1085 600h-745q-8 -36 -8 -78q0 -125 86 -204.5t229 -79.5q146 0 267 101t171 261z" />
<glyph unicode="&#x192;" horiz-adv-x="1077" d="M-135 -305l155 186q33 -45 103 -45q50 0 92.5 38t54.5 97l164 766h-131l43 211h133l29 133q41 199 160 317t276 118q123 0 242 -64l-96 -207q-59 39 -136 39q-129 0 -170 -192l-30 -144h245l-45 -211h-245l-162 -760q-36 -165 -163 -271.5t-278 -106.5q-158 0 -241 96z " />
<glyph unicode="&#x1a0;" horiz-adv-x="1492" d="M1278 1331q89 -86 136.5 -211t47.5 -264q0 -161 -71 -319.5t-186.5 -278.5t-272.5 -194t-320 -74q-126 0 -229 50t-169 134t-102 192.5t-36 227.5q0 163 71.5 322t187.5 279t274.5 194.5t322.5 74.5q51 0 106 -10q127 3 174 47q6 6 11.5 12t10.5 14t8.5 13.5t7 15t5.5 14 t5.5 16.5t4.5 15.5t4.5 17.5t4.5 17h199q-19 -85 -48.5 -149.5t-91.5 -118.5q-25 -22 -55 -37zM668 240q109 0 206 55t161.5 141.5t102.5 192t38 207.5q0 104 -33 187.5t-103 136t-168 52.5q-109 0 -206 -54.5t-162.5 -140.5t-103.5 -191.5t-38 -209.5q0 -103 33 -186.5 t103.5 -136.5t169.5 -53z" />
<glyph unicode="&#x1a1;" horiz-adv-x="1200" d="M1270 1253q-19 -85 -48.5 -149.5t-91.5 -118.5q-44 -34 -83 -51q88 -119 88 -297q0 -130 -49 -250t-134.5 -210t-209 -143.5t-263.5 -53.5q-113 0 -200.5 35.5t-140.5 98t-80 143.5t-27 177q0 131 49 251t134 210t208.5 143.5t263.5 53.5q88 0 156 -21q124 3 168 47 q8 8 14.5 16t12 18.5t9 17t8 20.5t6 19t6 22.5t5.5 21.5h199zM520 213q131 0 230.5 113t99.5 278q0 116 -54 185t-151 69q-131 0 -230.5 -114t-99.5 -279q0 -115 54 -183.5t151 -68.5z" />
<glyph unicode="&#x1af;" horiz-adv-x="1474" d="M1614 1634h198q-19 -86 -48 -150t-91 -118q-69 -60 -188 -84l-121 -569q-32 -153 -95 -281t-156 -228.5t-223.5 -157t-285.5 -56.5q-127 0 -221 37.5t-149.5 105t-82 154.5t-26.5 194q0 112 27 232l157 741h281l-158 -741q-20 -90 -20 -183q0 -133 57.5 -211.5 t185.5 -78.5q72 0 134.5 26.5t108.5 71t83.5 106.5t61.5 128t40 141l158 741h180q89 6 131 45q6 6 11.5 12t10.5 14t8.5 13.5t7 15t5.5 14t5.5 16.5t4.5 15.5t4.5 17.5t4.5 17z" />
<glyph unicode="&#x1b0;" horiz-adv-x="1218" d="M1290 1247h199q-19 -86 -48 -150t-91 -118q-69 -63 -217 -90l-123 -574q-4 -28 -4 -36q0 -23 11.5 -33.5t37.5 -12.5l-49 -233q-86 -14 -115 -14q-72 0 -112 29.5t-40 86.5q0 33 15 99q-91 -109 -208.5 -165t-248.5 -56q-124 0 -188 66.5t-64 195.5q0 56 21 159l143 672 h272l-129 -612q-14 -57 -14 -103q0 -145 123 -145q75 0 153 50t142 145l141 665h248q54 12 84 39q8 8 14.5 16t12 18.5t9 17t8 20.5t6 19t6 22.5t5.5 21.5z" />
<glyph unicode="&#x1e6;" horiz-adv-x="1427" d="M1044 1599h-196l-164 207l156 66l137 -129l192 129l129 -66zM815 541l45 207h510l-160 -748h-233l35 164q-204 -174 -416 -174q-152 0 -271 78.5t-184 214.5t-65 305q0 172 72 334t189.5 280.5t273.5 190t317 71.5q190 0 314 -84.5t165 -232.5l-244 -156 q-27 106 -107 164.5t-190 58.5q-99 0 -192 -50.5t-160.5 -133t-108 -191.5t-40.5 -221q0 -165 83.5 -271.5t225.5 -106.5q197 0 395 198l23 103h-277z" />
<glyph unicode="&#x1e7;" horiz-adv-x="1251" d="M467 1425l156 66l137 -129l192 129l129 -66l-254 -206h-196zM-102 -233l180 145q42 -76 120 -119t177 -43q129 0 229 76t131 225l29 135q-68 -91 -169 -141.5t-206 -50.5q-165 0 -260.5 121.5t-95.5 306.5q0 175 83 330t223 247.5t300 92.5q115 0 193 -55t116 -152 l39 188h242l-219 -1022q-50 -234 -237.5 -371t-440.5 -137q-307 0 -434 224zM809 393l53 256q-13 93 -72.5 151t-138.5 58q-86 0 -164.5 -59t-124 -150.5t-45.5 -185.5q0 -106 59 -178t154 -72q77 0 155 52t124 128z" />
<glyph unicode="&#x1ea;" horiz-adv-x="1492" d="M719 -2q-81 -63 -119.5 -108t-38.5 -83q0 -58 92 -61l-88 -156q-89 11 -135.5 54.5t-46.5 101.5q0 125 164 248q-111 12 -201.5 66t-149 136t-89.5 184t-31 214q0 163 71.5 322t187.5 279t274.5 194.5t322.5 74.5q100 0 186.5 -33t149 -91t107 -135t66 -165.5 t21.5 -183.5q0 -198 -101.5 -386t-273 -315.5t-368.5 -156.5zM362 616q0 -103 33 -186.5t103.5 -136.5t169.5 -53q109 0 206 55t161.5 141.5t102.5 192t38 207.5q0 104 -33 187.5t-103 136t-168 52.5q-109 0 -206 -54.5t-162.5 -140.5t-103.5 -191.5t-38 -209.5z" />
<glyph unicode="&#x1eb;" horiz-adv-x="1200" d="M584 -12q-144 -113 -144 -181q0 -58 92 -61l-88 -156q-89 11 -135.5 54.5t-46.5 101.5q0 121 150 238q-128 13 -215.5 77.5t-126.5 159t-39 213.5q0 131 49 251t134 210t208.5 143.5t263.5 53.5q113 0 200.5 -35.5t141 -98t80.5 -143.5t27 -178q0 -158 -68.5 -297 t-195 -233.5t-287.5 -118.5zM315 465q0 -115 54 -183.5t151 -68.5q131 0 230.5 113t99.5 278q0 116 -54 185t-151 69q-131 0 -230.5 -114t-99.5 -279z" />
<glyph unicode="&#x1fa;" horiz-adv-x="1320" d="M1067 1595q0 -102 -92 -155l209 -1440h-291l-45 362h-469l-197 -362h-291l822 1442q-43 32 -43 92q0 69 41 114.5t112 63.5l135 203h254l-194 -221q49 -34 49 -99zM883 1638q-38 0 -66.5 -25t-28.5 -61q0 -27 17.5 -44t46.5 -17q37 0 66.5 25t29.5 61q0 28 -18 44.5 t-47 16.5zM467 561h375l-64 572z" />
<glyph unicode="&#x1fb;" horiz-adv-x="1277" d="M954 1642l-178 35l156 244h254zM844 1495q77 0 120.5 -33.5t43.5 -93.5q0 -86 -65 -137t-167 -51q-77 0 -121.5 33.5t-44.5 93.5q0 87 65.5 137.5t168.5 50.5zM729 1325q0 -27 17.5 -44t46.5 -17q37 0 66.5 25t29.5 61q0 28 -18.5 44.5t-47.5 16.5q-38 0 -66 -25t-28 -61 zM31 420q0 130 48.5 254t128 215.5t188 147t222.5 55.5q108 0 186.5 -57t108.5 -150l41 184h275l-160 -754q-6 -21 -6 -36q0 -43 49 -46l-49 -233q-86 -14 -113 -14q-73 0 -114 31.5t-41 91.5q0 25 12 77q-75 -99 -180.5 -152.5t-214.5 -53.5q-174 0 -277.5 124.5 t-103.5 315.5zM811 393l53 256q-12 89 -72 149t-137 60q-86 0 -164.5 -57.5t-125 -149t-46.5 -188.5q0 -108 59 -179t157 -71q72 0 152 51.5t124 128.5z" />
<glyph unicode="&#x1fc;" horiz-adv-x="1902" d="M1364 1597l-178 35l155 244h254zM1004 1454h991l-53 -248h-637l-72 -342h530l-53 -248h-530l-78 -368h651l-51 -248h-934l78 362h-436l-273 -362h-301zM877 608l112 529l-405 -529h293z" />
<glyph unicode="&#x1fd;" horiz-adv-x="1830" d="M1073 1217l-178 34l156 244h254zM-20 260q0 114 69.5 207.5t187.5 146t259 52.5q135 0 219 -41q5 18 15 45t16 48t6 42q0 65 -47.5 103t-137.5 38q-152 0 -344 -121l-45 174q231 138 459 138q234 0 321 -152q175 152 396 152q104 0 187 -35t136 -96.5t81 -142.5t28 -175 q0 -25 -2.5 -49t-5 -39.5t-8 -35.5t-8 -27.5t-9 -24.5t-6.5 -18h-786q-5 -40 -5 -52q0 -99 60 -158t153 -59q77 0 153.5 40.5t113.5 105.5l219 -66q-84 -126 -227.5 -203t-309.5 -77q-142 0 -243 59t-150 162q-60 -75 -145.5 -127t-163 -73t-146.5 -21q-132 0 -211 78.5 t-79 201.5zM1505 618q2 18 2 52q0 102 -54 162.5t-148 60.5q-106 0 -193 -76t-121 -199h514zM678 322q-4 28 -4 51q0 46 10 104q-89 35 -176 35q-109 0 -184.5 -57t-75.5 -142q0 -59 37.5 -96t107.5 -37q76 0 164 43t121 99z" />
<glyph unicode="&#x1fe;" horiz-adv-x="1492" d="M1274 1876l-232 -279l-178 35l156 244h254zM1573 1454l-207 -235q96 -158 96 -363q0 -161 -71 -319.5t-186.5 -278.5t-272.5 -194t-320 -74q-149 0 -266 69l-51 -59h-303l190 217q-106 161 -106 377q0 163 71.5 322t187.5 279t274.5 194.5t322.5 74.5q157 0 276 -80 l62 70h303zM362 616q0 -88 27 -165l633 723q-62 38 -150 38q-109 0 -206 -54.5t-162.5 -140.5t-103.5 -191.5t-38 -209.5zM1176 836q0 74 -19 145l-625 -711q58 -30 136 -30q109 0 206 55t161.5 141.5t102.5 192t38 207.5z" />
<glyph unicode="&#x1ff;" horiz-adv-x="1200" d="M1210 1495l-231 -278l-178 34l155 244h254zM1034 1081h156l-148 -141q93 -122 93 -297q0 -125 -50.5 -245t-137.5 -212.5t-213.5 -149t-268.5 -56.5q-164 0 -270 83l-76 -71h-152l154 145q-90 122 -90 289q0 127 51 247.5t138 213t213.5 149t268.5 56.5q155 0 263 -78z M651 858q-130 0 -233 -118.5t-103 -278.5q0 -67 21 -117l436 469q-51 45 -121 45zM514 213q130 0 233 118t103 279q0 65 -23 123l-440 -471q52 -49 127 -49z" />
<glyph unicode="&#x200;" horiz-adv-x="1320" d="M543 1882h211l39 -244l-150 -36zM862 1882h209l41 -244l-149 -36zM721 1454h252l211 -1454h-291l-45 362h-469l-197 -362h-291zM842 561l-64 572l-311 -572h375z" />
<glyph unicode="&#x201;" horiz-adv-x="1277" d="M444 1501h211l39 -244l-149 -36zM764 1501h209l41 -244l-150 -36zM31 420q0 130 48.5 254t128 215.5t188 147t222.5 55.5q108 0 186.5 -57t108.5 -150l41 184h275l-160 -754q-6 -21 -6 -36q0 -43 49 -46l-49 -233q-86 -14 -113 -14q-73 0 -114 31.5t-41 91.5q0 25 12 77 q-75 -99 -180.5 -152.5t-214.5 -53.5q-174 0 -277.5 124.5t-103.5 315.5zM811 393l53 256q-12 89 -72 149t-137 60q-86 0 -164.5 -57.5t-125 -149t-46.5 -188.5q0 -108 59 -179t157 -71q72 0 152 51.5t124 128.5z" />
<glyph unicode="&#x202;" horiz-adv-x="1320" d="M932 1880q97 0 155 -60.5t58 -152.5q0 -21 -8 -61h-146q6 30 6 57q0 94 -88 94q-115 0 -149 -151h-146q25 118 115 196t203 78zM721 1454h252l211 -1454h-291l-45 362h-469l-197 -362h-291zM842 561l-64 572l-311 -572h375z" />
<glyph unicode="&#x203;" horiz-adv-x="1277" d="M834 1499q97 0 155 -60.5t58 -152.5q0 -16 -9 -61h-145q6 30 6 57q0 94 -88 94q-115 0 -149 -151h-146q25 118 115 196t203 78zM31 420q0 130 48.5 254t128 215.5t188 147t222.5 55.5q108 0 186.5 -57t108.5 -150l41 184h275l-160 -754q-6 -21 -6 -36q0 -43 49 -46 l-49 -233q-86 -14 -113 -14q-73 0 -114 31.5t-41 91.5q0 25 12 77q-75 -99 -180.5 -152.5t-214.5 -53.5q-174 0 -277.5 124.5t-103.5 315.5zM811 393l53 256q-12 89 -72 149t-137 60q-86 0 -164.5 -57.5t-125 -149t-46.5 -188.5q0 -108 59 -179t157 -71q72 0 152 51.5 t124 128.5z" />
<glyph unicode="&#x204;" horiz-adv-x="1183" d="M479 1882h211l39 -244l-149 -36zM799 1882h209l41 -244l-150 -36zM330 1454h942l-51 -248h-664l-74 -350h572l-49 -229h-572l-80 -379h680l-53 -248h-961z" />
<glyph unicode="&#x205;" horiz-adv-x="1128" d="M645 1253l-149 -36l-101 280h211zM965 1253l-150 -36l-100 280h209zM473 446q-15 0 -158 5v-27q0 -112 51.5 -178t153.5 -66q82 0 155 39.5t116 108.5l217 -68q-84 -125 -231 -202.5t-306 -77.5q-201 0 -319.5 126.5t-118.5 327.5q0 131 52.5 252t141.5 210t215.5 142.5 t266.5 53.5q176 0 279.5 -78.5t103.5 -220.5q0 -347 -619 -347zM670 893q-114 0 -196.5 -74.5t-125.5 -193.5q86 -4 127 -4q191 0 273.5 39t82.5 114q0 57 -43.5 88t-117.5 31z" />
<glyph unicode="&#x206;" horiz-adv-x="1183" d="M868 1880q97 0 155 -60.5t58 -152.5q0 -21 -8 -61h-145q6 30 6 57q0 94 -88 94q-116 0 -150 -151h-145q25 119 115 196.5t202 77.5zM330 1454h942l-51 -248h-664l-74 -350h572l-49 -229h-572l-80 -379h680l-53 -248h-961z" />
<glyph unicode="&#x207;" horiz-adv-x="1128" d="M762 1372q-116 0 -150 -151h-145q25 119 115 196.5t202 77.5q97 0 155 -60.5t58 -152.5q0 -21 -8 -61h-145q6 30 6 57q0 94 -88 94zM473 446q-15 0 -158 5v-27q0 -112 51.5 -178t153.5 -66q82 0 155 39.5t116 108.5l217 -68q-84 -125 -231 -202.5t-306 -77.5 q-201 0 -319.5 126.5t-118.5 327.5q0 131 52.5 252t141.5 210t215.5 142.5t266.5 53.5q176 0 279.5 -78.5t103.5 -220.5q0 -347 -619 -347zM670 893q-114 0 -196.5 -74.5t-125.5 -193.5q86 -4 127 -4q191 0 273.5 39t82.5 114q0 57 -43.5 88t-117.5 31z" />
<glyph unicode="&#x208;" horiz-adv-x="583" d="M170 1882h211l39 -244l-150 -36zM489 1882h209l41 -244l-149 -36zM330 1452h280l-309 -1452h-281z" />
<glyph unicode="&#x209;" horiz-adv-x="518" d="M47 1501h211l39 -244l-150 -36zM367 1501h208l41 -244l-149 -36zM219 1073h275l-228 -1073h-274z" />
<glyph unicode="&#x20a;" horiz-adv-x="583" d="M559 1880q97 0 155 -60.5t58 -152.5q0 -21 -8 -61h-146q7 35 7 57q0 94 -88 94q-116 0 -150 -151h-145q25 119 115 196.5t202 77.5zM330 1452h280l-309 -1452h-281z" />
<glyph unicode="&#x20b;" horiz-adv-x="518" d="M436 1499q97 0 155 -60.5t58 -152.5q0 -21 -8 -61h-145q6 30 6 57q0 94 -88 94q-116 0 -150 -151h-145q25 119 115 196.5t202 77.5zM219 1073h275l-228 -1073h-274z" />
<glyph unicode="&#x20c;" horiz-adv-x="1492" d="M623 1878h211l38 -244l-149 -37zM942 1878h209l41 -244l-150 -37zM76 594q0 163 71.5 322t187.5 279t274.5 194.5t322.5 74.5q100 0 186.5 -33t149 -91t107 -135t66 -165.5t21.5 -183.5q0 -161 -71 -319.5t-186.5 -278.5t-272.5 -194t-320 -74q-126 0 -229 50t-169 134 t-102 192.5t-36 227.5zM1176 836q0 104 -33 187.5t-103 136t-168 52.5q-109 0 -206 -54.5t-162.5 -140.5t-103.5 -191.5t-38 -209.5q0 -103 33 -186.5t103.5 -136.5t169.5 -53q109 0 206 55t161.5 141.5t102.5 192t38 207.5z" />
<glyph unicode="&#x20d;" horiz-adv-x="1200" d="M391 1497h211l39 -244l-149 -36zM711 1497h209l41 -244l-150 -36zM31 434q0 131 49 251t134 210t208.5 143.5t263.5 53.5q113 0 200.5 -35.5t141 -98t80.5 -143.5t27 -178q0 -130 -49 -250t-134.5 -210t-209 -143.5t-263.5 -53.5q-113 0 -200.5 35.5t-140.5 98t-80 143.5 t-27 177zM850 604q0 116 -54 185t-151 69q-131 0 -230.5 -114t-99.5 -279q0 -115 54 -183.5t151 -68.5q131 0 230.5 113t99.5 278z" />
<glyph unicode="&#x20e;" horiz-adv-x="1492" d="M1012 1876q97 0 155 -60.5t58 -152.5q0 -21 -8 -61h-146q6 30 6 57q0 94 -88 94q-115 0 -149 -151h-146q25 118 115 196t203 78zM76 594q0 163 71.5 322t187.5 279t274.5 194.5t322.5 74.5q100 0 186.5 -33t149 -91t107 -135t66 -165.5t21.5 -183.5q0 -161 -71 -319.5 t-186.5 -278.5t-272.5 -194t-320 -74q-126 0 -229 50t-169 134t-102 192.5t-36 227.5zM1176 836q0 104 -33 187.5t-103 136t-168 52.5q-109 0 -206 -54.5t-162.5 -140.5t-103.5 -191.5t-38 -209.5q0 -103 33 -186.5t103.5 -136.5t169.5 -53q109 0 206 55t161.5 141.5 t102.5 192t38 207.5z" />
<glyph unicode="&#x20f;" horiz-adv-x="1200" d="M780 1495q97 0 155 -60.5t58 -152.5q0 -21 -8 -61h-145q6 30 6 57q0 94 -88 94q-116 0 -150 -151h-145q25 119 115 196.5t202 77.5zM31 434q0 131 49 251t134 210t208.5 143.5t263.5 53.5q113 0 200.5 -35.5t141 -98t80.5 -143.5t27 -178q0 -130 -49 -250t-134.5 -210 t-209 -143.5t-263.5 -53.5q-113 0 -200.5 35.5t-140.5 98t-80 143.5t-27 177zM850 604q0 116 -54 185t-151 69q-131 0 -230.5 -114t-99.5 -279q0 -115 54 -183.5t151 -68.5q131 0 230.5 113t99.5 278z" />
<glyph unicode="&#x210;" horiz-adv-x="1314" d="M508 1882h211l39 -244l-150 -36zM827 1882h209l41 -244l-149 -36zM20 0l310 1454h614q105 0 186.5 -58t122.5 -148.5t41 -194.5q0 -158 -98 -301t-246 -205l197 -547h-320l-172 487h-252l-102 -487h-281zM782 735q84 0 153 88t69 201q0 78 -38 130t-94 52h-315l-100 -471 h325z" />
<glyph unicode="&#x211;" horiz-adv-x="774" d="M182 1497h211l39 -244l-149 -36zM502 1497h209l41 -244l-150 -36zM219 1073h252l-49 -229q79 111 175.5 175t190.5 64q30 0 50 -4l-52 -243q-120 -2 -222 -50t-161 -137l-137 -649h-274z" />
<glyph unicode="&#x212;" horiz-adv-x="1314" d="M897 1880q97 0 155 -60.5t58 -152.5q0 -21 -8 -61h-146q7 35 7 57q0 94 -89 94q-115 0 -149 -151h-145q25 119 115 196.5t202 77.5zM20 0l310 1454h614q105 0 186.5 -58t122.5 -148.5t41 -194.5q0 -158 -98 -301t-246 -205l197 -547h-320l-172 487h-252l-102 -487h-281z M782 735q84 0 153 88t69 201q0 78 -38 130t-94 52h-315l-100 -471h325z" />
<glyph unicode="&#x213;" horiz-adv-x="774" d="M571 1495q97 0 155 -60.5t58 -152.5q0 -21 -8 -61h-145q6 30 6 57q0 94 -88 94q-116 0 -150 -151h-145q25 119 115 196.5t202 77.5zM219 1073h252l-49 -229q79 111 175.5 175t190.5 64q30 0 50 -4l-52 -243q-120 -2 -222 -50t-161 -137l-137 -649h-274z" />
<glyph unicode="&#x214;" horiz-adv-x="1474" d="M600 1878h211l39 -244l-150 -37zM920 1878h208l41 -244l-149 -37zM125 481q0 112 27 232l157 741h281l-158 -741q-20 -90 -20 -183q0 -133 57.5 -211.5t185.5 -78.5q72 0 134.5 26.5t108.5 71t83.5 106.5t61.5 128t40 141l158 741h281l-158 -741q-32 -153 -95 -281 t-156 -228.5t-223.5 -157t-285.5 -56.5q-127 0 -221 37.5t-149.5 105t-82 154.5t-26.5 194z" />
<glyph unicode="&#x215;" horiz-adv-x="1218" d="M416 1501h211l39 -244l-150 -36zM735 1501h209l41 -244l-149 -36zM45 242q0 56 21 159l143 672h272l-129 -612q-14 -57 -14 -103q0 -145 123 -145q75 0 153 50t142 145l141 665h274l-161 -758q-4 -28 -4 -36q0 -23 11.5 -33.5t37.5 -12.5l-49 -233q-86 -14 -115 -14 q-72 0 -112 29.5t-40 86.5q0 33 15 99q-91 -109 -208.5 -165t-248.5 -56q-124 0 -188 66.5t-64 195.5z" />
<glyph unicode="&#x216;" horiz-adv-x="1474" d="M989 1876q97 0 155 -60.5t58 -152.5q0 -21 -8 -61h-145q6 30 6 57q0 94 -88 94q-116 0 -150 -151h-145q25 119 115 196.5t202 77.5zM125 481q0 112 27 232l157 741h281l-158 -741q-20 -90 -20 -183q0 -133 57.5 -211.5t185.5 -78.5q72 0 134.5 26.5t108.5 71t83.5 106.5 t61.5 128t40 141l158 741h281l-158 -741q-32 -153 -95 -281t-156 -228.5t-223.5 -157t-285.5 -56.5q-127 0 -221 37.5t-149.5 105t-82 154.5t-26.5 194z" />
<glyph unicode="&#x217;" horiz-adv-x="1218" d="M805 1499q97 0 155 -60.5t58 -152.5q0 -21 -8 -61h-146q6 30 6 57q0 94 -88 94q-115 0 -149 -151h-146q25 118 115 196t203 78zM45 242q0 56 21 159l143 672h272l-129 -612q-14 -57 -14 -103q0 -145 123 -145q75 0 153 50t142 145l141 665h274l-161 -758q-4 -28 -4 -36 q0 -23 11.5 -33.5t37.5 -12.5l-49 -233q-86 -14 -115 -14q-72 0 -112 29.5t-40 86.5q0 33 15 99q-91 -109 -208.5 -165t-248.5 -56q-124 0 -188 66.5t-64 195.5z" />
<glyph unicode="&#x218;" horiz-adv-x="1212" d="M-43 172l176 244q30 -50 156 -114t268 -64q119 0 181.5 47t62.5 129q0 30 -14 54t-38.5 42.5t-61.5 35t-78.5 30.5t-93.5 31q-5 1 -8 2t-7 2.5t-8 2.5q-162 52 -238 123.5t-76 190.5q0 123 51 225.5t137 169.5t197 104t232 37q135 0 250 -45t200 -116l-174 -230 q-19 39 -123.5 91.5t-214.5 52.5q-120 0 -183 -52.5t-63 -142.5q0 -28 12.5 -50t31.5 -38t57 -32t73 -27.5t95 -28.5q89 -27 149 -54.5t111 -67.5t75.5 -95.5t24.5 -128.5q0 -107 -34.5 -194.5t-93 -146t-138.5 -99t-168 -58.5t-184 -18q-154 0 -297 49.5t-244 138.5z M309 -436l88 147h-82l41 193h232l-41 -193l-113 -147h-125z" />
<glyph unicode="&#x219;" horiz-adv-x="983" d="M-51 145l137 172q154 -139 326 -139q85 0 134.5 36t49.5 97q0 49 -38.5 72.5t-147.5 56.5q-174 55 -242 106t-68 148q0 112 64.5 204t175.5 144t244 52q236 0 372 -148l-145 -166q-66 62 -127 89.5t-131 27.5q-82 0 -134 -35.5t-52 -99.5q0 -45 34.5 -67t135.5 -52 q91 -26 149 -50.5t102.5 -57t64 -73.5t19.5 -97q0 -168 -136 -276.5t-355 -108.5q-134 0 -249 43t-183 122zM190 -436l89 147h-82l41 193h231l-41 -193l-113 -147h-125z" />
<glyph unicode="&#x21a;" horiz-adv-x="1212" d="M592 1206h-436l51 248h1153l-53 -248h-435l-256 -1206h-282zM293 -436l88 147h-82l41 193h231l-41 -193l-112 -147h-125z" />
<glyph unicode="&#x21b;" horiz-adv-x="763" d="M96 170q0 40 8 76l132 616h-134l45 211h132l73 348h275l-74 -348h215l-45 -211h-213l-113 -524q-4 -24 -4 -33q0 -72 78 -72q47 0 150 39l8 -217q-64 -31 -148 -52t-162 -21q-102 0 -162.5 46.5t-60.5 141.5zM84 -436l88 147h-82l41 193h231l-40 -193l-113 -147h-125z " />
<glyph unicode="&#x22a;" horiz-adv-x="1492" d="M770 2079l37 170h588l-37 -170h-588zM659 1614l54 244h227l-53 -244h-228zM1044 1614l54 244h225l-51 -244h-228zM76 594q0 163 71.5 322t187.5 279t274.5 194.5t322.5 74.5q100 0 186.5 -33t149 -91t107 -135t66 -165.5t21.5 -183.5q0 -161 -71 -319.5t-186.5 -278.5 t-272.5 -194t-320 -74q-126 0 -229 50t-169 134t-102 192.5t-36 227.5zM1176 836q0 104 -33 187.5t-103 136t-168 52.5q-109 0 -206 -54.5t-162.5 -140.5t-103.5 -191.5t-38 -209.5q0 -103 33 -186.5t103.5 -136.5t169.5 -53q109 0 206 55t161.5 141.5t102.5 192t38 207.5z " />
<glyph unicode="&#x22b;" horiz-adv-x="1200" d="M539 1698l36 170h588l-37 -170h-587zM428 1233l53 244h228l-54 -244h-227zM813 1233l53 244h226l-52 -244h-227zM31 434q0 131 49 251t134 210t208.5 143.5t263.5 53.5q113 0 200.5 -35.5t141 -98t80.5 -143.5t27 -178q0 -130 -49 -250t-134.5 -210t-209 -143.5 t-263.5 -53.5q-113 0 -200.5 35.5t-140.5 98t-80 143.5t-27 177zM850 604q0 116 -54 185t-151 69q-131 0 -230.5 -114t-99.5 -279q0 -115 54 -183.5t151 -68.5q131 0 230.5 113t99.5 278z" />
<glyph unicode="&#x22c;" horiz-adv-x="1492" d="M772 2093l37 170h588l-37 -170h-588zM856 1702q-25 0 -45.5 -9.5t-32.5 -23t-20.5 -28.5t-11.5 -24.5t-3 -12.5h-151q3 17 16.5 46.5t39.5 67.5t58.5 70.5t79 55t95.5 22.5q40 0 74 -15t54.5 -33.5t48.5 -33.5t58 -15q32 0 58 14.5t40 35t20.5 33.5t8.5 20h150 q-3 -14 -16.5 -42.5t-40.5 -66.5t-60.5 -72t-82 -57.5t-99.5 -23.5q-40 0 -75 14.5t-56.5 31.5t-50 31.5t-56.5 14.5zM76 594q0 163 71.5 322t187.5 279t274.5 194.5t322.5 74.5q100 0 186.5 -33t149 -91t107 -135t66 -165.5t21.5 -183.5q0 -161 -71 -319.5t-186.5 -278.5 t-272.5 -194t-320 -74q-126 0 -229 50t-169 134t-102 192.5t-36 227.5zM1176 836q0 104 -33 187.5t-103 136t-168 52.5q-109 0 -206 -54.5t-162.5 -140.5t-103.5 -191.5t-38 -209.5q0 -103 33 -186.5t103.5 -136.5t169.5 -53q109 0 206 55t161.5 141.5t102.5 192t38 207.5z " />
<glyph unicode="&#x22d;" horiz-adv-x="1200" d="M541 1712l37 170h587l-37 -170h-587zM625 1321q-25 0 -45.5 -9.5t-32.5 -23t-20.5 -28.5t-11.5 -24.5t-3 -12.5h-152q3 17 16.5 46.5t39.5 67.5t58.5 70.5t79 55t95.5 22.5q40 0 74.5 -15t54.5 -33t48.5 -33t58.5 -15q32 0 58 14t40 34.5t20.5 33.5t8.5 20h149 q-3 -14 -16.5 -42.5t-40.5 -66.5t-60.5 -72t-82 -57.5t-99.5 -23.5q-40 0 -75 14.5t-56 31.5t-49.5 31.5t-56.5 14.5zM31 434q0 131 49 251t134 210t208.5 143.5t263.5 53.5q113 0 200.5 -35.5t141 -98t80.5 -143.5t27 -178q0 -130 -49 -250t-134.5 -210t-209 -143.5 t-263.5 -53.5q-113 0 -200.5 35.5t-140.5 98t-80 143.5t-27 177zM850 604q0 116 -54 185t-151 69q-131 0 -230.5 -114t-99.5 -279q0 -115 54 -183.5t151 -68.5q131 0 230.5 113t99.5 278z" />
<glyph unicode="&#x230;" horiz-adv-x="1492" d="M770 2093l37 170h588l-37 -170h-588zM840 1614l57 258h246l-56 -258h-247zM76 594q0 163 71.5 322t187.5 279t274.5 194.5t322.5 74.5q100 0 186.5 -33t149 -91t107 -135t66 -165.5t21.5 -183.5q0 -161 -71 -319.5t-186.5 -278.5t-272.5 -194t-320 -74q-126 0 -229 50 t-169 134t-102 192.5t-36 227.5zM1176 836q0 104 -33 187.5t-103 136t-168 52.5q-109 0 -206 -54.5t-162.5 -140.5t-103.5 -191.5t-38 -209.5q0 -103 33 -186.5t103.5 -136.5t169.5 -53q109 0 206 55t161.5 141.5t102.5 192t38 207.5z" />
<glyph unicode="&#x231;" horiz-adv-x="1200" d="M539 1712l36 170h588l-37 -170h-587zM608 1233l58 258h245l-55 -258h-248zM31 434q0 131 49 251t134 210t208.5 143.5t263.5 53.5q113 0 200.5 -35.5t141 -98t80.5 -143.5t27 -178q0 -130 -49 -250t-134.5 -210t-209 -143.5t-263.5 -53.5q-113 0 -200.5 35.5t-140.5 98 t-80 143.5t-27 177zM850 604q0 116 -54 185t-151 69q-131 0 -230.5 -114t-99.5 -279q0 -115 54 -183.5t151 -68.5q131 0 230.5 113t99.5 278z" />
<glyph unicode="&#x232;" horiz-adv-x="1267" d="M528 1671l37 170h588l-37 -170h-588zM461 512l-295 942h307l180 -700l484 700h305l-703 -946l-106 -508h-281z" />
<glyph unicode="&#x233;" horiz-adv-x="1064" d="M352 1290l37 170h588l-37 -170h-588zM-90 -258q124 11 183.5 40.5t121.5 115.5l59 79l-178 1096h281l92 -835l70 114q126 209 195 371.5t112 349.5h266q-56 -199 -138.5 -368t-283.5 -494l-164 -264q-142 -229 -272 -321t-311 -95z" />
<glyph unicode="&#x237;" horiz-adv-x="518" d="M-422 -305l156 186q33 -45 102 -45q51 0 93.5 38t54.5 97l235 1102h275l-230 -1081q-24 -113 -91 -203.5t-159.5 -140t-193.5 -49.5q-159 0 -242 96z" />
<glyph unicode="&#x259;" horiz-adv-x="1183" d="M449 -20q-208 0 -322.5 118t-114.5 305q0 120 41 220h778q3 24 3 51q0 99 -57.5 158t-145.5 59q-78 0 -153 -40.5t-113 -105.5l-220 66q84 126 227.5 203.5t311.5 77.5q137 0 237 -61t148.5 -161t48.5 -225q0 -127 -50 -248t-137 -213t-213 -148t-269 -56zM496 178 q101 0 185.5 76.5t119.5 198.5h-506q-2 -18 -2 -52q0 -101 55.5 -162t147.5 -61z" />
<glyph unicode="&#x2b9;" horiz-adv-x="491" d="M227 1022l119 459h221l-174 -459h-166z" />
<glyph unicode="&#x2ba;" horiz-adv-x="946" d="M227 1022l119 459h221l-174 -459h-166zM684 1022l119 459h221l-174 -459h-166z" />
<glyph unicode="&#x2bb;" horiz-adv-x="428" d="M508 1495l-84 -129h80l-47 -172h-215l47 172l106 129h113z" />
<glyph unicode="&#x2bc;" horiz-adv-x="479" d="M399 1198l-151 53l137 244h236z" />
<glyph unicode="&#x2be;" horiz-adv-x="274" d="M186 1157l27 96q28 0 53 34t25 81q0 28 -9 46t-24 18l27 96q54 0 82 -38t28 -106q0 -99 -60 -163t-149 -64z" />
<glyph unicode="&#x2bf;" horiz-adv-x="272" d="M334 1157q-54 0 -83.5 38t-29.5 103q0 100 60.5 165t150.5 65l-29 -96q-27 0 -50 -33.5t-23 -77.5q0 -68 30 -68z" />
<glyph unicode="&#x2c6;" horiz-adv-x="819" d="M262 1288l254 207h197l166 -207l-158 -65l-137 129l-193 -129z" />
<glyph unicode="&#x2c7;" horiz-adv-x="819" d="M293 1430l156 65l137 -129l192 129l129 -65l-254 -207h-196z" />
<glyph unicode="&#x2c8;" horiz-adv-x="434" d="M455 1587v-807h-234v807h234z" />
<glyph unicode="&#x2c9;" horiz-adv-x="806" d="M285 1296l39 170h559l-39 -170h-559z" />
<glyph unicode="&#x2cb;" horiz-adv-x="468" d="M260 1022l66 459h219l-119 -459h-166z" />
<glyph unicode="&#x2cc;" horiz-adv-x="434" d="M233 541v-807h-233v807h233z" />
<glyph unicode="&#x2d8;" horiz-adv-x="729" d="M684 1495h147q-26 -119 -116.5 -196.5t-202.5 -77.5q-99 0 -156 56.5t-57 149.5q0 37 8 68h148q-6 -21 -6 -41q0 -46 25 -78.5t63 -32.5q43 0 85 43t62 109z" />
<glyph unicode="&#x2d9;" horiz-adv-x="452" d="M250 1237l57 258h246l-55 -258h-248z" />
<glyph unicode="&#x2da;" horiz-adv-x="595" d="M504 1495q77 0 120.5 -33.5t43.5 -93.5q0 -86 -65 -137t-167 -51q-77 0 -121.5 33.5t-44.5 93.5q0 87 65.5 137.5t168.5 50.5zM389 1325q0 -27 17.5 -44t46.5 -17q37 0 66.5 25t29.5 61q0 28 -18.5 44.5t-47.5 16.5q-38 0 -66 -25t-28 -61z" />
<glyph unicode="&#x2db;" horiz-adv-x="491" d="M-61 -254q0 75 60.5 151.5t178.5 145.5h86l12 -43q-159 -122 -159 -193q0 -58 92 -61l-88 -156q-89 11 -135.5 54.5t-46.5 101.5z" />
<glyph unicode="&#x2dc;" horiz-adv-x="948" d="M514 1325q-25 0 -45.5 -9.5t-32.5 -23t-20.5 -28.5t-11.5 -24.5t-3 -12.5h-151q3 17 16.5 46.5t39.5 67.5t58.5 70.5t79 55t95.5 22.5q40 0 74 -15t54.5 -33t48.5 -33t58 -15q32 0 58 14t40 34.5t20.5 33.5t8.5 20h150q-3 -14 -16.5 -42.5t-40.5 -66.5t-60.5 -72 t-82 -57.5t-99.5 -23.5q-40 0 -75 14.5t-56.5 31.5t-50 31.5t-56.5 14.5z" />
<glyph unicode="&#x2dd;" horiz-adv-x="825" d="M391 1219l-137 32l143 244h211zM711 1219l-138 32l144 244h211z" />
<glyph unicode="&#x300;" d="M-256 1495h252l53 -244l-190 -37z" />
<glyph unicode="&#x301;" d="M-129 1217l-178 34l155 244h254z" />
<glyph unicode="&#x302;" d="M-557 1288l254 207h197l165 -207l-157 -65l-138 129l-192 -129z" />
<glyph unicode="&#x303;" d="M-434 1325q-25 0 -45.5 -9.5t-32.5 -23t-20.5 -28.5t-11.5 -24.5t-3 -12.5h-151q3 18 16.5 47t39.5 67t58 70.5t78.5 55t95.5 22.5q40 0 74.5 -15t54.5 -33t48.5 -33t58.5 -15q32 0 58 14t40 34.5t20.5 33.5t8.5 20h149q-3 -14 -16.5 -42.5t-40.5 -66.5t-60.5 -72 t-82 -57.5t-99.5 -23.5q-40 0 -75 14.5t-56 31.5t-49.5 31.5t-56.5 14.5z" />
<glyph unicode="&#x304;" d="M-530 1294l36 170h588l-37 -170h-587z" />
<glyph unicode="&#x306;" d="M-45 1495h147q-26 -119 -116.5 -196.5t-202.5 -77.5q-99 0 -156 56.5t-57 149.5q0 37 8 68h148q-7 -25 -7 -41q0 -46 25 -78.5t63 -32.5q43 0 85.5 43t62.5 109z" />
<glyph unicode="&#x307;" d="M-203 1237l58 258h245l-55 -258h-248z" />
<glyph unicode="&#x308;" d="M-567 1237l53 244h227l-53 -244h-227zM-182 1237l53 244h225l-51 -244h-227z" />
<glyph unicode="&#x309;" d="M-215 1407l-51 84q134 94 241 94q79 0 107 -42.5t4 -108.5q-23 -59 -72.5 -107.5t-140.5 -105.5l-41 75q47 30 72 53.5t35 49.5q9 25 -0.5 41t-36.5 16q-26 0 -50.5 -10.5t-66.5 -38.5z" />
<glyph unicode="&#x30a;" d="M-92 1495q77 0 120.5 -33.5t43.5 -93.5q0 -86 -65 -137t-167 -51q-77 0 -121.5 33.5t-44.5 93.5q0 87 65.5 137.5t168.5 50.5zM-207 1325q0 -27 17.5 -44t46.5 -17q37 0 66.5 25t29.5 61q0 28 -18.5 44.5t-47.5 16.5q-38 0 -66 -25t-28 -61z" />
<glyph unicode="&#x30b;" d="M-434 1219l-137 32l143 244h211zM-115 1219l-137 32l143 244h211z" />
<glyph unicode="&#x30c;" d="M-526 1430l155 65l138 -129l192 129l129 -65l-254 -207h-196z" />
<glyph unicode="&#x30f;" d="M-520 1495h211l39 -244l-150 -37zM-201 1495h209l41 -244l-149 -37z" />
<glyph unicode="&#x311;" d="M-162 1495q97 0 155 -60.5t58 -152.5q0 -21 -8 -61h-145q6 30 6 57q0 94 -88 94q-116 0 -150 -151h-145q25 119 115 196.5t202 77.5z" />
<glyph unicode="&#x312;" d="M80 1495l-84 -129h80l-47 -172h-215l47 172l106 129h113z" />
<glyph unicode="&#x31b;" d="M-420 989l41 189q141 0 191 47q8 8 14.5 16t12 18.5t9 17t8 20.5t6 19t6 22.5t5.5 21.5h199q-19 -85 -48.5 -149.5t-91.5 -118.5q-53 -47 -150.5 -75t-201.5 -28z" />
<glyph unicode="&#x323;" d="M-549 -401l55 258h246l-55 -258h-246z" />
<glyph unicode="&#x324;" d="M-942 -408l59 244h221l-59 -244h-221zM-588 -408l60 244h221l-60 -244h-221z" />
<glyph unicode="&#x326;" d="M-516 -436l88 147h-82l41 193h231l-41 -193l-112 -147h-125z" />
<glyph unicode="&#x327;" d="M-518 -412q-106 0 -201 62l101 145q46 -43 96 -43q49 0 80.5 31t31.5 84q0 70 -57 133l100 59q109 -105 109 -223q0 -106 -70 -177t-190 -71z" />
<glyph unicode="&#x328;" d="M-553 -254q0 75 61 151t179 146h86l12 -43q-81 -63 -120.5 -109t-39.5 -84q0 -58 92 -61l-88 -156q-89 11 -135.5 54.5t-46.5 101.5z" />
<glyph unicode="&#x32e;" d="M-512 -383q-107 0 -156.5 77t-21.5 197h141q-13 -61 6.5 -106t59.5 -45q38 0 77.5 42.5t61.5 108.5h139q-28 -120 -114.5 -197t-192.5 -77z" />
<glyph unicode="&#x331;" d="M-852 -334l41 170h559l-39 -170h-561z" />
<glyph unicode="&#x335;" d="M-655 516l39 164h544l-39 -164h-544z" />
<glyph unicode="&#x3c0;" horiz-adv-x="1460" d="M797 248v583h-267v-831h-270v831h-156v238h1162v-238h-197v-487q0 -60 29 -92.5t82 -32.5q48 0 108 29l39 -209q-54 -25 -127 -40t-137 -15q-125 0 -195.5 69.5t-70.5 194.5z" />
<glyph unicode="&#x400;" horiz-adv-x="1183" d="M573 1876h252l54 -244l-191 -37zM330 1454h942l-51 -248h-664l-74 -350h572l-49 -229h-572l-80 -379h680l-53 -248h-961z" />
<glyph unicode="&#x401;" horiz-adv-x="1183" d="M516 1618l53 244h228l-54 -244h-227zM901 1618l53 244h226l-52 -244h-227zM330 1454h942l-51 -248h-664l-74 -350h572l-49 -229h-572l-80 -379h680l-53 -248h-961z" />
<glyph unicode="&#x402;" horiz-adv-x="1644" d="M1090 936q228 0 345 -131t83 -350q-35 -227 -185 -350t-383 -123q-125 0 -223 34l88 226q83 -27 143 -27q115 0 194.5 62.5t98.5 187.5q20 118 -46.5 184t-186.5 66q-152 0 -311 -90l-134 -625h-282l256 1206h-391l51 248h1122l-53 -248h-447l-73 -348q162 78 334 78z " />
<glyph unicode="&#x403;" horiz-adv-x="1071" d="M911 1602l-178 34l156 244h254zM8 0l307 1454h893l-53 -248h-608l-256 -1206h-283z" />
<glyph unicode="&#x404;" horiz-adv-x="1466" d="M743 238q73 0 144.5 21.5t141.5 73t114 126.5l211 -133q-87 -155 -276 -246.5t-380 -91.5q-123 0 -229 42t-181.5 115.5t-125.5 168t-68 204t-2 219.5q19 134 87 263t173 232t254 166.5t314 63.5q199 0 336.5 -86t191.5 -231l-238 -150q-24 78 -80 128.5t-119.5 69.5 t-136.5 19q-112 0 -207 -50.5t-157 -127t-100 -174.5h520l-47 -233h-512q8 -167 108.5 -278t263.5 -111z" />
<glyph unicode="&#x405;" horiz-adv-x="1212" d="M-43 172l176 244q30 -50 156 -114t268 -64q119 0 181.5 47t62.5 129q0 30 -14 54t-38.5 42.5t-61.5 35t-78.5 30.5t-93.5 31q-5 1 -8 2t-7 2.5t-8 2.5q-162 52 -238 123.5t-76 190.5q0 123 51 225.5t137 169.5t197 104t232 37q135 0 250 -45t200 -116l-174 -230 q-19 39 -123.5 91.5t-214.5 52.5q-120 0 -183 -52.5t-63 -142.5q0 -28 12.5 -50t31.5 -38t57 -32t73 -27.5t95 -28.5q89 -27 149 -54.5t111 -67.5t75.5 -95.5t24.5 -128.5q0 -107 -34.5 -194.5t-93 -146t-138.5 -99t-168 -58.5t-184 -18q-154 0 -297 49.5t-244 138.5z" />
<glyph unicode="&#x406;" horiz-adv-x="583" d="M330 1452h280l-309 -1452h-281z" />
<glyph unicode="&#x407;" horiz-adv-x="583" d="M207 1618l53 244h227l-53 -244h-227zM592 1618l53 244h225l-51 -244h-227zM330 1452h280l-309 -1452h-281z" />
<glyph unicode="&#x408;" horiz-adv-x="980" d="M-88 68l111 229q25 -25 86.5 -47.5t136.5 -22.5q63 0 110 20.5t80.5 55.5t61 100t46.5 134t42 178l157 737h283l-158 -737q-22 -104 -43 -181t-51.5 -158t-65.5 -138t-85 -109t-111 -83.5t-141.5 -50t-177.5 -18.5q-173 0 -281 91z" />
<glyph unicode="&#x409;" horiz-adv-x="2148" d="M-31 -8l49 244q98 0 167 65t135.5 234t142.5 483l106 436h957l-109 -520h197q238 0 351.5 -124.5t80.5 -338.5q-30 -213 -179.5 -342t-379.5 -129h-551l256 1206h-412l-65 -268q-47 -192 -91 -331.5t-95.5 -247.5t-105.5 -176.5t-124 -112t-148.5 -61t-181.5 -17.5z M1268 236h213q117 0 189.5 65.5t88.5 169.5q15 99 -33 164t-170 65h-190z" />
<glyph unicode="&#x40a;" horiz-adv-x="2093" d="M20 0l310 1454h280l-123 -577h576l123 577h282l-112 -536h198q238 0 352 -123.5t83 -333.5q-31 -207 -181.5 -334t-380.5 -127h-548l133 631h-576l-135 -631h-281zM1208 236h215q117 0 190 63t87 162q17 95 -31.5 158t-171.5 63h-194z" />
<glyph unicode="&#x40b;" horiz-adv-x="1566" d="M1026 928q233 0 340 -124.5t68 -379.5l-88 -424h-279l94 444q26 135 -29.5 204t-187.5 69q-157 0 -311 -86l-133 -631h-283l258 1212h-319l51 242h1104l-49 -242h-506l-76 -356q169 72 346 72z" />
<glyph unicode="&#x40c;" horiz-adv-x="1372" d="M961 1602l-179 34l156 244h254zM20 0l308 1454h280l-125 -588h127l551 588h338l-682 -686l393 -768h-315l-295 614h-170l-129 -614h-281z" />
<glyph unicode="&#x40d;" horiz-adv-x="1501" d="M719 1876h252l53 -244l-190 -37zM20 0l308 1454h280l-223 -1061l879 1061h262l-307 -1454h-281l221 1028l-868 -1028h-271z" />
<glyph unicode="&#x40e;" horiz-adv-x="1337" d="M844 1587q-173 0 -264 79t-72 210h215q-7 -54 31.5 -87.5t107.5 -33.5q77 0 128.5 33t60.5 88h213q-20 -131 -134 -210t-286 -79zM207 -6l51 233h121q115 0 182 111l12 18l-409 1098h297l260 -825l436 825h285l-680 -1200q-84 -143 -179 -201.5t-247 -58.5h-129z" />
<glyph unicode="&#x40f;" horiz-adv-x="1454" d="M418 -279l59 279h-457l310 1454h280l-256 -1206h590l256 1206h281l-307 -1454h-457l-60 -279h-239z" />
<glyph unicode="&#x410;" horiz-adv-x="1320" d="M721 1454h252l211 -1454h-291l-45 362h-469l-197 -362h-291zM842 561l-64 572l-311 -572h375z" />
<glyph unicode="&#x411;" horiz-adv-x="1382" d="M20 0l310 1454h1046l-49 -244h-768l-74 -350h389q240 0 347.5 -113t76.5 -309q-30 -201 -169.5 -319.5t-368.5 -118.5h-740zM352 240h402q114 0 178.5 60.5t79.5 148.5q9 37 2 71.5t-26 61.5t-63.5 43t-109.5 16h-379z" />
<glyph unicode="&#x412;" horiz-adv-x="1343" d="M330 1454h745q115 0 180.5 -87.5t65.5 -209.5q0 -128 -77 -243.5t-204 -168.5q91 -31 141 -106t50 -182t-45 -195t-121 -144.5t-173 -87t-204 -30.5h-668zM827 846q78 0 139.5 64.5t61.5 162.5q0 63 -31 101t-82 38h-356l-78 -366h346zM739 240q81 0 147 69t66 162 q0 65 -32 108.5t-86 43.5h-402l-80 -383h387z" />
<glyph unicode="&#x413;" horiz-adv-x="1071" d="M8 0l307 1454h893l-53 -248h-608l-256 -1206h-283z" />
<glyph unicode="&#x414;" horiz-adv-x="1644" d="M-80 -279l111 527h88q109 4 193.5 192t176.5 619l82 395h988l-256 -1206h190l-111 -527h-245l57 279h-969l-57 -279h-248zM457 248h563l205 958h-441l-45 -217q-68 -327 -131.5 -498.5t-150.5 -242.5z" />
<glyph unicode="&#x415;" horiz-adv-x="1183" d="M330 1454h942l-51 -248h-664l-74 -350h572l-49 -229h-572l-80 -379h680l-53 -248h-961z" />
<glyph unicode="&#x416;" horiz-adv-x="2172" d="M-92 0l676 754l-385 700h293l315 -588h158l125 588h280l-125 -588h131l547 588h318l-656 -696l430 -758h-307l-342 614h-174l-129 -614h-281l129 614h-123l-559 -614h-321z" />
<glyph unicode="&#x417;" horiz-adv-x="1263" d="M526 -14q-178 0 -309 71t-194 201l233 131q36 -84 114.5 -128t188.5 -44q128 0 200.5 54t86.5 151t-41.5 154t-177.5 57h-125l45 215h112q97 0 158.5 50t73.5 132q26 191 -189 191q-104 0 -188.5 -42.5t-134.5 -117.5l-184 143q214 262 544 262q227 0 342.5 -105 t89.5 -294q-16 -102 -79.5 -186.5t-169.5 -128.5q116 -36 169.5 -132.5t34.5 -226.5q-29 -192 -193 -299.5t-407 -107.5z" />
<glyph unicode="&#x418;" horiz-adv-x="1501" d="M20 0l308 1454h280l-223 -1061l879 1061h262l-307 -1454h-281l221 1028l-868 -1028h-271z" />
<glyph unicode="&#x419;" horiz-adv-x="1501" d="M938 1587q-173 0 -264 79t-72 210h215q-7 -54 31.5 -87.5t107.5 -33.5q77 0 128.5 33t60.5 88h213q-20 -131 -134 -210t-286 -79zM20 0l308 1454h280l-223 -1061l879 1061h262l-307 -1454h-281l221 1028l-868 -1028h-271z" />
<glyph unicode="&#x41a;" horiz-adv-x="1372" d="M20 0l308 1454h280l-125 -588h127l551 588h338l-682 -686l393 -768h-315l-295 614h-170l-129 -614h-281z" />
<glyph unicode="&#x41b;" horiz-adv-x="1519" d="M-31 -8l49 244q98 0 166.5 65.5t135 233.5t143.5 483l106 436h977l-307 -1454h-283l256 1206h-432l-65 -268q-48 -193 -92 -332t-95.5 -247t-105.5 -176.5t-124 -112t-148 -61t-181 -17.5z" />
<glyph unicode="&#x41c;" horiz-adv-x="1699" d="M330 1454h303l219 -827l573 827h301l-309 -1454h-280l204 963l-493 -717h-154l-188 717l-205 -963h-281z" />
<glyph unicode="&#x41d;" horiz-adv-x="1470" d="M330 1454h280l-125 -588h607l125 588h280l-309 -1454h-281l131 621h-606l-131 -621h-281z" />
<glyph unicode="&#x41e;" horiz-adv-x="1568" d="M700 -10q-124 0 -231 40.5t-182.5 111.5t-126 164t-68 201.5t-2.5 219.5q20 144 94 278.5t182.5 235.5t252.5 162t296 61q156 0 283 -63t203.5 -167t110 -237t14.5 -274q-20 -145 -93.5 -279t-182 -234t-253 -160t-297.5 -60zM741 240q81 0 155.5 27.5t131.5 75 t102 109.5t72.5 132t38.5 143q19 131 -16.5 240.5t-126 177t-221.5 67.5q-102 0 -191.5 -42t-152.5 -111t-104 -155t-54 -177q-18 -128 17 -237.5t126 -179.5t223 -70z" />
<glyph unicode="&#x41f;" horiz-adv-x="1478" d="M20 0l308 1454h1177l-307 -1454h-280l256 1206h-617l-256 -1206h-281z" />
<glyph unicode="&#x420;" horiz-adv-x="1230" d="M330 1454h585q106 0 188 -58t122.5 -148.5t40.5 -194.5q0 -101 -44 -203t-116.5 -182t-174.5 -130.5t-210 -50.5h-318l-102 -487h-281zM754 735q88 0 155.5 86t67.5 209q0 81 -38 128.5t-95 47.5h-287l-100 -471h297z" />
<glyph unicode="&#x421;" horiz-adv-x="1454" d="M698 -12q-123 0 -229 42t-181.5 115.5t-125.5 168t-68 204t-2 219.5q19 134 87 263t173 232t254 166.5t314 63.5q199 0 336.5 -86t191.5 -231l-238 -150q-24 78 -80 128.5t-119.5 69.5t-136.5 19q-103 0 -193 -42.5t-151.5 -112.5t-100.5 -154.5t-52 -173.5 q-19 -129 19.5 -241t130 -181t216.5 -69q73 0 144.5 21.5t141.5 73t114 126.5l211 -133q-87 -155 -276 -246.5t-380 -91.5z" />
<glyph unicode="&#x422;" horiz-adv-x="1212" d="M592 1206h-436l51 248h1153l-53 -248h-435l-256 -1206h-282z" />
<glyph unicode="&#x423;" horiz-adv-x="1337" d="M207 -6l51 233h121q115 0 182 111l12 18l-409 1098h297l260 -825l436 825h285l-680 -1200q-84 -143 -179 -201.5t-247 -58.5h-129z" />
<glyph unicode="&#x424;" horiz-adv-x="1703" d="M1149 1384q122 -10 225 -56.5t177 -122.5t107 -188t13 -245q-21 -133 -94.5 -247.5t-180 -192.5t-238 -123.5t-269.5 -50.5l-33 -158h-266l35 160q-125 10 -230 57.5t-178.5 125t-106 189t-12.5 240.5q24 142 99 258.5t182 192.5t237 118.5t269 44.5l26 140h267zM362 772 q-30 -180 63 -285t251 -118l172 809q-187 -6 -321.5 -113.5t-164.5 -292.5zM1405 772q29 178 -61 284t-248 120l-170 -807q116 6 216 53.5t172 138.5t91 211z" />
<glyph unicode="&#x425;" horiz-adv-x="1267" d="M506 717l-332 737h307l217 -541l447 541h305l-645 -737l319 -717h-305l-205 520l-426 -520h-307z" />
<glyph unicode="&#x426;" horiz-adv-x="1552" d="M1044 -276l60 276h-1084l310 1454h280l-256 -1206h576l256 1206h282l-258 -1206h193l-111 -524h-248z" />
<glyph unicode="&#x427;" horiz-adv-x="1402" d="M1149 1454h281l-308 -1454h-282l118 559q-150 -59 -331 -59q-261 0 -371.5 125t-54.5 368l108 461h277l-113 -475q-29 -132 29.5 -191t216.5 -59q156 0 291 64z" />
<glyph unicode="&#x428;" horiz-adv-x="2015" d="M20 0l308 1454h280l-254 -1206h434l256 1206h281l-254 -1206h432l256 1206h283l-307 -1454h-1715z" />
<glyph unicode="&#x429;" horiz-adv-x="2125" d="M1616 -279l59 279h-1655l308 1454h280l-254 -1206h434l256 1206h281l-256 -1206h434l256 1206h283l-258 -1206h192l-112 -527h-248z" />
<glyph unicode="&#x42a;" horiz-adv-x="1468" d="M238 0l258 1221h-338l49 233h618l-110 -520h231q238 0 351.5 -124.5t80.5 -338.5q-31 -213 -180 -342t-377 -129h-583zM569 236h246q118 0 189.5 65t87.5 170q15 99 -33 164t-170 65h-223z" />
<glyph unicode="&#x42b;" horiz-adv-x="1810" d="M20 0l308 1454h280l-108 -520h209q238 0 351.5 -124.5t82.5 -338.5q-31 -213 -181 -342t-378 -129h-564zM1559 1452h280l-309 -1452h-281zM352 236h226q119 0 189.5 65t86.5 170q17 99 -31.5 164t-171.5 65h-202z" />
<glyph unicode="&#x42c;" horiz-adv-x="1306" d="M20 0l308 1454h280l-108 -520h270q238 0 351.5 -124.5t82.5 -338.5q-33 -213 -182 -342t-377 -129h-625zM352 236h287q119 0 189.5 65t86.5 170q17 99 -31 164t-171 65h-264z" />
<glyph unicode="&#x42d;" horiz-adv-x="1447" d="M813 1462q96 0 179.5 -21t147.5 -59t116 -90.5t84 -116.5t52.5 -137t21.5 -151.5t-9 -159.5q-21 -147 -91 -280.5t-175 -235.5t-249 -162.5t-304 -60.5q-208 0 -346 89t-205 249l254 133q37 -105 124 -163t208 -58q174 0 298.5 109.5t178.5 283.5h-559l47 225h540 q-5 165 -95.5 260.5t-258.5 95.5q-120 0 -221 -57t-168 -164l-203 154q247 317 633 317z" />
<glyph unicode="&#x42e;" horiz-adv-x="2138" d="M1485 1464q126 0 233 -41t182.5 -112t125.5 -164.5t67 -202.5t2 -221q-20 -145 -93 -279t-182 -234t-253 -160t-297 -60q-139 0 -255.5 50.5t-194 136.5t-121.5 197.5t-46 235.5h-223l-129 -610h-281l308 1454h280l-127 -598h209q52 167 168.5 304.5t281.5 220.5t345 83z M1810 727q19 131 -16.5 240.5t-126 177t-221.5 67.5q-102 0 -191.5 -42t-152.5 -111t-104 -155t-54 -177q-13 -95 4.5 -182.5t62.5 -155.5t122.5 -108.5t177.5 -40.5q101 0 190 42t151.5 111.5t103.5 155.5t54 178z" />
<glyph unicode="&#x42f;" horiz-adv-x="1368" d="M-33 0l496 635q-136 47 -198 161.5t-34 264.5q35 178 179.5 285.5t349.5 107.5h635l-308 -1454h-280l115 549h-170h-45l-416 -549h-324zM702 791h273l88 421h-287q-104 0 -178 -51.5t-92 -154.5q-16 -97 34.5 -156t161.5 -59z" />
<glyph unicode="&#x430;" horiz-adv-x="1277" d="M31 420q0 130 48.5 254t128 215.5t188 147t222.5 55.5q108 0 186.5 -57t108.5 -150l41 184h275l-160 -754q-6 -21 -6 -36q0 -43 49 -46l-49 -233q-86 -14 -113 -14q-73 0 -114 31.5t-41 91.5q0 25 12 77q-75 -99 -180.5 -152.5t-214.5 -53.5q-174 0 -277.5 124.5 t-103.5 315.5zM811 393l53 256q-12 89 -72 149t-137 60q-86 0 -164.5 -57.5t-125 -149t-46.5 -188.5q0 -108 59 -179t157 -71q72 0 152 51.5t124 128.5z" />
<glyph unicode="&#x431;" horiz-adv-x="1286" d="M592 -20q-275 0 -395 167.5t-66 470.5q35 204 93.5 351t143.5 244.5t192 152.5t247 78q32 7 81 15t80.5 13.5t65.5 15.5t57 27.5t35 43.5l185 -76q-12 -48 -28.5 -83t-46 -61.5t-59.5 -43.5t-85 -32t-104 -24t-134 -22q-133 -20 -219 -70t-138 -131t-94 -215 q67 90 172.5 140t235.5 50q206 0 315 -134.5t78 -348.5q-33 -238 -195 -383t-417 -145zM612 199q122 0 206 78.5t104 209.5q19 126 -40.5 205.5t-179.5 79.5q-115 0 -202 -79.5t-107 -205.5q-21 -125 39 -206.5t180 -81.5z" />
<glyph unicode="&#x432;" horiz-adv-x="1198" d="M918 547q157 -73 157 -219q0 -161 -146.5 -254.5t-375.5 -91.5q-251 0 -368.5 126.5t-98.5 362.5q23 300 197 461.5t458 161.5q172 0 265.5 -72t93.5 -199q0 -172 -182 -276zM719 897q-120 0 -210.5 -76.5t-129.5 -214.5q74 -6 137 -6q177 1 261.5 54t84.5 134 q0 49 -35 79t-108 30zM588 172q103 -2 166 42t63 126q0 93 -90 139q-107 -22 -223 -22q-74 0 -150 6q-13 -148 39.5 -219.5t194.5 -71.5z" />
<glyph unicode="&#x433;" horiz-adv-x="1089" d="M485 -20q-210 0 -309 82t-94 225q4 124 103.5 199t332.5 141q111 36 152.5 71t46.5 93q3 53 -35 80.5t-107 27.5q-71 0 -140 -33t-109 -90l-191 113q76 98 201.5 151.5t288.5 53.5q184 0 276.5 -78t89.5 -213q-6 -121 -90 -193t-274 -129q-103 -33 -158.5 -61.5 t-77 -56.5t-24.5 -68q-4 -54 41.5 -82.5t134.5 -28.5q73 0 142 33t120 92l168 -141q-180 -188 -488 -188z" />
<glyph unicode="&#x434;" horiz-adv-x="1269" d="M549 -20q-130 0 -231 44.5t-158.5 120.5t-80.5 174.5t-7 208.5q20 143 94.5 260t198 188t272.5 71q132 0 226 -58.5t132 -154.5q13 157 -24 254t-127 143q-140 77 -451 41v213q363 46 588 -82q246 -142 246 -469q0 -324 -121 -578q-82 -172 -222.5 -274t-334.5 -102z M573 197q117 0 207 89.5t109 227.5q20 138 -45 229t-182 91q-118 0 -208 -89.5t-110 -232.5q-19 -137 47 -226t182 -89z" />
<glyph unicode="&#x435;" horiz-adv-x="1177" d="M578 186q52 0 98 15t76 37.5t47 41.5t26 35l228 -71q-18 -29 -43 -59t-71 -68.5t-100 -67.5t-133.5 -49t-166.5 -20q-148 0 -257 67.5t-162 183t-46 261.5q4 123 55 233.5t135 191t201 128t248 47.5q173 0 284 -78.5t115 -220.5q6 -172 -143.5 -261.5t-456.5 -89.5 q-48 0 -162 4q-2 -123 56.5 -191.5t171.5 -68.5zM674 887q-97 0 -177.5 -72t-117.5 -190q41 -2 123 -2q187 0 264 36.5t72 110.5q-3 54 -48.5 85.5t-115.5 31.5z" />
<glyph unicode="&#x436;" horiz-adv-x="1667" d="M-82 0q96 187 217 330.5t254 224.5l-262 518h272l199 -428h111l90 428h272l-90 -428h109q175 118 337 428h281q-180 -338 -420 -526l266 -547h-292l-207 449h-115l-94 -449h-275l95 449h-66q-213 -106 -393 -449h-289z" />
<glyph unicode="&#x437;" horiz-adv-x="1030" d="M414 -16q-335 0 -432 231l233 100q54 -112 215 -112q95 0 153.5 37t69.5 100q9 57 -29 92t-120 35h-131l37 170h120q57 0 96.5 30.5t47.5 80.5q9 57 -28.5 90.5t-119.5 33.5q-134 0 -211 -106l-192 111q74 103 189.5 159t258.5 56q177 0 276.5 -83t78.5 -231 q-9 -72 -54 -130.5t-122 -86.5q92 -29 131.5 -97t25.5 -165q-24 -150 -159.5 -232.5t-333.5 -82.5z" />
<glyph unicode="&#x438;" horiz-adv-x="1218" d="M45 242q0 56 21 159l143 672h272l-129 -612q-14 -57 -14 -103q0 -145 123 -145q75 0 153 50t142 145l141 665h274l-161 -758q-4 -28 -4 -36q0 -23 11.5 -33.5t37.5 -12.5l-49 -233q-86 -14 -115 -14q-72 0 -112 29.5t-40 86.5q0 33 15 99q-91 -109 -208.5 -165 t-248.5 -56q-124 0 -188 66.5t-64 195.5z" />
<glyph unicode="&#x439;" horiz-adv-x="1218" d="M715 1200q-147 0 -231 73t-81 189h146q-2 -62 40 -101.5t128 -39.5q152 0 176 141h145q-2 -116 -89.5 -189t-233.5 -73zM45 242q0 56 21 159l143 672h272l-129 -612q-14 -57 -14 -103q0 -145 123 -145q75 0 153 50t142 145l141 665h274l-161 -758q-4 -28 -4 -36 q0 -23 11.5 -33.5t37.5 -12.5l-49 -233q-86 -14 -115 -14q-72 0 -112 29.5t-40 86.5q0 33 15 99q-91 -109 -208.5 -165t-248.5 -56q-124 0 -188 66.5t-64 195.5z" />
<glyph unicode="&#x43a;" horiz-adv-x="1105" d="M8 0l228 1073h274l-90 -422h106q186 125 338 422h281q-173 -333 -420 -526l266 -547h-295l-207 442h-114l-94 -442h-273z" />
<glyph unicode="&#x43b;" horiz-adv-x="1175" d="M-39 0q172 542 641 1073h283l143 -1073h-287l-65 836q-157 -211 -258.5 -404t-190.5 -432h-266z" />
<glyph unicode="&#x43c;" horiz-adv-x="1480" d="M8 0l228 1073h290l191 -606l450 606h303l-227 -1073h-260l147 698l-374 -508h-172l-164 510l-150 -700h-262z" />
<glyph unicode="&#x43d;" horiz-adv-x="1228" d="M8 0l228 1073h274l-90 -420h438l88 420h275l-228 -1073h-274l94 444h-436l-94 -444h-275z" />
<glyph unicode="&#x43e;" horiz-adv-x="1273" d="M557 -20q-128 0 -228.5 45t-160 121.5t-84.5 177t-10 211.5q15 112 68.5 213t135 177.5t195 121.5t240.5 45q128 0 228.5 -45t161 -121.5t85.5 -177.5t10 -213q-15 -111 -68 -211t-134.5 -177t-195.5 -122t-243 -45zM590 199q118 0 214.5 97.5t115.5 240.5 q20 145 -49 240t-189 95t-216 -95.5t-114 -241.5q-20 -144 49.5 -240t188.5 -96z" />
<glyph unicode="&#x43f;" horiz-adv-x="1198" d="M8 0l228 1073h954l-229 -1073h-275l184 862h-403l-184 -862h-275z" />
<glyph unicode="&#x440;" horiz-adv-x="1253" d="M219 1073h240l-39 -184q78 96 179 149.5t214 53.5q169 0 271 -126t102 -315q0 -173 -80.5 -328.5t-215 -249t-284.5 -93.5q-115 0 -193 55.5t-108 152.5l-133 -624h-274zM899 606q0 109 -58.5 180.5t-154.5 71.5q-73 0 -152.5 -51.5t-123.5 -128.5l-56 -252 q15 -92 74 -152.5t137 -60.5q86 0 164 57.5t124 148.5t46 187z" />
<glyph unicode="&#x441;" horiz-adv-x="1110" d="M31 432q0 126 50 245.5t136.5 211.5t213 147.5t269.5 55.5q165 0 270 -74t138 -201l-283 -82q-45 123 -174 123q-132 0 -234 -114.5t-102 -278.5q0 -113 55 -182.5t144 -69.5q65 0 129 36t100 91l250 -82q-82 -125 -221.5 -201.5t-302.5 -76.5q-208 0 -323 128.5 t-115 323.5z" />
<glyph unicode="&#x442;" horiz-adv-x="1826" d="M219 1073h248l-43 -199q76 101 188.5 159.5t229.5 58.5q235 0 245 -228q85 110 194 169t226 59q240 0 240 -250q0 -75 -21 -172l-143 -670h-274l127 602q14 57 14 109q0 69 -29.5 104t-81.5 35q-75 0 -153.5 -63t-128.5 -162l-131 -625h-275l127 602q13 70 13 111 q0 137 -111 137q-73 0 -152 -63t-129 -160l-133 -627h-274z" />
<glyph unicode="&#x443;" horiz-adv-x="1064" d="M-90 -258q124 11 183.5 40.5t121.5 115.5l59 79l-178 1096h281l92 -835l70 114q126 209 195 371.5t112 349.5h266q-56 -199 -138.5 -368t-283.5 -494l-164 -264q-142 -229 -272 -321t-311 -95z" />
<glyph unicode="&#x444;" horiz-adv-x="1525" d="M408 -436l92 436h-45q-90 4 -165.5 34.5t-126 81t-84.5 117.5t-41.5 143t3.5 159q17 109 67.5 205.5t128 170.5t186.5 117t234 43h70l90 424h268l-88 -424l35 -2q114 -7 202 -52t140 -117t72 -166t4 -199q-17 -108 -68.5 -204t-129 -170t-186.5 -117.5t-232 -43.5h-66 l-92 -436h-268zM522 207h37l139 661h-69q-117 0 -206.5 -93.5t-109.5 -239.5q-22 -145 36.5 -236.5t172.5 -91.5zM799 207h63q117 0 205.5 91.5t110.5 236.5q23 146 -36 239.5t-173 93.5h-29z" />
<glyph unicode="&#x445;" horiz-adv-x="1046" d="M358 535l-245 538h280l137 -336l11 -37l24 37l285 336h280l-475 -538l252 -535h-282l-144 334l-10 35l-25 -35l-286 -334h-283z" />
<glyph unicode="&#x446;" horiz-adv-x="1280" d="M803 -260l57 260q-65 8 -94 62t-10 139q-187 -221 -445 -221q-131 0 -197.5 71.5t-66.5 200.5q0 65 19 149l143 672h272l-135 -635q-12 -50 -12 -92q0 -133 127 -133q75 0 153 50t144 145l141 665h275l-154 -721q-15 -74 -0.5 -98.5t74.5 -24.5h59l-102 -489h-248z" />
<glyph unicode="&#x447;" horiz-adv-x="1128" d="M610 0l86 385q-121 -51 -274 -51q-173 0 -254.5 92.5t-44.5 265.5l82 381h274l-73 -344q-41 -190 143 -190q102 0 190 43l105 491h274l-227 -1073h-281z" />
<glyph unicode="&#x448;" horiz-adv-x="1826" d="M1608 0h-248l43 199q-76 -101 -188.5 -159t-229.5 -58q-236 0 -246 227q-84 -110 -193 -168.5t-227 -58.5q-239 0 -239 249q0 79 20 172l144 670h274l-127 -602q-14 -57 -14 -109q0 -69 29 -104t81 -35q75 0 154 63.5t129 162.5l131 624h275l-127 -602q-13 -70 -13 -111 q0 -137 111 -137q73 0 151.5 63t128.5 160l134 627h274z" />
<glyph unicode="&#x449;" horiz-adv-x="1908" d="M1432 -260l55 260q-74 10 -101 59.5t-12 143.5q-75 -104 -184.5 -162.5t-226.5 -58.5q-123 0 -186.5 58.5t-71.5 160.5q-82 -106 -187.5 -162.5t-220.5 -56.5q-252 0 -252 262q0 55 21 157l143 672h274l-127 -602q-14 -57 -14 -111q0 -137 111 -137q76 0 153 60.5 t129 162.5l133 627h275l-129 -602q-13 -63 -13 -109q0 -139 111 -139q74 0 152 61.5t129 161.5l133 627h274l-151 -719q-15 -75 -1 -100t72 -25h62l-103 -489h-247z" />
<glyph unicode="&#x44a;" horiz-adv-x="1265" d="M674 -18q-212 0 -324 89t-112 255q0 240 206 536h-333l45 211h620q-107 -232 -139 -309q94 4 135 4q213 0 313 -106.5t72 -294.5q-19 -128 -90 -216.5t-171 -128.5t-222 -40zM694 207q83 0 138.5 47t66.5 127q24 197 -192 197q-60 0 -146 -7q-39 -75 -53 -161 q-13 -99 39 -151t147 -52z" />
<glyph unicode="&#x44b;" horiz-adv-x="1560" d="M580 764q203 0 312.5 -101.5t84.5 -295.5q-15 -103 -60 -179t-112 -120t-147 -65t-173 -21q-108 0 -192 26.5t-141.5 79t-79 138.5t-0.5 198q10 51 22.5 109.5t23 102.5t27.5 114.5t25.5 103.5t29.5 114t27 105h275l-80 -309h158zM1278 1073h274l-227 -1073h-274z M719 381q12 87 -35 134.5t-154 47.5h-155l-31 -155q-18 -97 33.5 -150t142.5 -53q82 0 135.5 47t63.5 129z" />
<glyph unicode="&#x44c;" horiz-adv-x="1128" d="M602 764q139 0 238 -42.5t148.5 -133.5t31.5 -221q-16 -103 -63 -179t-119 -120t-157 -65t-185 -21q-229 0 -347.5 111t-76.5 331q10 51 22.5 109.5t23 102.5t27.5 114.5t25.5 103.5t29.5 114t27 105h275l-80 -309h180zM762 381q12 87 -39 134.5t-170 47.5h-178l-31 -155 q-19 -97 35 -150t153 -53q94 0 156 47t74 129z" />
<glyph unicode="&#x44d;" horiz-adv-x="1202" d="M645 1092q133 0 235 -46t159.5 -124t80 -176.5t6.5 -206.5q-16 -111 -65.5 -209.5t-127 -177t-191 -124.5t-248.5 -46q-172 0 -293.5 69.5t-171.5 194.5l235 102q62 -149 252 -149q110 0 203.5 73t134.5 189h-405l34 168h394q-9 114 -81 178.5t-188 64.5 q-173 0 -278 -139l-191 109q83 118 214 184t292 66z" />
<glyph unicode="&#x44e;" horiz-adv-x="1769" d="M1208 1092q128 0 229 -45t161.5 -121.5t85.5 -177.5t10 -213q-15 -111 -68 -211t-134.5 -177t-195.5 -122t-243 -45q-128 0 -228.5 45t-160.5 121.5t-85 177t-10 211.5q15 112 68.5 213t135 177.5t195 121.5t240.5 45zM1415 537q20 145 -48.5 240t-188.5 95t-216 -95.5 t-114 -241.5q-20 -145 49 -240.5t188 -95.5q118 0 214.5 97.5t115.5 240.5zM590 748l-184 -166l63 -263l-135 -153l6 348l-160 -174l162 315l2 99l21 -56l65 127z" />
<glyph unicode="&#x44f;" horiz-adv-x="1181" d="M-10 0l354 436q-90 40 -135 116.5t-35 186.5q13 165 152 255.5t358 90.5q256 0 449 -92l-211 -993h-267l78 371h-145l-287 -371h-311zM588 567h188l60 283q-75 27 -177 27t-165.5 -43.5t-69.5 -120.5q-5 -65 36.5 -105.5t127.5 -40.5z" />
<glyph unicode="&#x450;" horiz-adv-x="1177" d="M811 1251l-190 -37l-115 281h252zM578 186q52 0 98 15t76 37.5t47 41.5t26 35l228 -71q-18 -29 -43 -59t-71 -68.5t-100 -67.5t-133.5 -49t-166.5 -20q-148 0 -257 67.5t-162 183t-46 261.5q4 123 55 233.5t135 191t201 128t248 47.5q173 0 284 -78.5t115 -220.5 q6 -172 -143.5 -261.5t-456.5 -89.5q-48 0 -162 4q-2 -123 56.5 -191.5t171.5 -68.5zM674 887q-97 0 -177.5 -72t-117.5 -190q41 -2 123 -2q187 0 264 36.5t72 110.5q-3 54 -48.5 85.5t-115.5 31.5z" />
<glyph unicode="&#x451;" horiz-adv-x="1177" d="M729 1481l-53 -244h-227l53 244h227zM1112 1481l-51 -244h-227l53 244h225zM578 186q52 0 98 15t76 37.5t47 41.5t26 35l228 -71q-18 -29 -43 -59t-71 -68.5t-100 -67.5t-133.5 -49t-166.5 -20q-148 0 -257 67.5t-162 183t-46 261.5q4 123 55 233.5t135 191t201 128 t248 47.5q173 0 284 -78.5t115 -220.5q6 -172 -143.5 -261.5t-456.5 -89.5q-48 0 -162 4q-2 -123 56.5 -191.5t171.5 -68.5zM674 887q-97 0 -177.5 -72t-117.5 -190q41 -2 123 -2q187 0 264 36.5t72 110.5q-3 54 -48.5 85.5t-115.5 31.5z" />
<glyph unicode="&#x452;" horiz-adv-x="1284" d="M827 963q210 0 285 -171.5t12 -492.5q-26 -124 -59 -224t-81.5 -188t-108.5 -147t-141.5 -93t-178.5 -34q-60 -3 -113 10t-86 33.5t-57.5 41t-34.5 35.5l-10 15l207 139q1 -2 3.5 -5.5t11.5 -13t20.5 -16.5t31.5 -12.5t43 -5.5q91 0 162.5 112t114.5 345q42 246 8 338 t-158 92q-85 0 -158.5 -52.5t-123.5 -144.5l-117 -524h-274l249 1120h-165l34 164h166l47 211h275l-47 -211h438l-35 -164h-438l-72 -323q156 166 350 166z" />
<glyph unicode="&#x453;" horiz-adv-x="1089" d="M754 1221l-179 34l156 244h254zM485 -20q-210 0 -309 82t-94 225q4 124 103.5 199t332.5 141q111 36 152.5 71t46.5 93q3 53 -35 80.5t-107 27.5q-71 0 -140 -33t-109 -90l-191 113q76 98 201.5 151.5t288.5 53.5q184 0 276.5 -78t89.5 -213q-6 -121 -90 -193t-274 -129 q-103 -33 -158.5 -61.5t-77 -56.5t-24.5 -68q-4 -54 41.5 -82.5t134.5 -28.5q73 0 142 33t120 92l168 -141q-180 -188 -488 -188z" />
<glyph unicode="&#x454;" horiz-adv-x="1202" d="M563 213q69 0 133.5 32.5t108.5 94.5l254 -82q-80 -128 -220.5 -202t-308.5 -74q-127 0 -227 46.5t-157.5 124t-81 177.5t-7.5 209q16 108 68.5 207t133.5 176.5t196 123.5t245 46q171 0 281.5 -74t155.5 -201l-279 -82q-53 123 -192 123q-103 0 -188 -61t-128 -168h387 l-39 -168h-379q5 -111 72 -179.5t172 -68.5z" />
<glyph unicode="&#x455;" horiz-adv-x="983" d="M-51 145l137 172q154 -139 326 -139q85 0 134.5 36t49.5 97q0 49 -38.5 72.5t-147.5 56.5q-174 55 -242 106t-68 148q0 112 64.5 204t175.5 144t244 52q236 0 372 -148l-145 -166q-66 62 -127 89.5t-131 27.5q-82 0 -134 -35.5t-52 -99.5q0 -45 34.5 -67t135.5 -52 q91 -26 149 -50.5t102.5 -57t64 -73.5t19.5 -97q0 -168 -136 -276.5t-355 -108.5q-134 0 -249 43t-183 122z" />
<glyph unicode="&#x456;" horiz-adv-x="518" d="M309 1495h275l-58 -272h-274zM219 1073h275l-228 -1073h-274z" />
<glyph unicode="&#x457;" horiz-adv-x="518" d="M84 1237l53 244h228l-54 -244h-227zM469 1237l53 244h226l-52 -244h-227zM219 1073h275l-228 -1073h-274z" />
<glyph unicode="&#x458;" horiz-adv-x="528" d="M319 1495h275l-59 -272h-275zM-412 -305l156 186q33 -45 102 -45q51 0 93.5 38t54.5 97l235 1102h275l-230 -1081q-24 -113 -91 -203.5t-159.5 -140t-193.5 -49.5q-159 0 -242 96z" />
<glyph unicode="&#x459;" horiz-adv-x="1667" d="M1124 715q220 0 329.5 -90t94.5 -281q-13 -176 -137.5 -269t-306.5 -93q-108 0 -181 18.5t-128 65t-83.5 126t-37.5 199.5l-33 457q-142 -214 -232 -407t-173 -441h-275q150 524 594 1073h299l41 -366q101 8 229 8zM1294 369q2 68 -41.5 101.5t-136.5 33.5q-62 0 -198 -8 l8 -68q18 -133 59.5 -177t134.5 -44q83 0 127 43t47 119z" />
<glyph unicode="&#x45a;" horiz-adv-x="1761" d="M1268 690q94 0 166.5 -18.5t126.5 -58t77.5 -108.5t10.5 -163q-28 -185 -166.5 -272.5t-341.5 -87.5q-103 0 -184.5 26t-137 75.5t-78 128.5t-6.5 179l13 64h-369l-96 -455h-275l228 1073h274l-84 -409h365l88 409h264l-80 -383h205zM1389 348q11 73 -31 110.5t-146 37.5 h-190l-23 -103q-21 -95 25.5 -144.5t142.5 -49.5q91 0 150.5 38.5t71.5 110.5z" />
<glyph unicode="&#x45b;" horiz-adv-x="1284" d="M848 963q186 0 268.5 -106t42.5 -296l-119 -561h-274l106 504q19 106 -17.5 161.5t-129.5 55.5q-191 0 -313 -217l-107 -504h-274l237 1120h-157l32 164h160l47 211h275l-47 -211h446l-35 -164h-446l-70 -327q157 170 375 170z" />
<glyph unicode="&#x45c;" horiz-adv-x="1105" d="M778 1221l-178 34l156 244h254zM8 0l228 1073h274l-90 -422h106q186 125 338 422h281q-173 -333 -420 -526l266 -547h-295l-207 442h-114l-94 -442h-273z" />
<glyph unicode="&#x45d;" horiz-adv-x="1218" d="M498 1495h252l53 -244l-191 -37zM45 242q0 56 21 159l143 672h272l-129 -612q-14 -57 -14 -103q0 -145 123 -145q75 0 153 50t142 145l141 665h274l-161 -758q-4 -28 -4 -36q0 -23 11.5 -33.5t37.5 -12.5l-49 -233q-86 -14 -115 -14q-72 0 -112 29.5t-40 86.5q0 33 15 99 q-91 -109 -208.5 -165t-248.5 -56q-124 0 -188 66.5t-64 195.5z" />
<glyph unicode="&#x45e;" horiz-adv-x="1064" d="M639 1200q-147 0 -230.5 73t-80.5 189h145q-2 -62 40 -101.5t128 -39.5q152 0 176 141h146q-2 -116 -90 -189t-234 -73zM-90 -258q124 11 183.5 40.5t121.5 115.5l59 79l-178 1096h281l92 -835l70 114q126 209 195 371.5t112 349.5h266q-56 -199 -138.5 -368t-283.5 -494 l-164 -264q-142 -229 -272 -321t-311 -95z" />
<glyph unicode="&#x45f;" horiz-adv-x="1218" d="M45 242q0 56 21 159l143 672h272l-129 -612q-14 -57 -14 -103q0 -145 123 -145q75 0 153 50t142 145l141 665h274l-161 -758q-4 -28 -4 -36q0 -23 11.5 -33.5t37.5 -12.5l-49 -233q-86 -14 -115 -14q-72 0 -112 29.5t-40 86.5q0 33 15 99q-91 -109 -208.5 -165 t-248.5 -56q-124 0 -188 66.5t-64 195.5zM291 -401l55 258h246l-55 -258h-246z" />
<glyph unicode="&#x462;" horiz-adv-x="1433" d="M897 926q238 0 351.5 -122.5t82.5 -332.5q-33 -213 -182 -342t-377 -129h-625l236 1114h-254l37 170h252l45 211h282l-45 -211h332l-35 -170h-333l-39 -188h272zM1044 471q15 99 -32.5 164t-169.5 65h-264l-99 -464h287q119 0 189.5 64.5t88.5 170.5z" />
<glyph unicode="&#x463;" horiz-adv-x="1652" d="M1049 -18q-102 0 -179 26t-129 80.5t-67 138t8 197.5l45 199q29 132 8.5 184.5t-94.5 52.5q-127 0 -229 -164l-146 -696h-274l227 1073h254l-29 -141q132 155 320 155q161 0 216 -101.5t15 -278.5q65 8 154 8q91 2 162.5 -14.5t127 -55t82 -107.5t19.5 -165 q-13 -193 -147.5 -292t-343.5 -99zM1073 207q97 0 154 45.5t61 128.5q5 65 -37 104t-129 39q-86 0 -166 -6l-26 -125q-24 -90 17.5 -138t125.5 -48z" />
<glyph unicode="&#x46a;" horiz-adv-x="2189" d="M2212 1454l-629 -715l449 -739h-312l-366 600h-123l-127 -600h-281l125 600h-141l-555 -600h-315l673 739l-411 715h2013zM827 854h549l361 420h-1143z" />
<glyph unicode="&#x46b;" horiz-adv-x="1744" d="M-86 0l537 555l-320 518h1636l-491 -518l356 -555h-317l-242 428h-80l-90 -428h-278l90 428h-82l-391 -428h-328zM649 639h432l265 293h-859z" />
<glyph unicode="&#x472;" horiz-adv-x="1540" d="M915 1464q156 0 283 -63t203.5 -167t110 -237t14.5 -274q-20 -145 -93.5 -279t-182 -234t-253 -160t-297.5 -60q-124 0 -231 40.5t-182.5 111.5t-126 164t-68 201.5t-2.5 219.5q20 144 94 278.5t182.5 235.5t252.5 162t296 61zM877 1212q-174 0 -302.5 -113.5 t-179.5 -279.5h852q-2 171 -99.5 282t-270.5 111zM741 240q93 0 176.5 36t144.5 96.5t104 136t63 159.5h-860q-4 -116 35.5 -211.5t127.5 -156t209 -60.5z" />
<glyph unicode="&#x473;" horiz-adv-x="1243" d="M682 1092q128 0 228.5 -45t161 -121.5t85.5 -177.5t10 -213q-15 -111 -68 -211t-134.5 -177t-195.5 -122t-243 -45q-128 0 -228.5 45t-160 121.5t-84.5 177t-10 211.5q15 112 68.5 213t135 177.5t195 121.5t240.5 45zM651 872q-102 0 -189 -71.5t-122 -186.5h553 q-6 115 -73 186.5t-169 71.5zM559 199q103 0 193 77t125 197h-560q1 -121 69 -197.5t173 -76.5z" />
<glyph unicode="&#x474;" horiz-adv-x="1355" d="M406 0l-230 1454h297l125 -1087l422 811q80 152 170.5 214t236.5 62h115l-76 -233h-51q-63 0 -104.5 -30.5t-85.5 -109.5l-582 -1081h-237z" />
<glyph unicode="&#x475;" horiz-adv-x="1067" d="M231 0l-129 1073h285l51 -846q177 238 277 500q33 89 64.5 148t68 100.5t85 63t106.5 31t141 9.5l-43 -211q-66 0 -104 -32.5t-72 -116.5q-189 -416 -455 -719h-275z" />
<glyph unicode="&#x490;" horiz-adv-x="1081" d="M20 0l310 1454h645l65 320h246l-119 -568h-610l-256 -1206h-281z" />
<glyph unicode="&#x491;" horiz-adv-x="933" d="M-63 -391q-123 0 -240 65l96 205q56 -37 133 -37q62 0 97 38.5t53 117.5l227 1075h453l57 260h244l-101 -471h-421l-185 -862q-41 -180 -148 -285.5t-265 -105.5z" />
<glyph unicode="&#x492;" horiz-adv-x="1128" d="M1212 1206h-608l-98 -465h401l-35 -182h-405l-119 -559h-282l118 559h-200l36 182h201l152 713h893z" />
<glyph unicode="&#x493;" horiz-adv-x="962" d="M989 844h-436l-64 -295h304l-37 -170h-301l-82 -379h-275l80 379h-176l37 170h174l111 524h712z" />
<glyph unicode="&#x494;" horiz-adv-x="1396" d="M813 854q229 0 348 -140.5t84 -373.5q-35 -225 -186 -347t-385 -122q-113 0 -223 37l102 227q71 -29 131 -29q117 0 196 62t97 188q20 136 -46 213.5t-188 77.5q-163 0 -323 -98l-117 -549h-283l308 1454h893l-54 -248h-608l-92 -436q161 84 346 84z" />
<glyph unicode="&#x495;" horiz-adv-x="1105" d="M659 645q198 0 277.5 -129.5t32.5 -382.5q-23 -130 -62 -225.5t-102 -168.5t-158 -110t-221 -37q-35 0 -67.5 5t-57.5 13t-48.5 19.5t-39 22t-30.5 23.5t-23 21l-16 16l-7 9l207 138q1 -1 12 -10t20.5 -15t27.5 -12t38 -6q208 0 265 311q25 152 -20 224.5t-161 72.5 q-91 0 -161 -45l-82 -379h-275l230 1073h710l-49 -229h-436l-57 -271q115 72 253 72z" />
<glyph unicode="&#x496;" horiz-adv-x="2217" d="M1585 758l289 -510h240l-113 -524h-240l58 276h-111l-342 614h-174l-129 -614h-281l129 614h-123l-559 -614h-321l676 754l-385 700h293l315 -588h158l125 588h280l-125 -588h131l547 588h318z" />
<glyph unicode="&#x497;" horiz-adv-x="1736" d="M1288 547l150 -307h217l-107 -500h-245l55 260h-96l-207 449h-115l-94 -449h-275l95 449h-66q-213 -106 -393 -449h-289q96 187 217 330.5t254 224.5l-262 518h272l199 -428h111l90 428h272l-90 -428h109q175 118 337 428h281q-180 -338 -420 -526z" />
<glyph unicode="&#x498;" horiz-adv-x="1263" d="M1171 1067q-16 -102 -79.5 -186.5t-169.5 -128.5q116 -36 169.5 -132.5t34.5 -226.5q-24 -164 -149.5 -267.5t-317.5 -131.5l-55 -270h-246l54 270q-135 20 -236 88.5t-153 175.5l233 131q36 -84 114.5 -128t188.5 -44q128 0 200.5 54t86.5 151t-41.5 154t-177.5 57h-125 l45 215h112q97 0 158.5 50t73.5 132q26 191 -189 191q-104 0 -188.5 -42.5t-134.5 -117.5l-184 143q214 262 544 262q227 0 342.5 -105t89.5 -294z" />
<glyph unicode="&#x499;" horiz-adv-x="989" d="M926 778q-9 -72 -54 -130.5t-122 -86.5q92 -29 131.5 -97t25.5 -165q-21 -130 -128 -210t-269 -99l-51 -250h-240l55 256q-218 42 -292 219l233 100q54 -112 215 -112q95 0 153.5 37t69.5 100q9 57 -29 92t-120 35h-131l37 170h120q57 0 96.5 30.5t47.5 80.5 q9 57 -28.5 90.5t-119.5 33.5q-134 0 -211 -106l-192 111q74 103 189.5 159t258.5 56q177 0 276.5 -83t78.5 -231z" />
<glyph unicode="&#x49a;" horiz-adv-x="1449" d="M817 768l266 -520h263l-113 -524h-240l60 276h-158l-295 614h-170l-129 -614h-281l308 1454h280l-125 -588h127l551 588h338z" />
<glyph unicode="&#x49b;" horiz-adv-x="1175" d="M725 547l149 -307h224l-109 -500h-246l56 260h-103l-207 442h-114l-94 -442h-273l228 1073h274l-90 -422h106q186 125 338 422h281q-173 -333 -420 -526z" />
<glyph unicode="&#x49c;" horiz-adv-x="1406" d="M772 406l-29 145l-147 -145l-68 -66l39 66h-98l133 589l-67 78l67 -69l21 88h127l-43 -195l12 -12l22 131l66 -217h-4l4 -4h2l135 -140zM614 485l105 179l-19 96l93 31l6 8h-94l10 63l-13 17l-22 -95l-109 -65l103 33zM821 799l-12 -4l-2 4h14zM698 766l2 -6l-26 -8l6 32 l25 15z" />
<glyph unicode="&#x49d;" horiz-adv-x="1210" d="M1251 1073q-178 -336 -420 -526l267 -547h-295l-213 449h-10l-41 -185h-123l41 185h-88l-97 -449h-264l228 1073h264l-90 -428h90l43 197h123l-43 -197q185 116 348 428h280z" />
<glyph unicode="&#x4a0;" horiz-adv-x="1570" d="M1698 1454l-682 -686l393 -768h-315l-295 614h-170l-129 -614h-281l256 1217h-317l49 237h600l-125 -588h127l551 588h338z" />
<glyph unicode="&#x4a1;" horiz-adv-x="1282" d="M1321 1073q-173 -333 -420 -526l266 -547h-295l-206 442h-115l-94 -442h-273l183 862h-256l43 211h532l-90 -422h106q186 125 338 422h281z" />
<glyph unicode="&#x4a2;" horiz-adv-x="1593" d="M1497 1454l-256 -1206h205l-113 -524h-241l59 276h-244l131 621h-606l-131 -621h-281l310 1454h280l-125 -588h607l125 588h280z" />
<glyph unicode="&#x4a3;" horiz-adv-x="1343" d="M1221 1073l-177 -833h177l-109 -500h-246l54 260h-201l94 444h-436l-94 -444h-275l228 1073h274l-90 -420h438l88 420h275z" />
<glyph unicode="&#x4a4;" horiz-adv-x="1968" d="M2105 1454l-53 -248h-608l-256 -1206h-281l131 621h-606l-131 -621h-281l310 1454h280l-125 -588h607l125 588h888z" />
<glyph unicode="&#x4a5;" horiz-adv-x="1583" d="M1657 1073l-53 -239h-435l-176 -834h-274l94 444h-436l-94 -444h-275l228 1073h274l-90 -420h438l88 420h711z" />
<glyph unicode="&#x4aa;" horiz-adv-x="1454" d="M743 238q73 0 144.5 21.5t141.5 73t114 126.5l211 -133q-75 -135 -231 -223t-328 -109l-56 -270h-235l57 278q-122 27 -220 100t-157.5 173t-84.5 220t-7 242q19 134 87 263t173 232t254 166.5t314 63.5q199 0 336.5 -86t191.5 -231l-238 -150q-24 78 -80 128.5 t-119.5 69.5t-136.5 19q-103 0 -193 -42.5t-151.5 -112.5t-100.5 -154.5t-52 -173.5q-19 -129 19.5 -241t130 -181t216.5 -69z" />
<glyph unicode="&#x4ab;" horiz-adv-x="1112" d="M516 213q65 0 129 36t100 91l250 -82q-63 -95 -158.5 -163t-211.5 -97l-56 -258h-239l53 246q-168 28 -259 151t-91 295q0 126 50 245.5t136.5 211.5t213 147.5t269.5 55.5q165 0 270 -74t138 -201l-283 -82q-45 123 -174 123q-132 0 -234 -114.5t-102 -278.5 q0 -113 55 -182.5t144 -69.5z" />
<glyph unicode="&#x4ae;" horiz-adv-x="1267" d="M461 512l-295 942h307l180 -700l484 700h305l-703 -946l-106 -508h-281z" />
<glyph unicode="&#x4af;" horiz-adv-x="1058" d="M145 -436l95 436l-138 1073h281l59 -837q141 213 231.5 405t172.5 432h248q-153 -533 -590 -1071l-84 -438h-275z" />
<glyph unicode="&#x4b0;" horiz-adv-x="1267" d="M739 508v-4h215l-39 -178h-215l-67 -326h-281l70 326h-199l39 178h197l2 8l-295 942h307l180 -700l484 700h305z" />
<glyph unicode="&#x4b1;" horiz-adv-x="1058" d="M504 2v-2h213l-29 -137h-211l-57 -299h-275l66 299h-211l29 137h211l-138 1073h281l59 -837q141 213 231.5 405t172.5 432h248q-153 -533 -590 -1071z" />
<glyph unicode="&#x4b6;" horiz-adv-x="1472" d="M1430 1454l-254 -1206h147l-113 -524h-241l59 276h-188l118 559q-150 -59 -331 -59q-261 0 -371.5 125t-54.5 368l108 461h277l-113 -475q-29 -132 29.5 -191t216.5 -59q156 0 291 64l139 661h281z" />
<glyph unicode="&#x4b7;" horiz-adv-x="1245" d="M942 240h180l-108 -500h-246l53 260h-211l86 385q-121 -51 -274 -51q-173 0 -254.5 92.5t-44.5 265.5l82 381h274l-73 -344q-41 -190 143 -190q102 0 190 43l105 491h274z" />
<glyph unicode="&#x4b8;" horiz-adv-x="1402" d="M1149 1454h281l-308 -1454h-282l118 559q-114 -44 -233 -55l-49 -217h-127l47 213q-244 8 -347 133t-48 360l108 461h277l-113 -475q-26 -117 16 -176.5t160 -69.5l53 240h127l-53 -242q134 13 234 62z" />
<glyph unicode="&#x4b9;" horiz-adv-x="1165" d="M881 1073h274l-227 -1073h-277l82 385q-78 -27 -139 -37l-41 -186h-123l39 174q-20 -2 -59 -2q-167 0 -245 92.5t-42 265.5l84 381h274l-75 -344q-33 -177 108 -190l43 200h123l-43 -192q72 12 137 35z" />
<glyph unicode="&#x4ba;" horiz-adv-x="1402" d="M336 0h-281l307 1454h283l-119 -559q150 59 332 59q261 0 371.5 -125t54.5 -368l-108 -461h-277l113 475q29 132 -29.5 191t-216.5 59t-291 -63z" />
<glyph unicode="&#x4bb;" horiz-adv-x="1191" d="M309 1495h275l-133 -621q80 103 187 160.5t222 57.5q252 0 252 -252q0 -75 -20 -170l-142 -670h-274l127 602q12 58 12 100q0 148 -125 148q-69 0 -156 -64t-135 -159l-133 -627h-274z" />
<glyph unicode="&#x4c0;" horiz-adv-x="583" d="M330 1452h280l-309 -1452h-281z" />
<glyph unicode="&#x4c1;" horiz-adv-x="2172" d="M1239 1587q-173 0 -264 79t-72 210h215q-7 -54 31.5 -87.5t107.5 -33.5q77 0 128.5 33t60.5 88h213q-20 -131 -134 -210t-286 -79zM-92 0l676 754l-385 700h293l315 -588h158l125 588h280l-125 -588h131l547 588h318l-656 -696l430 -758h-307l-342 614h-174l-129 -614 h-281l129 614h-123l-559 -614h-321z" />
<glyph unicode="&#x4c2;" horiz-adv-x="1667" d="M936 1200q-147 0 -230.5 73t-80.5 189h145q-2 -62 40 -101.5t128 -39.5q152 0 176 141h146q-2 -116 -90 -189t-234 -73zM-82 0q96 187 217 330.5t254 224.5l-262 518h272l199 -428h111l90 428h272l-90 -428h109q175 118 337 428h281q-180 -338 -420 -526l266 -547h-292 l-207 449h-115l-94 -449h-275l95 449h-66q-213 -106 -393 -449h-289z" />
<glyph unicode="&#x4cb;" horiz-adv-x="1402" d="M1149 1454h281l-308 -1454h-260l-59 -276h-240l103 489h219l73 346q-150 -59 -331 -59q-261 0 -371.5 125t-54.5 368l108 461h277l-113 -475q-29 -132 29.5 -191t216.5 -59q156 0 291 64z" />
<glyph unicode="&#x4cc;" horiz-adv-x="1187" d="M1133 1073l-195 -921l-31 -152h-186l-57 -272h-248l88 424h155l52 233q-121 -51 -275 -51q-173 0 -254.5 92.5t-44.5 265.5l82 381h275l-74 -344q-41 -190 143 -190q103 0 191 43l104 491h275z" />
<glyph unicode="&#x4cf;" horiz-adv-x="518" d="M219 1073h275l-228 -1073h-274z" />
<glyph unicode="&#x4d0;" horiz-adv-x="1320" d="M858 1587q-173 0 -264 79t-72 210h215q-7 -54 32 -87.5t108 -33.5q77 0 128 33t60 88h213q-20 -131 -134 -210t-286 -79zM721 1454h252l211 -1454h-291l-45 362h-469l-197 -362h-291zM842 561l-64 572l-311 -572h375z" />
<glyph unicode="&#x4d1;" horiz-adv-x="1277" d="M799 1200q-147 0 -231 73t-81 189h146q-2 -62 40 -101.5t128 -39.5q152 0 176 141h145q-2 -116 -89.5 -189t-233.5 -73zM31 420q0 130 48.5 254t128 215.5t188 147t222.5 55.5q108 0 186.5 -57t108.5 -150l41 184h275l-160 -754q-6 -21 -6 -36q0 -43 49 -46l-49 -233 q-86 -14 -113 -14q-73 0 -114 31.5t-41 91.5q0 25 12 77q-75 -99 -180.5 -152.5t-214.5 -53.5q-174 0 -277.5 124.5t-103.5 315.5zM811 393l53 256q-12 89 -72 149t-137 60q-86 0 -164.5 -57.5t-125 -149t-46.5 -188.5q0 -108 59 -179t157 -71q72 0 152 51.5t124 128.5z" />
<glyph unicode="&#x4d2;" horiz-adv-x="1320" d="M582 1618l53 244h227l-53 -244h-227zM967 1618l53 244h225l-51 -244h-227zM721 1454h252l211 -1454h-291l-45 362h-469l-197 -362h-291zM842 561l-64 572l-311 -572h375z" />
<glyph unicode="&#x4d3;" horiz-adv-x="1277" d="M524 1237l54 244h227l-53 -244h-228zM909 1237l54 244h225l-51 -244h-228zM31 420q0 130 48.5 254t128 215.5t188 147t222.5 55.5q108 0 186.5 -57t108.5 -150l41 184h275l-160 -754q-6 -21 -6 -36q0 -43 49 -46l-49 -233q-86 -14 -113 -14q-73 0 -114 31.5t-41 91.5 q0 25 12 77q-75 -99 -180.5 -152.5t-214.5 -53.5q-174 0 -277.5 124.5t-103.5 315.5zM811 393l53 256q-12 89 -72 149t-137 60q-86 0 -164.5 -57.5t-125 -149t-46.5 -188.5q0 -108 59 -179t157 -71q72 0 152 51.5t124 128.5z" />
<glyph unicode="&#x4d4;" horiz-adv-x="1902" d="M1004 1454h991l-53 -248h-637l-72 -342h530l-53 -248h-530l-78 -368h651l-51 -248h-934l78 362h-436l-273 -362h-301zM877 608l112 529l-405 -529h293z" />
<glyph unicode="&#x4d5;" horiz-adv-x="1830" d="M-20 260q0 114 69.5 207.5t187.5 146t259 52.5q135 0 219 -41q5 18 15 45t16 48t6 42q0 65 -47.5 103t-137.5 38q-152 0 -344 -121l-45 174q231 138 459 138q234 0 321 -152q175 152 396 152q104 0 187 -35t136 -96.5t81 -142.5t28 -175q0 -25 -2.5 -49t-5 -39.5 t-8 -35.5t-8 -27.5t-9 -24.5t-6.5 -18h-786q-5 -40 -5 -52q0 -99 60 -158t153 -59q77 0 153.5 40.5t113.5 105.5l219 -66q-84 -126 -227.5 -203t-309.5 -77q-142 0 -243 59t-150 162q-60 -75 -145.5 -127t-163 -73t-146.5 -21q-132 0 -211 78.5t-79 201.5zM1505 618 q2 18 2 52q0 102 -54 162.5t-148 60.5q-106 0 -193 -76t-121 -199h514zM678 322q-4 28 -4 51q0 46 10 104q-89 35 -176 35q-109 0 -184.5 -57t-75.5 -142q0 -59 37.5 -96t107.5 -37q76 0 164 43t121 99z" />
<glyph unicode="&#x4d6;" horiz-adv-x="1183" d="M793 1587q-173 0 -264 79t-72 210h215q-7 -54 31.5 -87.5t107.5 -33.5q77 0 128 33t60 88h213q-20 -131 -133.5 -210t-285.5 -79zM330 1454h942l-51 -248h-664l-74 -350h572l-49 -229h-572l-80 -379h680l-53 -248h-961z" />
<glyph unicode="&#x4d7;" horiz-adv-x="1177" d="M723 1200q-147 0 -230.5 73t-80.5 189h145q-2 -62 40 -101.5t128 -39.5q152 0 176 141h146q-2 -116 -90 -189t-234 -73zM578 186q52 0 98 15t76 37.5t47 41.5t26 35l228 -71q-18 -29 -43 -59t-71 -68.5t-100 -67.5t-133.5 -49t-166.5 -20q-148 0 -257 67.5t-162 183 t-46 261.5q4 123 55 233.5t135 191t201 128t248 47.5q173 0 284 -78.5t115 -220.5q6 -172 -143.5 -261.5t-456.5 -89.5q-48 0 -162 4q-2 -123 56.5 -191.5t171.5 -68.5zM674 887q-97 0 -177.5 -72t-117.5 -190q41 -2 123 -2q187 0 264 36.5t72 110.5q-3 54 -48.5 85.5 t-115.5 31.5z" />
<glyph unicode="&#x4d8;" horiz-adv-x="1470" d="M45 580q0 131 49 241h1041q4 40 4 64q0 150 -81.5 238.5t-209.5 88.5q-109 0 -212.5 -62.5t-152.5 -160.5l-266 96q116 172 300.5 275.5t389.5 103.5q125 0 228 -49t169 -131.5t102 -189t36 -224.5q0 -108 -30.5 -216.5t-84.5 -205.5t-133 -181.5t-171.5 -145.5 t-204.5 -96t-228 -35q-128 0 -233.5 49.5t-172.5 132.5t-103 188t-36 220zM1085 600h-745q-8 -36 -8 -78q0 -125 86 -204.5t229 -79.5q146 0 267 101t171 261z" />
<glyph unicode="&#x4d9;" horiz-adv-x="1200" d="M467 -20q-208 0 -322 118t-114 305q0 120 41 220h778q2 16 2 51q0 99 -57.5 158t-145.5 59q-78 0 -153 -40.5t-113 -105.5l-219 66q84 127 227 204t311 77q103 0 186.5 -35t137.5 -96t82.5 -142t28.5 -174q0 -127 -50.5 -248t-137.5 -213t-213 -148t-269 -56zM514 178 q101 0 185.5 76.5t119.5 198.5h-506q-2 -18 -2 -52q0 -101 55.5 -162t147.5 -61z" />
<glyph unicode="&#x4dc;" horiz-adv-x="2172" d="M963 1618l53 244h227l-53 -244h-227zM1348 1618l53 244h225l-51 -244h-227zM-92 0l676 754l-385 700h293l315 -588h158l125 588h280l-125 -588h131l547 588h318l-656 -696l430 -758h-307l-342 614h-174l-129 -614h-281l129 614h-123l-559 -614h-321z" />
<glyph unicode="&#x4dd;" horiz-adv-x="1667" d="M662 1237l53 244h227l-53 -244h-227zM1047 1237l53 244h225l-51 -244h-227zM-82 0q96 187 217 330.5t254 224.5l-262 518h272l199 -428h111l90 428h272l-90 -428h109q175 118 337 428h281q-180 -338 -420 -526l266 -547h-292l-207 449h-115l-94 -449h-275l95 449h-66 q-213 -106 -393 -449h-289z" />
<glyph unicode="&#x4de;" horiz-adv-x="1263" d="M500 1618l53 244h227l-53 -244h-227zM885 1618l53 244h225l-51 -244h-227zM526 -14q-178 0 -309 71t-194 201l233 131q36 -84 114.5 -128t188.5 -44q128 0 200.5 54t86.5 151t-41.5 154t-177.5 57h-125l45 215h112q97 0 158.5 50t73.5 132q26 191 -189 191 q-104 0 -188.5 -42.5t-134.5 -117.5l-184 143q214 262 544 262q227 0 342.5 -105t89.5 -294q-16 -102 -79.5 -186.5t-169.5 -128.5q116 -36 169.5 -132.5t34.5 -226.5q-29 -192 -193 -299.5t-407 -107.5z" />
<glyph unicode="&#x4df;" horiz-adv-x="1030" d="M305 1237l53 244h228l-54 -244h-227zM690 1237l53 244h226l-51 -244h-228zM414 -16q-335 0 -432 231l233 100q54 -112 215 -112q95 0 153.5 37t69.5 100q9 57 -29 92t-120 35h-131l37 170h120q57 0 96.5 30.5t47.5 80.5q9 57 -28.5 90.5t-119.5 33.5q-134 0 -211 -106 l-192 111q74 103 189.5 159t258.5 56q177 0 276.5 -83t78.5 -231q-9 -72 -54 -130.5t-122 -86.5q92 -29 131.5 -97t25.5 -165q-24 -150 -159.5 -232.5t-333.5 -82.5z" />
<glyph unicode="&#x4e2;" horiz-adv-x="1501" d="M684 1675l37 170h588l-37 -170h-588zM20 0l308 1454h280l-223 -1061l879 1061h262l-307 -1454h-281l221 1028l-868 -1028h-271z" />
<glyph unicode="&#x4e3;" horiz-adv-x="1218" d="M463 1294l37 170h587l-36 -170h-588zM45 242q0 56 21 159l143 672h272l-129 -612q-14 -57 -14 -103q0 -145 123 -145q75 0 153 50t142 145l141 665h274l-161 -758q-4 -28 -4 -36q0 -23 11.5 -33.5t37.5 -12.5l-49 -233q-86 -14 -115 -14q-72 0 -112 29.5t-40 86.5 q0 33 15 99q-91 -109 -208.5 -165t-248.5 -56q-124 0 -188 66.5t-64 195.5z" />
<glyph unicode="&#x4e4;" horiz-adv-x="1501" d="M662 1618l53 244h227l-53 -244h-227zM1047 1618l53 244h225l-51 -244h-227zM20 0l308 1454h280l-223 -1061l879 1061h262l-307 -1454h-281l221 1028l-868 -1028h-271z" />
<glyph unicode="&#x4e5;" horiz-adv-x="1218" d="M440 1237l54 244h227l-53 -244h-228zM825 1237l54 244h225l-51 -244h-228zM45 242q0 56 21 159l143 672h272l-129 -612q-14 -57 -14 -103q0 -145 123 -145q75 0 153 50t142 145l141 665h274l-161 -758q-4 -28 -4 -36q0 -23 11.5 -33.5t37.5 -12.5l-49 -233 q-86 -14 -115 -14q-72 0 -112 29.5t-40 86.5q0 33 15 99q-91 -109 -208.5 -165t-248.5 -56q-124 0 -188 66.5t-64 195.5z" />
<glyph unicode="&#x4e6;" horiz-adv-x="1568" d="M672 1618l53 244h227l-53 -244h-227zM1057 1618l53 244h225l-51 -244h-227zM700 -10q-124 0 -231 40.5t-182.5 111.5t-126 164t-68 201.5t-2.5 219.5q20 144 94 278.5t182.5 235.5t252.5 162t296 61q156 0 283 -63t203.5 -167t110 -237t14.5 -274q-20 -145 -93.5 -279 t-182 -234t-253 -160t-297.5 -60zM741 240q81 0 155.5 27.5t131.5 75t102 109.5t72.5 132t38.5 143q19 131 -16.5 240.5t-126 177t-221.5 67.5q-102 0 -191.5 -42t-152.5 -111t-104 -155t-54 -177q-18 -128 17 -237.5t126 -179.5t223 -70z" />
<glyph unicode="&#x4e7;" horiz-adv-x="1273" d="M481 1231l54 244h227l-53 -244h-228zM866 1231l54 244h225l-51 -244h-228zM557 -20q-128 0 -228.5 45t-160 121.5t-84.5 177t-10 211.5q15 112 68.5 213t135 177.5t195 121.5t240.5 45q128 0 228.5 -45t161 -121.5t85.5 -177.5t10 -213q-15 -111 -68 -211t-134.5 -177 t-195.5 -122t-243 -45zM590 199q118 0 214.5 97.5t115.5 240.5q20 145 -49 240t-189 95t-216 -95.5t-114 -241.5q-20 -144 49.5 -240t188.5 -96z" />
<glyph unicode="&#x4e8;" horiz-adv-x="1540" d="M915 1464q156 0 283 -63t203.5 -167t110 -237t14.5 -274q-20 -145 -93.5 -279t-182 -234t-253 -160t-297.5 -60q-124 0 -231 40.5t-182.5 111.5t-126 164t-68 201.5t-2.5 219.5q20 144 94 278.5t182.5 235.5t252.5 162t296 61zM877 1212q-174 0 -302.5 -113.5 t-179.5 -279.5h852q-2 171 -99.5 282t-270.5 111zM741 240q93 0 176.5 36t144.5 96.5t104 136t63 159.5h-860q-4 -116 35.5 -211.5t127.5 -156t209 -60.5z" />
<glyph unicode="&#x4e9;" horiz-adv-x="1243" d="M682 1092q128 0 228.5 -45t161 -121.5t85.5 -177.5t10 -213q-15 -111 -68 -211t-134.5 -177t-195.5 -122t-243 -45q-128 0 -228.5 45t-160 121.5t-84.5 177t-10 211.5q15 112 68.5 213t135 177.5t195 121.5t240.5 45zM651 872q-102 0 -189 -71.5t-122 -186.5h553 q-6 115 -73 186.5t-169 71.5zM559 199q103 0 193 77t125 197h-560q1 -121 69 -197.5t173 -76.5z" />
<glyph unicode="&#x4ee;" horiz-adv-x="1337" d="M590 1675l37 170h587l-36 -170h-588zM207 -6l51 233h121q115 0 182 111l12 18l-409 1098h297l260 -825l436 825h285l-680 -1200q-84 -143 -179 -201.5t-247 -58.5h-129z" />
<glyph unicode="&#x4ef;" horiz-adv-x="1064" d="M387 1294l37 170h588l-37 -170h-588zM-90 -258q124 11 183.5 40.5t121.5 115.5l59 79l-178 1096h281l92 -835l70 114q126 209 195 371.5t112 349.5h266q-56 -199 -138.5 -368t-283.5 -494l-164 -264q-142 -229 -272 -321t-311 -95z" />
<glyph unicode="&#x4f0;" horiz-adv-x="1337" d="M567 1618l54 244h227l-53 -244h-228zM952 1618l54 244h225l-51 -244h-228zM207 -6l51 233h121q115 0 182 111l12 18l-409 1098h297l260 -825l436 825h285l-680 -1200q-84 -143 -179 -201.5t-247 -58.5h-129z" />
<glyph unicode="&#x4f1;" horiz-adv-x="1064" d="M365 1237l53 244h227l-53 -244h-227zM750 1237l53 244h225l-51 -244h-227zM-90 -258q124 11 183.5 40.5t121.5 115.5l59 79l-178 1096h281l92 -835l70 114q126 209 195 371.5t112 349.5h266q-56 -199 -138.5 -368t-283.5 -494l-164 -264q-142 -229 -272 -321t-311 -95z " />
<glyph unicode="&#x4f2;" horiz-adv-x="1337" d="M745 1599l-137 33l144 244h211zM1065 1599l-137 33l143 244h211zM207 -6l51 233h121q115 0 182 111l12 18l-409 1098h297l260 -825l436 825h285l-680 -1200q-84 -143 -179 -201.5t-247 -58.5h-129z" />
<glyph unicode="&#x4f3;" horiz-adv-x="1064" d="M543 1219l-137 32l143 244h211zM862 1219l-137 32l143 244h211zM-90 -258q124 11 183.5 40.5t121.5 115.5l59 79l-178 1096h281l92 -835l70 114q126 209 195 371.5t112 349.5h266q-56 -199 -138.5 -368t-283.5 -494l-164 -264q-142 -229 -272 -321t-311 -95z" />
<glyph unicode="&#x4f4;" horiz-adv-x="1402" d="M623 1618l53 244h227l-53 -244h-227zM1008 1618l53 244h225l-51 -244h-227zM1149 1454h281l-308 -1454h-282l118 559q-150 -59 -331 -59q-261 0 -371.5 125t-54.5 368l108 461h277l-113 -475q-29 -132 29.5 -191t216.5 -59q156 0 291 64z" />
<glyph unicode="&#x4f5;" horiz-adv-x="1128" d="M426 1237l53 244h228l-54 -244h-227zM811 1237l53 244h226l-52 -244h-227zM610 0l86 385q-121 -51 -274 -51q-173 0 -254.5 92.5t-44.5 265.5l82 381h274l-73 -344q-41 -190 143 -190q102 0 190 43l105 491h274l-227 -1073h-281z" />
<glyph unicode="&#x4f6;" horiz-adv-x="1071" d="M315 1454h893l-53 -248h-608l-203 -958h170l-113 -524h-241l59 276h-211z" />
<glyph unicode="&#x4f7;" horiz-adv-x="1089" d="M627 481q-103 -33 -158.5 -61.5t-77 -56.5t-24.5 -68q-4 -54 41.5 -82.5t134.5 -28.5q73 0 142 33t120 92l168 -141l-86 -395h-246l53 233q-88 -26 -209 -26q-210 0 -309 82t-94 225q4 124 103.5 199t332.5 141q111 36 152.5 71t46.5 93q3 53 -35 80.5t-107 27.5 q-71 0 -140 -33t-109 -90l-191 113q76 98 201.5 151.5t288.5 53.5q184 0 276.5 -78t89.5 -213q-6 -121 -90 -193t-274 -129z" />
<glyph unicode="&#x4f8;" horiz-adv-x="1810" d="M803 1618l53 244h227l-53 -244h-227zM1188 1618l53 244h225l-51 -244h-227zM20 0l308 1454h280l-108 -520h209q238 0 351.5 -124.5t82.5 -338.5q-31 -213 -181 -342t-378 -129h-564zM1559 1452h280l-309 -1452h-281zM352 236h226q119 0 189.5 65t86.5 170 q17 99 -31.5 164t-171.5 65h-202z" />
<glyph unicode="&#x4f9;" horiz-adv-x="1560" d="M915 1481l-53 -244h-227l53 244h227zM1298 1481l-51 -244h-227l53 244h225zM580 764q203 0 312.5 -101.5t84.5 -295.5q-15 -103 -60 -179t-112 -120t-147 -65t-173 -21q-108 0 -192 26.5t-141.5 79t-79 138.5t-0.5 198q10 51 22.5 109.5t23 102.5t27.5 114.5t25.5 103.5 t29.5 114t27 105h275l-80 -309h158zM1278 1073h274l-227 -1073h-274zM719 381q12 87 -35 134.5t-154 47.5h-155l-31 -155q-18 -97 33.5 -150t142.5 -53q82 0 135.5 47t63.5 129z" />
<glyph unicode="&#x51a;" horiz-adv-x="1490" d="M1462 856q0 -175 -80.5 -343.5t-218.5 -295.5l142 -217h-269l-57 88q-176 -98 -369 -98q-125 0 -228 50t-169.5 134t-102.5 192.5t-36 227.5q0 162 71.5 321.5t188.5 279.5t275 194.5t321 74.5q125 0 227.5 -51t168 -136t101 -193.5t35.5 -227.5zM668 240q96 0 184 43 l-166 256h266l74 -113q70 86 110 195.5t40 214.5q0 161 -80 269.5t-224 108.5q-109 0 -206 -54.5t-162.5 -141t-103.5 -192.5t-38 -210q0 -103 33 -186.5t103.5 -136.5t169.5 -53z" />
<glyph unicode="&#x51b;" horiz-adv-x="1251" d="M31 414q0 136 51.5 262t135.5 216.5t195.5 145t227.5 54.5q114 0 192.5 -55t114.5 -150l39 186h240l-250 -1179q-4 -28 -4 -35q0 -25 13.5 -35t45.5 -12l-49 -234q-70 -12 -147 -12q-75 0 -121.5 39t-46.5 106q0 13 4 41l92 436q-76 -102 -176 -155t-213 -53 q-159 0 -251.5 123t-92.5 311zM807 389l55 254q-6 90 -65.5 152.5t-139.5 62.5q-86 0 -165 -57t-127 -149t-48 -191q0 -108 56.5 -178t152.5 -70q149 0 281 176z" />
<glyph unicode="&#x51c;" horiz-adv-x="2052" d="M168 1454h305l139 -1130l262 464l-90 662h260l50 -481l252 481h262l-375 -662l67 -464l619 1130h307l-868 -1454h-236l-104 610l-365 -610h-235z" />
<glyph unicode="&#x51d;" horiz-adv-x="1617" d="M86 1073h268l129 -827q113 176 179 291l-115 536h239l54 -332q76 151 143 332h223q-97 -282 -260 -534l53 -246q167 224 258.5 391.5t167.5 388.5h252q-176 -519 -645 -1073h-207l-59 350q-124 -201 -223 -350h-250z" />
<glyph unicode="&#x524;" horiz-adv-x="1593" d="M1505 1454l-254 -1206h193l-113 -524h-241l59 276h-231l256 1206h-617l-256 -1206h-281l308 1454h1177z" />
<glyph unicode="&#x525;" horiz-adv-x="1318" d="M1012 240h186l-108 -500h-246l53 260h-211l184 862h-403l-184 -862h-275l228 1073h954z" />
<glyph unicode="&#x1e08;" horiz-adv-x="1347" d="M1212 1880l-231 -278l-178 34l155 244h254zM672 238q103 0 206 55.5t169 165.5l202 -133q-62 -101 -164 -177.5t-212.5 -115.5t-221.5 -45q49 -68 49 -152q0 -106 -70 -177t-190 -71q-105 0 -200 62l100 145q46 -43 96 -43q49 0 81 31t32 84q0 70 -57 133h2 q-131 29 -228 121.5t-143.5 216t-46.5 262.5q0 122 39.5 246t115 234t176.5 196t234.5 136t278.5 50q194 0 318.5 -86.5t164.5 -230.5l-242 -146q-49 213 -293 213q-98 0 -182 -36t-142.5 -95.5t-100.5 -136.5t-61.5 -158t-19.5 -161q0 -166 82 -276.5t228 -110.5z" />
<glyph unicode="&#x1e09;" horiz-adv-x="1110" d="M1047 1495l-232 -278l-178 34l156 244h254zM514 213q65 0 129 36t100 91l250 -82q-68 -102 -175 -173.5t-236 -94.5q49 -71 49 -154q0 -106 -70 -177t-190 -71q-106 0 -201 62l100 145q46 -43 97 -43q49 0 80.5 31t31.5 84q0 60 -41 113q-130 7 -223.5 70t-138.5 161.5 t-45 220.5q0 126 50 245.5t136.5 211.5t213 147.5t269.5 55.5q165 0 270 -74t138 -201l-283 -82q-45 123 -174 123q-132 0 -234 -114.5t-102 -278.5q0 -113 55 -182.5t144 -69.5z" />
<glyph unicode="&#x1e0c;" horiz-adv-x="1417" d="M330 1454h506q137 0 243 -43.5t172 -120.5t99.5 -178t33.5 -221q0 -189 -65.5 -354.5t-178.5 -283.5t-272.5 -185.5t-341.5 -67.5h-506zM578 248q152 0 271.5 84.5t182 221t62.5 296.5q0 163 -81 259.5t-231 96.5h-225l-203 -958h224zM305 -401l55 258h246l-55 -258h-246 z" />
<glyph unicode="&#x1e0d;" horiz-adv-x="1277" d="M31 420q0 130 48.5 254t128 215.5t188 147t222.5 55.5q108 0 186.5 -57t108.5 -150l131 610h275l-250 -1180q-6 -21 -6 -36q0 -43 49 -46l-49 -233q-86 -14 -113 -14q-74 0 -114.5 29.5t-40.5 86.5q0 26 12 84q-75 -99 -180.5 -152.5t-214.5 -53.5q-174 0 -277.5 124.5 t-103.5 315.5zM811 393l53 256q-12 89 -72 149t-137 60q-86 0 -164.5 -57.5t-125 -149t-46.5 -188.5q0 -108 59 -179t157 -71q72 0 152 51.5t124 128.5zM319 -401l56 258h246l-56 -258h-246z" />
<glyph unicode="&#x1e0e;" horiz-adv-x="1417" d="M330 1454h506q137 0 243 -43.5t172 -120.5t99.5 -178t33.5 -221q0 -189 -65.5 -354.5t-178.5 -283.5t-272.5 -185.5t-341.5 -67.5h-506zM578 248q152 0 271.5 84.5t182 221t62.5 296.5q0 163 -81 259.5t-231 96.5h-225l-203 -958h224zM154 -334l41 170h559l-39 -170h-561 z" />
<glyph unicode="&#x1e0f;" horiz-adv-x="1277" d="M31 420q0 130 48.5 254t128 215.5t188 147t222.5 55.5q108 0 186.5 -57t108.5 -150l131 610h275l-250 -1180q-6 -21 -6 -36q0 -43 49 -46l-49 -233q-86 -14 -113 -14q-74 0 -114.5 29.5t-40.5 86.5q0 26 12 84q-75 -99 -180.5 -152.5t-214.5 -53.5q-174 0 -277.5 124.5 t-103.5 315.5zM811 393l53 256q-12 89 -72 149t-137 60q-86 0 -164.5 -57.5t-125 -149t-46.5 -188.5q0 -108 59 -179t157 -71q72 0 152 51.5t124 128.5zM168 -334l41 170h559l-39 -170h-561z" />
<glyph unicode="&#x1e14;" horiz-adv-x="1183" d="M657 2267h252l54 -244l-191 -36zM539 1675l36 170h588l-37 -170h-587zM330 1454h942l-51 -248h-664l-74 -350h572l-49 -229h-572l-80 -379h680l-53 -248h-961z" />
<glyph unicode="&#x1e15;" horiz-adv-x="1128" d="M879 1638l-191 -36l-115 280h252zM1079 1460l-37 -170h-587l37 170h587zM473 446q-15 0 -158 5v-27q0 -112 51.5 -178t153.5 -66q82 0 155 39.5t116 108.5l217 -68q-84 -125 -231 -202.5t-306 -77.5q-201 0 -319.5 126.5t-118.5 327.5q0 131 52.5 252t141.5 210 t215.5 142.5t266.5 53.5q176 0 279.5 -78.5t103.5 -220.5q0 -347 -619 -347zM670 893q-114 0 -196.5 -74.5t-125.5 -193.5q86 -4 127 -4q191 0 273.5 39t82.5 114q0 57 -43.5 88t-117.5 31z" />
<glyph unicode="&#x1e16;" horiz-adv-x="1183" d="M983 1993l-178 35l156 243h253zM539 1675l36 170h588l-37 -170h-587zM330 1454h942l-51 -248h-664l-74 -350h572l-49 -229h-572l-80 -379h680l-53 -248h-961z" />
<glyph unicode="&#x1e17;" horiz-adv-x="1128" d="M1130 1886l-231 -278l-178 34l156 244h253zM1079 1460l-37 -170h-587l37 170h587zM709 1092q176 0 279.5 -78.5t103.5 -220.5q0 -347 -619 -347q-15 0 -158 5v-27q0 -112 51.5 -178t153.5 -66q82 0 155 39.5t116 108.5l217 -68q-84 -125 -231 -202.5t-306 -77.5 q-201 0 -319.5 126.5t-118.5 327.5q0 131 52.5 252t141.5 210t215.5 142.5t266.5 53.5zM475 621q191 0 273.5 39t82.5 114q0 57 -43.5 88t-117.5 31q-114 0 -196.5 -74.5t-125.5 -193.5q86 -4 127 -4z" />
<glyph unicode="&#x1e1c;" horiz-adv-x="1183" d="M817 1602q-99 0 -156 56.5t-57 149.5q0 37 8 68h148q-6 -21 -6 -41q0 -46 25 -78.5t63 -32.5q43 0 85 43t62 109h148q-26 -119 -117 -196.5t-203 -77.5zM1221 1206h-664l-74 -350h572l-49 -229h-572l-80 -379h680l-53 -248h-418q55 -78 55 -164q0 -106 -70 -177t-190 -71 q-105 0 -200 62l100 145q46 -43 96 -43q49 0 81 31t32 84q0 70 -57 133h-390l310 1454h942z" />
<glyph unicode="&#x1e1d;" horiz-adv-x="1128" d="M733 1217q-99 0 -156 56.5t-57 149.5q0 37 8 68h148q-6 -21 -6 -41q0 -46 25 -78.5t63 -32.5q43 0 85 43t62 109h148q-26 -119 -117 -196.5t-203 -77.5zM473 446q-15 0 -158 5v-27q0 -112 51.5 -178t153.5 -66q82 0 155 39.5t116 108.5l217 -68q-70 -105 -189.5 -178.5 t-255.5 -95.5q47 -70 47 -150q0 -106 -70 -177t-190 -71q-105 0 -200 62l100 145q46 -43 96 -43q49 0 81 31t32 84q0 63 -43 115q-178 19 -280.5 142t-102.5 310q0 131 52.5 252t141.5 210t215.5 142.5t266.5 53.5q176 0 279.5 -78.5t103.5 -220.5q0 -347 -619 -347z M670 893q-114 0 -196.5 -74.5t-125.5 -193.5q86 -4 127 -4q191 0 273.5 39t82.5 114q0 57 -43.5 88t-117.5 31z" />
<glyph unicode="&#x1e20;" horiz-adv-x="1427" d="M1303 1841l-37 -170h-588l37 170h588zM815 541l45 207h510l-160 -748h-233l35 164q-204 -174 -416 -174q-152 0 -271 78.5t-184 214.5t-65 305q0 172 72 334t189.5 280.5t273.5 190t317 71.5q190 0 314 -84.5t165 -232.5l-244 -156q-27 106 -107 164.5t-190 58.5 q-99 0 -192 -50.5t-160.5 -133t-108 -191.5t-40.5 -221q0 -165 83.5 -271.5t225.5 -106.5q197 0 395 198l23 103h-277z" />
<glyph unicode="&#x1e21;" horiz-adv-x="1251" d="M461 1290l37 170h587l-36 -170h-588zM-102 -233l180 145q42 -76 120 -119t177 -43q129 0 229 76t131 225l29 135q-68 -91 -169 -141.5t-206 -50.5q-165 0 -260.5 121.5t-95.5 306.5q0 175 83 330t223 247.5t300 92.5q115 0 193 -55t116 -152l39 188h242l-219 -1022 q-50 -234 -237.5 -371t-440.5 -137q-307 0 -434 224zM809 393l53 256q-13 93 -72.5 151t-138.5 58q-86 0 -164.5 -59t-124 -150.5t-45.5 -185.5q0 -106 59 -178t154 -72q77 0 155 52t124 128z" />
<glyph unicode="&#x1e24;" horiz-adv-x="1470" d="M330 1454h280l-125 -588h607l125 588h280l-309 -1454h-281l131 621h-606l-131 -621h-281zM416 -401l55 258h246l-55 -258h-246z" />
<glyph unicode="&#x1e25;" horiz-adv-x="1191" d="M309 1495h275l-133 -621q80 103 187 160.5t222 57.5q252 0 252 -252q0 -75 -20 -170l-142 -670h-274l127 602q12 58 12 100q0 148 -125 148q-69 0 -156 -64t-135 -159l-133 -627h-274zM276 -401l56 258h246l-56 -258h-246z" />
<glyph unicode="&#x1e2a;" horiz-adv-x="1470" d="M330 1454h280l-125 -588h607l125 588h280l-309 -1454h-281l131 621h-606l-131 -621h-281zM532 -383q-107 0 -156.5 77t-21.5 197h142q-13 -61 6 -106t59 -45q38 0 77.5 42.5t61.5 108.5h140q-28 -120 -115 -197t-193 -77z" />
<glyph unicode="&#x1e2b;" horiz-adv-x="1191" d="M309 1495h275l-133 -621q80 103 187 160.5t222 57.5q252 0 252 -252q0 -75 -20 -170l-142 -670h-274l127 602q12 58 12 100q0 148 -125 148q-69 0 -156 -64t-135 -159l-133 -627h-274zM393 -383q-107 0 -156.5 77t-21.5 197h141q-13 -61 6.5 -106t59.5 -45 q38 0 77.5 42.5t61.5 108.5h139q-28 -120 -114.5 -197t-192.5 -77z" />
<glyph unicode="&#x1e2e;" horiz-adv-x="583" d="M678 2009l-178 35l155 244h254zM207 1618l53 244h227l-53 -244h-227zM592 1618l53 244h225l-51 -244h-227zM330 1452h280l-309 -1452h-281z" />
<glyph unicode="&#x1e2f;" horiz-adv-x="518" d="M555 1628l-178 35l155 244h254zM84 1237l53 244h228l-54 -244h-227zM469 1237l53 244h226l-52 -244h-227zM219 1073h275l-228 -1073h-274z" />
<glyph unicode="&#x1e36;" horiz-adv-x="1148" d="M330 1454h280l-256 -1206h695l-52 -248h-977zM301 -401l55 258h246l-55 -258h-246z" />
<glyph unicode="&#x1e37;" horiz-adv-x="632" d="M33 170q0 20 8 78l266 1247h273l-244 -1151q-4 -28 -4 -41q0 -40 21.5 -62t62.5 -22q45 0 108 29l-8 -209q-57 -25 -131.5 -40t-136.5 -15q-104 0 -159.5 48.5t-55.5 137.5zM57 -401l56 258h245l-55 -258h-246z" />
<glyph unicode="&#x1e3a;" horiz-adv-x="1148" d="M330 1454h280l-256 -1206h695l-52 -248h-977zM150 -334l40 170h560l-39 -170h-561z" />
<glyph unicode="&#x1e3b;" horiz-adv-x="632" d="M33 170q0 20 8 78l266 1247h273l-244 -1151q-4 -28 -4 -41q0 -40 21.5 -62t62.5 -22q45 0 108 29l-8 -209q-57 -25 -131.5 -40t-136.5 -15q-104 0 -159.5 48.5t-55.5 137.5zM-94 -334l41 170h559l-39 -170h-561z" />
<glyph unicode="&#x1e42;" horiz-adv-x="1699" d="M330 1454h303l219 -827l573 827h301l-309 -1454h-280l204 963l-493 -717h-154l-188 717l-205 -963h-281zM528 -401l56 258h245l-55 -258h-246z" />
<glyph unicode="&#x1e43;" horiz-adv-x="1826" d="M219 1073h248l-43 -199q76 101 188.5 159.5t229.5 58.5q235 0 245 -228q85 110 194 169t226 59q240 0 240 -250q0 -75 -21 -172l-143 -670h-274l127 602q14 57 14 109q0 69 -29.5 104t-81.5 35q-75 0 -153.5 -63t-128.5 -162l-131 -625h-275l127 602q13 70 13 111 q0 137 -111 137q-73 0 -152 -63t-129 -160l-133 -627h-274zM594 -401l55 258h246l-55 -258h-246z" />
<glyph unicode="&#x1e44;" horiz-adv-x="1501" d="M846 1614l57 258h246l-55 -258h-248zM330 1454h219l495 -954l203 952h281l-309 -1452h-228l-493 932l-197 -932h-281z" />
<glyph unicode="&#x1e45;" horiz-adv-x="1191" d="M688 1233l57 258h246l-55 -258h-248zM219 1073h248l-43 -199q78 102 197 160t251 58q240 0 240 -248q0 -76 -20 -174l-142 -670h-274l127 602q14 72 14 109q0 69 -31 104t-86 35q-76 0 -164 -64t-137 -159l-133 -627h-274z" />
<glyph unicode="&#x1e46;" horiz-adv-x="1501" d="M330 1454h219l495 -954l203 952h281l-309 -1452h-228l-493 932l-197 -932h-281zM428 -401l55 258h246l-55 -258h-246z" />
<glyph unicode="&#x1e47;" horiz-adv-x="1191" d="M219 1073h248l-43 -199q78 102 197 160t251 58q240 0 240 -248q0 -76 -20 -174l-142 -670h-274l127 602q14 72 14 109q0 69 -31 104t-86 35q-76 0 -164 -64t-137 -159l-133 -627h-274zM276 -401l56 258h246l-56 -258h-246z" />
<glyph unicode="&#x1e48;" horiz-adv-x="1501" d="M330 1454h219l495 -954l203 952h281l-309 -1452h-228l-493 932l-197 -932h-281zM276 -334l41 170h560l-39 -170h-562z" />
<glyph unicode="&#x1e49;" horiz-adv-x="1191" d="M219 1073h248l-43 -199q78 102 197 160t251 58q240 0 240 -248q0 -76 -20 -174l-142 -670h-274l127 602q14 72 14 109q0 69 -31 104t-86 35q-76 0 -164 -64t-137 -159l-133 -627h-274zM125 -334l41 170h559l-39 -170h-561z" />
<glyph unicode="&#x1e4c;" horiz-adv-x="1492" d="M1133 2019l-179 35l156 244h254zM856 1702q-25 0 -45.5 -9.5t-32.5 -23t-20.5 -28.5t-11.5 -24.5t-3 -12.5h-151q3 17 16.5 46.5t39.5 67.5t58.5 70.5t79 55t95.5 22.5q40 0 74 -15t54.5 -33.5t48.5 -33.5t58 -15q32 0 58 14.5t40 35t20.5 33.5t8.5 20h150 q-3 -14 -16.5 -42.5t-40.5 -66.5t-60.5 -72t-82 -57.5t-99.5 -23.5q-40 0 -75 14.5t-56.5 31.5t-50 31.5t-56.5 14.5zM76 594q0 163 71.5 322t187.5 279t274.5 194.5t322.5 74.5q100 0 186.5 -33t149 -91t107 -135t66 -165.5t21.5 -183.5q0 -161 -71 -319.5t-186.5 -278.5 t-272.5 -194t-320 -74q-126 0 -229 50t-169 134t-102 192.5t-36 227.5zM1176 836q0 104 -33 187.5t-103 136t-168 52.5q-109 0 -206 -54.5t-162.5 -140.5t-103.5 -191.5t-38 -209.5q0 -103 33 -186.5t103.5 -136.5t169.5 -53q109 0 206 55t161.5 141.5t102.5 192t38 207.5z " />
<glyph unicode="&#x1e4d;" horiz-adv-x="1200" d="M901 1638l-178 35l156 244h254zM625 1321q-25 0 -45.5 -9.5t-32.5 -23t-20.5 -28.5t-11.5 -24.5t-3 -12.5h-152q3 17 16.5 46.5t39.5 67.5t58.5 70.5t79 55t95.5 22.5q40 0 74.5 -15t54.5 -33t48.5 -33t58.5 -15q32 0 58 14t40 34.5t20.5 33.5t8.5 20h149 q-3 -14 -16.5 -42.5t-40.5 -66.5t-60.5 -72t-82 -57.5t-99.5 -23.5q-40 0 -75 14.5t-56 31.5t-49.5 31.5t-56.5 14.5zM31 434q0 131 49 251t134 210t208.5 143.5t263.5 53.5q113 0 200.5 -35.5t141 -98t80.5 -143.5t27 -178q0 -130 -49 -250t-134.5 -210t-209 -143.5 t-263.5 -53.5q-113 0 -200.5 35.5t-140.5 98t-80 143.5t-27 177zM850 604q0 116 -54 185t-151 69q-131 0 -230.5 -114t-99.5 -279q0 -115 54 -183.5t151 -68.5q131 0 230.5 113t99.5 278z" />
<glyph unicode="&#x1e4e;" horiz-adv-x="1492" d="M750 2036l53 243h227l-53 -243h-227zM1135 2036l53 243h225l-51 -243h-227zM856 1702q-25 0 -45.5 -9.5t-32.5 -23t-20.5 -28.5t-11.5 -24.5t-3 -12.5h-151q3 17 16.5 46.5t39.5 67.5t58.5 70.5t79 55t95.5 22.5q40 0 74 -15t54.5 -33.5t48.5 -33.5t58 -15q32 0 58 14.5 t40 35t20.5 33.5t8.5 20h150q-3 -14 -16.5 -42.5t-40.5 -66.5t-60.5 -72t-82 -57.5t-99.5 -23.5q-40 0 -75 14.5t-56.5 31.5t-50 31.5t-56.5 14.5zM76 594q0 163 71.5 322t187.5 279t274.5 194.5t322.5 74.5q100 0 186.5 -33t149 -91t107 -135t66 -165.5t21.5 -183.5 q0 -161 -71 -319.5t-186.5 -278.5t-272.5 -194t-320 -74q-126 0 -229 50t-169 134t-102 192.5t-36 227.5zM1176 836q0 104 -33 187.5t-103 136t-168 52.5q-109 0 -206 -54.5t-162.5 -140.5t-103.5 -191.5t-38 -209.5q0 -103 33 -186.5t103.5 -136.5t169.5 -53q109 0 206 55 t161.5 141.5t102.5 192t38 207.5z" />
<glyph unicode="&#x1e4f;" horiz-adv-x="1200" d="M518 1655l53 243h228l-54 -243h-227zM903 1655l53 243h226l-52 -243h-227zM625 1321q-25 0 -45.5 -9.5t-32.5 -23t-20.5 -28.5t-11.5 -24.5t-3 -12.5h-152q3 17 16.5 46.5t39.5 67.5t58.5 70.5t79 55t95.5 22.5q40 0 74.5 -15t54.5 -33t48.5 -33t58.5 -15q32 0 58 14 t40 34.5t20.5 33.5t8.5 20h149q-3 -14 -16.5 -42.5t-40.5 -66.5t-60.5 -72t-82 -57.5t-99.5 -23.5q-40 0 -75 14.5t-56 31.5t-49.5 31.5t-56.5 14.5zM31 434q0 131 49 251t134 210t208.5 143.5t263.5 53.5q113 0 200.5 -35.5t141 -98t80.5 -143.5t27 -178q0 -130 -49 -250 t-134.5 -210t-209 -143.5t-263.5 -53.5q-113 0 -200.5 35.5t-140.5 98t-80 143.5t-27 177zM850 604q0 116 -54 185t-151 69q-131 0 -230.5 -114t-99.5 -279q0 -115 54 -183.5t151 -68.5q131 0 230.5 113t99.5 278z" />
<glyph unicode="&#x1e50;" horiz-adv-x="1492" d="M801 2263h252l53 -244l-191 -37zM682 1671l37 170h588l-37 -170h-588zM76 594q0 163 71.5 322t187.5 279t274.5 194.5t322.5 74.5q100 0 186.5 -33t149 -91t107 -135t66 -165.5t21.5 -183.5q0 -161 -71 -319.5t-186.5 -278.5t-272.5 -194t-320 -74q-126 0 -229 50 t-169 134t-102 192.5t-36 227.5zM1176 836q0 104 -33 187.5t-103 136t-168 52.5q-109 0 -206 -54.5t-162.5 -140.5t-103.5 -191.5t-38 -209.5q0 -103 33 -186.5t103.5 -136.5t169.5 -53q109 0 206 55t161.5 141.5t102.5 192t38 207.5z" />
<glyph unicode="&#x1e51;" horiz-adv-x="1200" d="M569 1882h252l53 -244l-190 -36zM451 1290l36 170h588l-37 -170h-587zM31 434q0 131 49 251t134 210t208.5 143.5t263.5 53.5q113 0 200.5 -35.5t141 -98t80.5 -143.5t27 -178q0 -130 -49 -250t-134.5 -210t-209 -143.5t-263.5 -53.5q-113 0 -200.5 35.5t-140.5 98 t-80 143.5t-27 177zM850 604q0 116 -54 185t-151 69q-131 0 -230.5 -114t-99.5 -279q0 -115 54 -183.5t151 -68.5q131 0 230.5 113t99.5 278z" />
<glyph unicode="&#x1e52;" horiz-adv-x="1492" d="M1126 1989l-178 34l156 244h254zM682 1671l37 170h588l-37 -170h-588zM76 594q0 163 71.5 322t187.5 279t274.5 194.5t322.5 74.5q100 0 186.5 -33t149 -91t107 -135t66 -165.5t21.5 -183.5q0 -161 -71 -319.5t-186.5 -278.5t-272.5 -194t-320 -74q-126 0 -229 50 t-169 134t-102 192.5t-36 227.5zM1176 836q0 104 -33 187.5t-103 136t-168 52.5q-109 0 -206 -54.5t-162.5 -140.5t-103.5 -191.5t-38 -209.5q0 -103 33 -186.5t103.5 -136.5t169.5 -53q109 0 206 55t161.5 141.5t102.5 192t38 207.5z" />
<glyph unicode="&#x1e53;" horiz-adv-x="1200" d="M895 1608l-178 34l155 244h254zM451 1290l36 170h588l-37 -170h-587zM31 434q0 131 49 251t134 210t208.5 143.5t263.5 53.5q113 0 200.5 -35.5t141 -98t80.5 -143.5t27 -178q0 -130 -49 -250t-134.5 -210t-209 -143.5t-263.5 -53.5q-113 0 -200.5 35.5t-140.5 98 t-80 143.5t-27 177zM850 604q0 116 -54 185t-151 69q-131 0 -230.5 -114t-99.5 -279q0 -115 54 -183.5t151 -68.5q131 0 230.5 113t99.5 278z" />
<glyph unicode="&#x1e5a;" horiz-adv-x="1314" d="M20 0l310 1454h614q105 0 186.5 -58t122.5 -148.5t41 -194.5q0 -158 -98 -301t-246 -205l197 -547h-320l-172 487h-252l-102 -487h-281zM782 735q84 0 153 88t69 201q0 78 -38 130t-94 52h-315l-100 -471h325zM319 -401l56 258h246l-56 -258h-246z" />
<glyph unicode="&#x1e5b;" horiz-adv-x="774" d="M219 1073h252l-49 -229q79 111 175.5 175t190.5 64q30 0 50 -4l-52 -243q-120 -2 -222 -50t-161 -137l-137 -649h-274zM-76 -401l56 258h245l-55 -258h-246z" />
<glyph unicode="&#x1e5e;" horiz-adv-x="1314" d="M20 0l310 1454h614q105 0 186.5 -58t122.5 -148.5t41 -194.5q0 -158 -98 -301t-246 -205l197 -547h-320l-172 487h-252l-102 -487h-281zM782 735q84 0 153 88t69 201q0 78 -38 130t-94 52h-315l-100 -471h325zM168 -334l41 170h559l-39 -170h-561z" />
<glyph unicode="&#x1e5f;" horiz-adv-x="774" d="M219 1073h252l-49 -229q79 111 175.5 175t190.5 64q30 0 50 -4l-52 -243q-120 -2 -222 -50t-161 -137l-137 -649h-274zM-227 -334l41 170h559l-39 -170h-561z" />
<glyph unicode="&#x1e60;" horiz-adv-x="1212" d="M719 1640l57 258h246l-55 -258h-248zM-43 172l176 244q30 -50 156 -114t268 -64q119 0 181.5 47t62.5 129q0 30 -14 54t-38.5 42.5t-61.5 35t-78.5 30.5t-93.5 31q-5 1 -8 2t-7 2.5t-8 2.5q-162 52 -238 123.5t-76 190.5q0 123 51 225.5t137 169.5t197 104t232 37 q135 0 250 -45t200 -116l-174 -230q-19 39 -123.5 91.5t-214.5 52.5q-120 0 -183 -52.5t-63 -142.5q0 -28 12.5 -50t31.5 -38t57 -32t73 -27.5t95 -28.5q89 -27 149 -54.5t111 -67.5t75.5 -95.5t24.5 -128.5q0 -107 -34.5 -194.5t-93 -146t-138.5 -99t-168 -58.5t-184 -18 q-154 0 -297 49.5t-244 138.5z" />
<glyph unicode="&#x1e61;" horiz-adv-x="983" d="M508 1233l57 258h246l-55 -258h-248zM-51 145l137 172q154 -139 326 -139q85 0 134.5 36t49.5 97q0 49 -38.5 72.5t-147.5 56.5q-174 55 -242 106t-68 148q0 112 64.5 204t175.5 144t244 52q236 0 372 -148l-145 -166q-66 62 -127 89.5t-131 27.5q-82 0 -134 -35.5 t-52 -99.5q0 -45 34.5 -67t135.5 -52q91 -26 149 -50.5t102.5 -57t64 -73.5t19.5 -97q0 -168 -136 -276.5t-355 -108.5q-134 0 -249 43t-183 122z" />
<glyph unicode="&#x1e62;" horiz-adv-x="1212" d="M-43 172l176 244q30 -50 156 -114t268 -64q119 0 181.5 47t62.5 129q0 30 -14 54t-38.5 42.5t-61.5 35t-78.5 30.5t-93.5 31q-5 1 -8 2t-7 2.5t-8 2.5q-162 52 -238 123.5t-76 190.5q0 123 51 225.5t137 169.5t197 104t232 37q135 0 250 -45t200 -116l-174 -230 q-19 39 -123.5 91.5t-214.5 52.5q-120 0 -183 -52.5t-63 -142.5q0 -28 12.5 -50t31.5 -38t57 -32t73 -27.5t95 -28.5q89 -27 149 -54.5t111 -67.5t75.5 -95.5t24.5 -128.5q0 -107 -34.5 -194.5t-93 -146t-138.5 -99t-168 -58.5t-184 -18q-154 0 -297 49.5t-244 138.5z M287 -401l55 258h246l-56 -258h-245z" />
<glyph unicode="&#x1e63;" horiz-adv-x="983" d="M-51 145l137 172q154 -139 326 -139q85 0 134.5 36t49.5 97q0 49 -38.5 72.5t-147.5 56.5q-174 55 -242 106t-68 148q0 112 64.5 204t175.5 144t244 52q236 0 372 -148l-145 -166q-66 62 -127 89.5t-131 27.5q-82 0 -134 -35.5t-52 -99.5q0 -45 34.5 -67t135.5 -52 q91 -26 149 -50.5t102.5 -57t64 -73.5t19.5 -97q0 -168 -136 -276.5t-355 -108.5q-134 0 -249 43t-183 122zM168 -401l55 258h246l-55 -258h-246z" />
<glyph unicode="&#x1e64;" horiz-adv-x="1212" d="M868 2066l58 258h245l-55 -258h-248zM922 1624l-179 35l156 244h254zM-43 172l176 244q30 -50 156 -114t268 -64q119 0 181.5 47t62.5 129q0 30 -14 54t-38.5 42.5t-61.5 35t-78.5 30.5t-93.5 31q-5 1 -8 2t-7 2.5t-8 2.5q-162 52 -238 123.5t-76 190.5q0 123 51 225.5 t137 169.5t197 104t232 37q135 0 250 -45t200 -116l-174 -230q-19 39 -123.5 91.5t-214.5 52.5q-120 0 -183 -52.5t-63 -142.5q0 -28 12.5 -50t31.5 -38t57 -32t73 -27.5t95 -28.5q89 -27 149 -54.5t111 -67.5t75.5 -95.5t24.5 -128.5q0 -107 -34.5 -194.5t-93 -146 t-138.5 -99t-168 -58.5t-184 -18q-154 0 -297 49.5t-244 138.5z" />
<glyph unicode="&#x1e65;" horiz-adv-x="983" d="M657 1659l58 258h246l-56 -258h-248zM711 1217l-179 34l156 244h254zM-51 145l137 172q154 -139 326 -139q85 0 134.5 36t49.5 97q0 49 -38.5 72.5t-147.5 56.5q-174 55 -242 106t-68 148q0 112 64.5 204t175.5 144t244 52q236 0 372 -148l-145 -166q-66 62 -127 89.5 t-131 27.5q-82 0 -134 -35.5t-52 -99.5q0 -45 34.5 -67t135.5 -52q91 -26 149 -50.5t102.5 -57t64 -73.5t19.5 -97q0 -168 -136 -276.5t-355 -108.5q-134 0 -249 43t-183 122z" />
<glyph unicode="&#x1e66;" horiz-adv-x="1212" d="M807 2062l57 258h246l-55 -258h-248zM567 1833l156 65l137 -129l193 129l129 -65l-254 -207h-197zM-43 172l176 244q30 -50 156 -114t268 -64q119 0 181.5 47t62.5 129q0 30 -14 54t-38.5 42.5t-61.5 35t-78.5 30.5t-93.5 31q-5 1 -8 2t-7 2.5t-8 2.5q-162 52 -238 123.5 t-76 190.5q0 123 51 225.5t137 169.5t197 104t232 37q135 0 250 -45t200 -116l-174 -230q-19 39 -123.5 91.5t-214.5 52.5q-120 0 -183 -52.5t-63 -142.5q0 -28 12.5 -50t31.5 -38t57 -32t73 -27.5t95 -28.5q89 -27 149 -54.5t111 -67.5t75.5 -95.5t24.5 -128.5 q0 -107 -34.5 -194.5t-93 -146t-138.5 -99t-168 -58.5t-184 -18q-154 0 -297 49.5t-244 138.5z" />
<glyph unicode="&#x1e67;" horiz-adv-x="983" d="M596 1655l57 258h246l-55 -258h-248zM356 1425l156 66l137 -129l193 129l129 -66l-254 -206h-197zM-51 145l137 172q154 -139 326 -139q85 0 134.5 36t49.5 97q0 49 -38.5 72.5t-147.5 56.5q-174 55 -242 106t-68 148q0 112 64.5 204t175.5 144t244 52q236 0 372 -148 l-145 -166q-66 62 -127 89.5t-131 27.5q-82 0 -134 -35.5t-52 -99.5q0 -45 34.5 -67t135.5 -52q91 -26 149 -50.5t102.5 -57t64 -73.5t19.5 -97q0 -168 -136 -276.5t-355 -108.5q-134 0 -249 43t-183 122z" />
<glyph unicode="&#x1e68;" horiz-adv-x="1212" d="M719 1640l57 258h246l-55 -258h-248zM-43 172l176 244q30 -50 156 -114t268 -64q119 0 181.5 47t62.5 129q0 30 -14 54t-38.5 42.5t-61.5 35t-78.5 30.5t-93.5 31q-5 1 -8 2t-7 2.5t-8 2.5q-162 52 -238 123.5t-76 190.5q0 123 51 225.5t137 169.5t197 104t232 37 q135 0 250 -45t200 -116l-174 -230q-19 39 -123.5 91.5t-214.5 52.5q-120 0 -183 -52.5t-63 -142.5q0 -28 12.5 -50t31.5 -38t57 -32t73 -27.5t95 -28.5q89 -27 149 -54.5t111 -67.5t75.5 -95.5t24.5 -128.5q0 -107 -34.5 -194.5t-93 -146t-138.5 -99t-168 -58.5t-184 -18 q-154 0 -297 49.5t-244 138.5zM287 -401l55 258h246l-56 -258h-245z" />
<glyph unicode="&#x1e69;" horiz-adv-x="983" d="M508 1233l57 258h246l-55 -258h-248zM-51 145l137 172q154 -139 326 -139q85 0 134.5 36t49.5 97q0 49 -38.5 72.5t-147.5 56.5q-174 55 -242 106t-68 148q0 112 64.5 204t175.5 144t244 52q236 0 372 -148l-145 -166q-66 62 -127 89.5t-131 27.5q-82 0 -134 -35.5 t-52 -99.5q0 -45 34.5 -67t135.5 -52q91 -26 149 -50.5t102.5 -57t64 -73.5t19.5 -97q0 -168 -136 -276.5t-355 -108.5q-134 0 -249 43t-183 122zM168 -401l55 258h246l-55 -258h-246z" />
<glyph unicode="&#x1e6c;" horiz-adv-x="1212" d="M592 1206h-436l51 248h1153l-53 -248h-435l-256 -1206h-282zM270 -401l56 258h245l-55 -258h-246z" />
<glyph unicode="&#x1e6d;" horiz-adv-x="763" d="M96 170q0 40 8 76l132 616h-134l45 211h132l73 348h275l-74 -348h215l-45 -211h-213l-113 -524q-4 -24 -4 -33q0 -72 78 -72q47 0 150 39l8 -217q-64 -31 -148 -52t-162 -21q-102 0 -162.5 46.5t-60.5 141.5zM61 -401l56 258h245l-55 -258h-246z" />
<glyph unicode="&#x1e6e;" horiz-adv-x="1212" d="M592 1206h-436l51 248h1153l-53 -248h-435l-256 -1206h-282zM119 -334l41 170h559l-39 -170h-561z" />
<glyph unicode="&#x1e6f;" horiz-adv-x="763" d="M96 170q0 40 8 76l132 616h-134l45 211h132l73 348h275l-74 -348h215l-45 -211h-213l-113 -524q-4 -24 -4 -33q0 -72 78 -72q47 0 150 39l8 -217q-64 -31 -148 -52t-162 -21q-102 0 -162.5 46.5t-60.5 141.5zM-90 -334l41 170h559l-39 -170h-561z" />
<glyph unicode="&#x1e78;" horiz-adv-x="1474" d="M1110 2019l-178 35l155 244h254zM834 1702q-25 0 -45.5 -9.5t-32.5 -23t-20.5 -28.5t-11.5 -24.5t-3 -12.5h-152q3 17 16.5 46.5t39.5 67.5t58.5 70.5t79 55t95.5 22.5q40 0 74.5 -15t54.5 -33.5t48.5 -33.5t58.5 -15q32 0 58 14.5t40 35t20.5 33.5t8.5 20h149 q-3 -14 -16.5 -42.5t-40.5 -66.5t-60.5 -72t-82 -57.5t-99.5 -23.5q-40 0 -75 14.5t-56 31.5t-49.5 31.5t-56.5 14.5zM125 481q0 112 27 232l157 741h281l-158 -741q-20 -90 -20 -183q0 -133 57.5 -211.5t185.5 -78.5q72 0 134.5 26.5t108.5 71t83.5 106.5t61.5 128t40 141 l158 741h281l-158 -741q-32 -153 -95 -281t-156 -228.5t-223.5 -157t-285.5 -56.5q-127 0 -221 37.5t-149.5 105t-82 154.5t-26.5 194z" />
</font>
</defs>
</svg>
